  0
SECTION
  2
HEADER
  9
$ACADVER
  1
AC1018
  9
$ACADMAINTVER
 70
   104
  9
$DWGCODEPAGE
  3
ANSI_1252
  9
$LASTSAVEDBY
  1
user
  9
$INSBASE
 10
0.0
 20
0.0
 30
0.0
  9
$EXTMIN
 10
1250.724504997229
 20
1278.714259161752
 30
0.0
  9
$EXTMAX
 10
1745.009383908077
 20
1757.565285085932
 30
0.0
  9
$LIMMIN
 10
0.0
 20
0.0
  9
$LIMMAX
 10
420.0
 20
297.0
  9
$ORTHOMODE
 70
     1
  9
$REGENMODE
 70
     1
  9
$FILLMODE
 70
     1
  9
$QTEXTMODE
 70
     0
  9
$MIRRTEXT
 70
     0
  9
$LTSCALE
 40
1.0
  9
$ATTMODE
 70
     1
  9
$TEXTSIZE
 40
0.3937
  9
$TRACEWID
 40
1.0
  9
$TEXTSTYLE
  7
\U+C2A4\U+D0C0\U+C77C2
  9
$CLAYER
  8
0
  9
$CELTYPE
  6
ByLayer
  9
$CECOLOR
 62
   256
  9
$CELTSCALE
 40
1.0
  9
$DISPSILH
 70
     0
  9
$DIMSCALE
 40
1.0
  9
$DIMASZ
 40
0.2
  9
$DIMEXO
 40
0.1
  9
$DIMDLI
 40
0.039
  9
$DIMRND
 40
0.0
  9
$DIMDLE
 40
0.0
  9
$DIMEXE
 40
0.2
  9
$DIMTP
 40
0.0
  9
$DIMTM
 40
0.0
  9
$DIMTXT
 40
2.5
  9
$DIMCEN
 40
0.039
  9
$DIMTSZ
 40
0.0
  9
$DIMTOL
 70
     0
  9
$DIMLIM
 70
     0
  9
$DIMTIH
 70
     0
  9
$DIMTOH
 70
     0
  9
$DIMSE1
 70
     0
  9
$DIMSE2
 70
     0
  9
$DIMTAD
 70
     1
  9
$DIMZIN
 70
     8
  9
$DIMBLK
  1

  9
$DIMASO
 70
     1
  9
$DIMSHO
 70
     1
  9
$DIMPOST
  1

  9
$DIMAPOST
  1

  9
$DIMALT
 70
     0
  9
$DIMALTD
 70
     2
  9
$DIMALTF
 40
0.0394
  9
$DIMLFAC
 40
1.0
  9
$DIMTOFL
 70
     1
  9
$DIMTVP
 40
1.0
  9
$DIMTIX
 70
     0
  9
$DIMSOXD
 70
     0
  9
$DIMSAH
 70
     0
  9
$DIMBLK1
  1

  9
$DIMBLK2
  1

  9
$DIMSTYLE
  2
DIN
  9
$DIMCLRD
 70
     0
  9
$DIMCLRE
 70
     0
  9
$DIMCLRT
 70
     0
  9
$DIMTFAC
 40
1.0
  9
$DIMGAP
 40
0.05
  9
$DIMJUST
 70
     0
  9
$DIMSD1
 70
     0
  9
$DIMSD2
 70
     0
  9
$DIMTOLJ
 70
     1
  9
$DIMTZIN
 70
     0
  9
$DIMALTZ
 70
     0
  9
$DIMALTTZ
 70
     0
  9
$DIMUPT
 70
     0
  9
$DIMDEC
 70
     4
  9
$DIMTDEC
 70
     4
  9
$DIMALTU
 70
     8
  9
$DIMALTTD
 70
     2
  9
$DIMTXSTY
  7
\U+C2A4\U+D0C0\U+C77C2
  9
$DIMAUNIT
 70
     0
  9
$DIMADEC
 70
     0
  9
$DIMALTRND
 40
0.0
  9
$DIMAZIN
 70
     0
  9
$DIMDSEP
 70
    46
  9
$DIMATFIT
 70
     3
  9
$DIMFRAC
 70
     0
  9
$DIMLDRBLK
  1

  9
$DIMLUNIT
 70
     6
  9
$DIMLWD
 70
    -2
  9
$DIMLWE
 70
    -2
  9
$DIMTMOVE
 70
     0
  9
$LUNITS
 70
     3
  9
$LUPREC
 70
     4
  9
$SKETCHINC
 40
1.0
  9
$FILLETRAD
 40
3.0
  9
$AUNITS
 70
     0
  9
$AUPREC
 70
     0
  9
$MENU
  1
.
  9
$ELEVATION
 40
0.0
  9
$PELEVATION
 40
0.0
  9
$THICKNESS
 40
0.0
  9
$LIMCHECK
 70
     0
  9
$CHAMFERA
 40
0.0
  9
$CHAMFERB
 40
0.0
  9
$CHAMFERC
 40
0.0
  9
$CHAMFERD
 40
0.0
  9
$SKPOLY
 70
     0
  9
$TDCREATE
 40
2454393.137688252
  9
$TDUCREATE
 40
2454393.346021586
  9
$TDUPDATE
 40
2458464.483778843
  9
$TDUUPDATE
 40
2458464.692112176
  9
$TDINDWG
 40
0.9333966667
  9
$TDUSRTIMER
 40
0.9333961227
  9
$USRTIMER
 70
     1
  9
$ANGBASE
 50
0.0
  9
$ANGDIR
 70
     0
  9
$PDMODE
 70
     0
  9
$PDSIZE
 40
0.0
  9
$PLINEWID
 40
0.0
  9
$SPLFRAME
 70
     0
  9
$SPLINETYPE
 70
     6
  9
$SPLINESEGS
 70
     8
  9
$HANDSEED
  5
3449
  9
$SURFTAB1
 70
     6
  9
$SURFTAB2
 70
     6
  9
$SURFTYPE
 70
     6
  9
$SURFU
 70
     6
  9
$SURFV
 70
     6
  9
$UCSBASE
  2

  9
$UCSNAME
  2

  9
$UCSORG
 10
0.0
 20
0.0
 30
0.0
  9
$UCSXDIR
 10
1.0
 20
0.0
 30
0.0
  9
$UCSYDIR
 10
0.0
 20
1.0
 30
0.0
  9
$UCSORTHOREF
  2

  9
$UCSORTHOVIEW
 70
     0
  9
$UCSORGTOP
 10
0.0
 20
0.0
 30
0.0
  9
$UCSORGBOTTOM
 10
0.0
 20
0.0
 30
0.0
  9
$UCSORGLEFT
 10
0.0
 20
0.0
 30
0.0
  9
$UCSORGRIGHT
 10
0.0
 20
0.0
 30
0.0
  9
$UCSORGFRONT
 10
0.0
 20
0.0
 30
0.0
  9
$UCSORGBACK
 10
0.0
 20
0.0
 30
0.0
  9
$PUCSBASE
  2

  9
$PUCSNAME
  2

  9
$PUCSORG
 10
0.0
 20
0.0
 30
0.0
  9
$PUCSXDIR
 10
1.0
 20
0.0
 30
0.0
  9
$PUCSYDIR
 10
0.0
 20
1.0
 30
0.0
  9
$PUCSORTHOREF
  2

  9
$PUCSORTHOVIEW
 70
     0
  9
$PUCSORGTOP
 10
0.0
 20
0.0
 30
0.0
  9
$PUCSORGBOTTOM
 10
0.0
 20
0.0
 30
0.0
  9
$PUCSORGLEFT
 10
0.0
 20
0.0
 30
0.0
  9
$PUCSORGRIGHT
 10
0.0
 20
0.0
 30
0.0
  9
$PUCSORGFRONT
 10
0.0
 20
0.0
 30
0.0
  9
$PUCSORGBACK
 10
0.0
 20
0.0
 30
0.0
  9
$USERI1
 70
     0
  9
$USERI2
 70
     0
  9
$USERI3
 70
     0
  9
$USERI4
 70
     0
  9
$USERI5
 70
     0
  9
$USERR1
 40
0.0
  9
$USERR2
 40
0.0
  9
$USERR3
 40
0.0
  9
$USERR4
 40
0.0
  9
$USERR5
 40
0.0
  9
$WORLDVIEW
 70
     1
  9
$SHADEDGE
 70
     3
  9
$SHADEDIF
 70
    70
  9
$TILEMODE
 70
     1
  9
$MAXACTVP
 70
    64
  9
$PINSBASE
 10
0.0
 20
0.0
 30
0.0
  9
$PLIMCHECK
 70
     0
  9
$PEXTMIN
 10
1.000000000000000E+20
 20
1.000000000000000E+20
 30
1.000000000000000E+20
  9
$PEXTMAX
 10
-1.000000000000000E+20
 20
-1.000000000000000E+20
 30
-1.000000000000000E+20
  9
$PLIMMIN
 10
0.0071835950613108
 20
0.0009369707933118
  9
$PLIMMAX
 10
841.0071835950612
 20
594.0009369707931
  9
$UNITMODE
 70
     0
  9
$VISRETAIN
 70
     1
  9
$PLINEGEN
 70
     0
  9
$PSLTSCALE
 70
     1
  9
$TREEDEPTH
 70
  3020
  9
$CMLSTYLE
  2
Standard
  9
$CMLJUST
 70
     0
  9
$CMLSCALE
 40
20.0
  9
$PROXYGRAPHICS
 70
     1
  9
$MEASUREMENT
 70
     1
  9
$CELWEIGHT
370
    -1
  9
$ENDCAPS
280
     0
  9
$JOINSTYLE
280
     0
  9
$LWDISPLAY
290
     0
  9
$INSUNITS
 70
     1
  9
$HYPERLINKBASE
  1

  9
$STYLESHEET
  1

  9
$XEDIT
290
     1
  9
$CEPSNTYPE
380
     0
  9
$PSTYLEMODE
290
     1
  9
$FINGERPRINTGUID
  2
{AC2FA5CB-6F18-4BC2-9C5F-F25C10372E5B}
  9
$VERSIONGUID
  2
{359560D5-43BC-4702-AB6E-5DD89C70ED24}
  9
$EXTNAMES
290
     1
  9
$PSVPSCALE
 40
0.0
  9
$OLESTARTUP
290
     0
  9
$SORTENTS
280
   127
  9
$INDEXCTL
280
     0
  9
$HIDETEXT
280
     0
  9
$XCLIPFRAME
290
     0
  9
$HALOGAP
280
     0
  9
$OBSCOLOR
 70
   257
  9
$OBSLTYPE
280
     0
  9
$INTERSECTIONDISPLAY
280
     0
  9
$INTERSECTIONCOLOR
 70
   257
  9
$DIMASSOC
280
     1
  9
$PROJECTNAME
  1

  0
ENDSEC
  0
SECTION
  2
CLASSES
  0
CLASS
  1
ACDBDICTIONARYWDFLT
  2
AcDbDictionaryWithDefault
  3
ObjectDBX Classes
 90
        0
 91
        1
280
     0
281
     0
  0
CLASS
  1
PLOTSETTINGS
  2
AcDbPlotSettings
  3
ObjectDBX Classes
 90
        0
 91
        0
280
     0
281
     0
  0
CLASS
  1
DICTIONARYVAR
  2
AcDbDictionaryVar
  3
ObjectDBX Classes
 90
        0
 91
        5
280
     0
281
     0
  0
CLASS
  1
TABLESTYLE
  2
AcDbTableStyle
  3
ObjectDBX Classes
 90
     4095
 91
        1
280
     0
281
     0
  0
CLASS
  1
DIMASSOC
  2
AcDbDimAssoc
  3
"AcDbDimAssoc|Product Desc:     AcDim ARX App For Dimension|Company:          Autodesk, Inc.|WEB Address:      www.autodesk.com"
 90
        0
 91
       14
280
     0
281
     0
  0
CLASS
  1
SORTENTSTABLE
  2
AcDbSortentsTable
  3
ObjectDBX Classes
 90
        0
 91
        7
280
     0
281
     0
  0
CLASS
  1
MATERIAL
  2
AcDbMaterial
  3
ObjectDBX Classes
 90
     1024
 91
        3
280
     0
281
     0
  0
CLASS
  1
VISUALSTYLE
  2
AcDbVisualStyle
  3
ObjectDBX Classes
 90
     4095
 91
       19
280
     0
281
     0
  0
CLASS
  1
SCALE
  2
AcDbScale
  3
ObjectDBX Classes
 90
     1153
 91
       17
280
     0
281
     0
  0
CLASS
  1
MLEADERSTYLE
  2
AcDbMLeaderStyle
  3
ACDB_MLEADERSTYLE_CLASS
 90
     4095
 91
        1
280
     0
281
     0
  0
CLASS
  1
CELLSTYLEMAP
  2
AcDbCellStyleMap
  3
ObjectDBX Classes
 90
     1152
 91
        1
280
     0
281
     0
  0
ENDSEC
  0
SECTION
  2
TABLES
  0
TABLE
  2
VPORT
  5
19
330
0
100
AcDbSymbolTable
 70
     1
  0
VPORT
  5
3158
330
19
100
AcDbSymbolTableRecord
100
AcDbViewportTableRecord
  2
*Active
 70
     0
 10
0.0
 20
0.0
 11
1.0
 21
1.0
 12
1286.584558277653
 22
1289.060742019287
 13
0.0
 23
0.0
 14
10.0
 24
10.0
 15
10.0
 25
10.0
 16
0.0
 26
0.0
 36
1.0
 17
0.0
 27
0.0
 37
0.0
 40
18.41282897708379
 41
2.537401574803149
 42
50.0
 43
0.0
 44
0.0
 50
0.0
 51
0.0
 71
     0
 72
  1000
 73
     1
 74
     3
 75
     0
 76
     0
 77
     0
 78
     0
281
     0
 65
     1
110
0.0
120
0.0
130
0.0
111
1.0
121
0.0
131
0.0
112
0.0
122
1.0
132
0.0
 79
     0
146
0.0
  0
ENDTAB
  0
TABLE
  2
LTYPE
  5
14
330
0
100
AcDbSymbolTable
 70
     2
  0
LTYPE
  5
15
330
14
100
AcDbSymbolTableRecord
100
AcDbLinetypeTableRecord
  2
ByBlock
 70
     0
  3

 72
    65
 73
     0
 40
0.0
  0
LTYPE
  5
16
330
14
100
AcDbSymbolTableRecord
100
AcDbLinetypeTableRecord
  2
ByLayer
 70
     0
  3

 72
    65
 73
     0
 40
0.0
  0
LTYPE
  5
8
330
14
100
AcDbSymbolTableRecord
100
AcDbLinetypeTableRecord
  2
Continuous
 70
     0
  3
Solid line
 72
    65
 73
     0
 40
0.0
  0
LTYPE
  5
1811
330
14
100
AcDbSymbolTableRecord
100
AcDbLinetypeTableRecord
  2
ACAD_ISO04W100
 70
     0
  3
ISO long-dash dot ____ . ____ . ____ . ____ . _
 72
    65
 73
     4
 40
30.0
 49
24.0
 74
     0
 49
-3.0
 74
     0
 49
0.0
 74
     0
 49
-3.0
 74
     0
  0
ENDTAB
  0
TABLE
  2
LAYER
  5
10
102
{ACAD_XDICTIONARY
360
1CC0
102
}
330
0
100
AcDbSymbolTable
 70
    24
  0
LAYER
  5
4
102
{ACAD_XDICTIONARY
360
323C
102
}
330
10
100
AcDbSymbolTableRecord
100
AcDbLayerTableRecord
  2
0
 70
     0
 62
     7
  6
Continuous
370
    -3
390
5
  0
LAYER
  5
8E
102
{ACAD_XDICTIONARY
360
323E
102
}
330
10
100
AcDbSymbolTableRecord
100
AcDbLayerTableRecord
  2
07
 70
     0
 62
     7
  6
Continuous
370
    -3
390
5
  0
LAYER
  5
8F
102
{ACAD_XDICTIONARY
360
3240
102
}
330
10
100
AcDbSymbolTableRecord
100
AcDbLayerTableRecord
  2
035
 70
     0
 62
     5
  6
Continuous
370
    -3
390
5
  0
LAYER
  5
90
102
{ACAD_XDICTIONARY
360
3242
102
}
330
10
100
AcDbSymbolTableRecord
100
AcDbLayerTableRecord
  2
05
 70
     0
 62
     6
  6
Continuous
370
    -3
390
5
  0
LAYER
  5
91
102
{ACAD_XDICTIONARY
360
3244
102
}
330
10
100
AcDbSymbolTableRecord
100
AcDbLayerTableRecord
  2
025
 70
     0
 62
     1
  6
Continuous
370
    -3
390
5
  0
LAYER
  5
5CE
330
10
100
AcDbSymbolTableRecord
100
AcDbLayerTableRecord
  2
Defpoints
 70
     0
 62
     7
  6
Continuous
290
     0
370
    -3
390
5
  0
LAYER
  5
62B
102
{ACAD_XDICTIONARY
360
3246
102
}
330
10
100
AcDbSymbolTableRecord
100
AcDbLayerTableRecord
  2
\U+7C97\U+5B9E\U+7EBF
 70
     0
 62
     7
  6
Continuous
370
    30
390
5
  0
LAYER
  5
62C
102
{ACAD_XDICTIONARY
360
3248
102
}
330
10
100
AcDbSymbolTableRecord
100
AcDbLayerTableRecord
  2
\U+6807\U+6CE8\U+7EBF
 70
     0
 62
     7
  6
Continuous
370
    13
390
5
  0
LAYER
  5
1812
102
{ACAD_XDICTIONARY
360
324A
102
}
330
10
100
AcDbSymbolTableRecord
100
AcDbLayerTableRecord
  2
\U+4E2D\U+5FC3\U+7EBF
 70
     0
 62
     7
  6
ACAD_ISO04W100
370
    18
390
5
  0
LAYER
  5
26BA
102
{ACAD_XDICTIONARY
360
324C
102
}
330
10
100
AcDbSymbolTableRecord
100
AcDbLayerTableRecord
  2
LC-001-002-----0
 70
     0
 62
     1
  6
ByBlock
370
    -3
390
5
  0
LAYER
  5
26BB
102
{ACAD_XDICTIONARY
360
324E
102
}
330
10
100
AcDbSymbolTableRecord
100
AcDbLayerTableRecord
  2
LC-002-002-RND-0
 70
     0
 62
     1
  6
ByBlock
370
    -3
390
5
  0
LAYER
  5
26BC
102
{ACAD_XDICTIONARY
360
3250
102
}
330
10
100
AcDbSymbolTableRecord
100
AcDbLayerTableRecord
  2
LC-003-001-RND-0
 70
     0
 62
     1
  6
ByBlock
370
    -3
390
5
  0
LAYER
  5
26BD
102
{ACAD_XDICTIONARY
360
3252
102
}
330
10
100
AcDbSymbolTableRecord
100
AcDbLayerTableRecord
  2
LC-004-001-----0
 70
     0
 62
     1
  6
ByBlock
370
    -3
390
5
  0
LAYER
  5
26BE
102
{ACAD_XDICTIONARY
360
3254
102
}
330
10
100
AcDbSymbolTableRecord
100
AcDbLayerTableRecord
  2
LC-005-005-----0
 70
     0
 62
     2
  6
ByBlock
370
    -3
390
5
  0
LAYER
  5
2762
102
{ACAD_XDICTIONARY
360
3256
102
}
330
10
100
AcDbSymbolTableRecord
100
AcDbLayerTableRecord
  2
LC-002-001-RND-0
 70
     0
 62
     1
  6
ByBlock
370
    -3
390
5
  0
LAYER
  5
2763
102
{ACAD_XDICTIONARY
360
3258
102
}
330
10
100
AcDbSymbolTableRecord
100
AcDbLayerTableRecord
  2
LC-003-001-----0
 70
     0
 62
     1
  6
ByBlock
370
    -3
390
5
  0
LAYER
  5
2764
102
{ACAD_XDICTIONARY
360
325A
102
}
330
10
100
AcDbSymbolTableRecord
100
AcDbLayerTableRecord
  2
LC-004-005-----0
 70
     0
 62
     2
  6
ByBlock
370
    -3
390
5
  0
LAYER
  5
29AA
102
{ACAD_XDICTIONARY
360
325C
102
}
330
10
100
AcDbSymbolTableRecord
100
AcDbLayerTableRecord
  2
LC-002-020-----0
 70
     0
 62
     1
  6
ByBlock
370
    -3
390
5
  0
LAYER
  5
29AB
102
{ACAD_XDICTIONARY
360
325E
102
}
330
10
100
AcDbSymbolTableRecord
100
AcDbLayerTableRecord
  2
LC-003-005-----0
 70
     0
 62
     2
  6
ByBlock
370
    -3
390
5
  0
LAYER
  5
2A31
102
{ACAD_XDICTIONARY
360
3260
102
}
330
10
100
AcDbSymbolTableRecord
100
AcDbLayerTableRecord
  2
LC-004-003-MTG-0
 70
     0
 62
     2
  6
ByBlock
370
    -3
390
5
  0
LAYER
  5
2A32
102
{ACAD_XDICTIONARY
360
3262
102
}
330
10
100
AcDbSymbolTableRecord
100
AcDbLayerTableRecord
  2
LC-005-003-----0
 70
     0
 62
     2
  6
ByBlock
370
    -3
390
5
  0
LAYER
  5
2AD2
102
{ACAD_XDICTIONARY
360
3264
102
}
330
10
100
AcDbSymbolTableRecord
100
AcDbLayerTableRecord
  2
LC-004-003-----0
 70
     0
 62
     2
  6
ByBlock
370
    -3
390
5
  0
LAYER
  5
2DCD
102
{ACAD_XDICTIONARY
360
3266
102
}
330
10
100
AcDbSymbolTableRecord
100
AcDbLayerTableRecord
  2
LC-001-002-RND-0
 70
     0
 62
     1
  6
ByBlock
370
    -3
390
5
  0
LAYER
  5
2DCE
102
{ACAD_XDICTIONARY
360
3268
102
}
330
10
100
AcDbSymbolTableRecord
100
AcDbLayerTableRecord
  2
LC-002-002-----0
 70
     0
 62
     1
  6
ByBlock
370
    -3
390
5
  0
ENDTAB
  0
TABLE
  2
STYLE
  5
11
330
0
100
AcDbSymbolTable
 70
     5
  0
STYLE
  5
12
330
11
100
AcDbSymbolTableRecord
100
AcDbTextStyleTableRecord
  2
Standard
 70
     0
 40
0.0
 41
1.0
 50
0.0
 71
     0
 42
2.5
  3
txt
  4

  0
STYLE
  5
31
330
11
100
AcDbSymbolTableRecord
100
AcDbTextStyleTableRecord
  2
ISO Proportional
 70
     0
 40
0.0
 41
1.0
 50
0.0
 71
     0
 42
2.5
  3
isocp.shx
  4

  0
STYLE
  5
B96
330
11
100
AcDbSymbolTableRecord
100
AcDbTextStyleTableRecord
  2
\U+C2A4\U+D0C0\U+C77C1
 70
     0
 40
0.1968
 41
1.0
 50
0.0
 71
     0
 42
2.5
  3
txt.shx
  4

  0
STYLE
  5
B97
330
11
100
AcDbSymbolTableRecord
100
AcDbTextStyleTableRecord
  2
\U+C2A4\U+D0C0\U+C77C2
 70
     0
 40
0.3937
 41
1.0
 50
0.0
 71
     0
 42
0.3937
  3
txt.shx
  4

  0
STYLE
  5
2A33
330
11
100
AcDbSymbolTableRecord
100
AcDbTextStyleTableRecord
  2
LCTX0-400-0-0pDIN-Schrift
 70
     0
 40
0.0
 41
0.7
 50
0.0
 71
     0
 42
3.5
  3
TXT
  4

  0
ENDTAB
  0
TABLE
  2
VIEW
  5
17
330
0
100
AcDbSymbolTable
 70
     0
  0
ENDTAB
  0
TABLE
  2
UCS
  5
18
330
0
100
AcDbSymbolTable
 70
     0
  0
ENDTAB
  0
TABLE
  2
APPID
  5
1B
330
0
100
AcDbSymbolTable
 70
    20
  0
APPID
  5
1C
330
1B
100
AcDbSymbolTableRecord
100
AcDbRegAppTableRecord
  2
ACAD
 70
     0
  0
APPID
  5
346
330
1B
100
AcDbSymbolTableRecord
100
AcDbRegAppTableRecord
  2
GENIUS_GENTRA_14
 70
     0
  0
APPID
  5
347
330
1B
100
AcDbSymbolTableRecord
100
AcDbRegAppTableRecord
  2
GENIUS_GENODEF_13
 70
     0
  0
APPID
  5
348
330
1B
100
AcDbSymbolTableRecord
100
AcDbRegAppTableRecord
  2
GENIUS_GENOBJ-N-TIT_13
 70
     0
  0
APPID
  5
349
330
1B
100
AcDbSymbolTableRecord
100
AcDbRegAppTableRecord
  2
GENIUS_GENTITLE_13
 70
     0
  0
APPID
  5
34A
330
1B
100
AcDbSymbolTableRecord
100
AcDbRegAppTableRecord
  2
GENIUS_GENOENT_13
 70
     0
  0
APPID
  5
34B
330
1B
100
AcDbSymbolTableRecord
100
AcDbRegAppTableRecord
  2
GENIUS_GENOREF_13
 70
     0
  0
APPID
  5
34C
330
1B
100
AcDbSymbolTableRecord
100
AcDbRegAppTableRecord
  2
GENIUS_GENOLIS_13
 70
     0
  0
APPID
  5
34D
330
1B
100
AcDbSymbolTableRecord
100
AcDbRegAppTableRecord
  2
GENIUS_GENOBJ-N-SDF_13
 70
     0
  0
APPID
  5
34E
330
1B
100
AcDbSymbolTableRecord
100
AcDbRegAppTableRecord
  2
GENIUS_GENSCREG_13
 70
     0
  0
APPID
  5
886
330
1B
100
AcDbSymbolTableRecord
100
AcDbRegAppTableRecord
  2
ACAD_DSTYLE_DIMTEXT_FILL
 70
     0
  0
APPID
  5
B8B
330
1B
100
AcDbSymbolTableRecord
100
AcDbRegAppTableRecord
  2
ACAD_PSEXT
 70
     0
  0
APPID
  5
321C
330
1B
100
AcDbSymbolTableRecord
100
AcDbRegAppTableRecord
  2
ACAD_EXEMPT_FROM_CAD_STANDARDS
 70
     0
  0
APPID
  5
32C7
330
1B
100
AcDbSymbolTableRecord
100
AcDbRegAppTableRecord
  2
ACAD_MLEADERVER
 70
     0
  0
APPID
  5
334C
330
1B
100
AcDbSymbolTableRecord
100
AcDbRegAppTableRecord
  2
ACAD_DSTYLE_DIMJAG
 70
     0
  0
APPID
  5
334D
330
1B
100
AcDbSymbolTableRecord
100
AcDbRegAppTableRecord
  2
ACAD_DSTYLE_DIMTALN
 70
     0
  0
APPID
  5
334E
330
1B
100
AcDbSymbolTableRecord
100
AcDbRegAppTableRecord
  2
ACAD_DSTYLE_DIMBREAK
 70
     0
  0
APPID
  5
334F
330
1B
100
AcDbSymbolTableRecord
100
AcDbRegAppTableRecord
  2
ACAD_NAV_VCDISPLAY
 70
     0
  0
APPID
  5
33BF
330
1B
100
AcDbSymbolTableRecord
100
AcDbRegAppTableRecord
  2
ACAD_DSTYLE_DIMRADIAL_EXTENSION
 70
     0
  0
APPID
  5
3448
330
1B
100
AcDbSymbolTableRecord
100
AcDbRegAppTableRecord
  2
ACAD_DSTYLE_DIMJOGGED_JOGANGLE_SYMBOL
 70
     0
  0
ENDTAB
  0
TABLE
  2
DIMSTYLE
  5
1D
330
0
100
AcDbSymbolTable
 70
     8
100
AcDbDimStyleTable
 71
     1
340
1E
  0
DIMSTYLE
105
1E
330
1D
100
AcDbSymbolTableRecord
100
AcDbDimStyleTableRecord
  2
DIN
 70
     0
 41
2.5
 42
0.625
 43
3.75
 44
1.25
 74
     0
 77
     1
 78
     8
140
2.5
141
2.5
143
0.0394
145
1.0
147
0.625
172
     1
273
     8
277
     6
340
12
  0
DIMSTYLE
105
62D
330
1D
100
AcDbSymbolTableRecord
100
AcDbDimStyleTableRecord
  2
ISO-25
 70
     0
 41
10.0
 42
0.625
 43
3.75
 44
10.0
 73
     0
 74
     0
 77
     1
 78
     8
140
20.0
141
2.5
143
0.03937007874016
147
10.0
171
     3
172
     1
271
     2
272
     2
274
     3
278
    44
279
     1
283
     0
284
     8
340
12
  0
DIMSTYLE
105
62E
330
1D
100
AcDbSymbolTableRecord
100
AcDbDimStyleTableRecord
  2
\U+526F\U+672CISO-25
 70
     0
 41
15.0
 42
0.625
 43
3.75
 44
2.0
 73
     0
 74
     0
 77
     1
 78
     8
140
22.0
141
2.5
143
0.03937007874016
147
10.0
171
     3
179
     1
271
     1
272
     1
274
     3
278
    44
279
     1
283
     0
284
     8
340
12
  0
DIMSTYLE
105
62F
330
1D
100
AcDbSymbolTableRecord
100
AcDbDimStyleTableRecord
  2
\U+526F\U+672C (2)ISO-25
 70
     0
 41
10.0
 42
0.625
 43
3.75
 44
10.0
 73
     0
 74
     0
 77
     1
 78
     8
140
10.0
141
2.5
143
0.03937007874016
147
10.0
171
     3
172
     1
271
     2
272
     2
274
     3
278
    44
283
     0
284
     8
340
12
  0
DIMSTYLE
105
1FA0
330
1D
100
AcDbSymbolTableRecord
100
AcDbDimStyleTableRecord
  2
Standard
 70
     0
 41
25.0
 42
5.0
 43
2.0
 44
5.0
 73
     0
 74
     0
 77
     1
 78
    12
 79
     3
140
30.0
141
4.0
147
4.0
179
     2
340
12
  0
DIMSTYLE
105
2AD3
330
1D
100
AcDbSymbolTableRecord
100
AcDbDimStyleTableRecord
  2
LC-DIM-L-0025-02-02
 70
     0
 41
2.5
 42
0.0
 43
7.5
 44
1.8
 73
     0
 74
     0
 77
     1
 78
     8
 79
     2
140
2.5
141
0.0
146
0.71
147
1.5
172
     1
176
     2
177
     2
178
     2
179
     2
271
     2
278
    44
289
     1
340
2A33
  0
DIMSTYLE
105
2AD4
330
1D
100
AcDbSymbolTableRecord
100
AcDbDimStyleTableRecord
  2
LC-DIM-R-0025-02-02
 70
     0
 41
2.5
 42
0.0
 43
7.5
 44
1.8
 73
     0
 74
     0
 77
     1
 78
     8
 79
     2
140
2.5
141
0.0
146
0.71
147
1.5
176
     2
177
     2
178
     2
179
     2
271
     2
278
    44
289
     1
340
2A33
  0
DIMSTYLE
105
334B
102
{ACAD_REACTORS
330
3359
330
335C
330
33E3
330
33E6
330
33E9
102
}
330
1D
100
AcDbSymbolTableRecord
100
AcDbDimStyleTableRecord
  2
\U+6211\U+7684\U+6837\U+5F0F
 70
     0
 41
10.0
 42
6.0
 43
3.75
 44
1.25
 73
     0
 74
     0
 77
     1
 78
     8
140
17.0
141
2.5
143
0.03937007874016
147
0.625
172
     1
271
     2
272
     2
283
     0
284
     8
340
12
342
332D
1001
ACAD_DSTYLE_DIMBREAK
1070
   391
1040
3.75
1001
ACAD_DSTYLE_DIMJAG
1070
   388
1040
1.5
1001
ACAD_DSTYLE_DIMTALN
1070
   392
1070
     0
1001
ACAD_DSTYLE_DIMJOGGED_JOGANGLE_SYMBOL
1070
   384
1040
1.570796326794896
  0
ENDTAB
  0
TABLE
  2
BLOCK_RECORD
  5
1
330
0
100
AcDbSymbolTable
 70
    27
  0
BLOCK_RECORD
  5
2
102
{ACAD_XDICTIONARY
360
95E
102
}
330
1
100
AcDbSymbolTableRecord
100
AcDbBlockTableRecord
  2
*Model_Space
340
A
  0
BLOCK_RECORD
  5
C
330
1
100
AcDbSymbolTableRecord
100
AcDbBlockTableRecord
  2
*Paper_Space
340
F
  0
BLOCK_RECORD
  5
2A1A
330
1
100
AcDbSymbolTableRecord
100
AcDbBlockTableRecord
  2
LCDIM1
340
0
  0
BLOCK_RECORD
  5
3062
330
1
100
AcDbSymbolTableRecord
100
AcDbBlockTableRecord
  2
*X1
340
0
  0
BLOCK_RECORD
  5
307C
330
1
100
AcDbSymbolTableRecord
100
AcDbBlockTableRecord
  2
*X2
340
0
  0
BLOCK_RECORD
  5
30F5
330
1
100
AcDbSymbolTableRecord
100
AcDbBlockTableRecord
  2
*D3
340
0
  0
BLOCK_RECORD
  5
3102
330
1
100
AcDbSymbolTableRecord
100
AcDbBlockTableRecord
  2
*D4
340
0
  0
BLOCK_RECORD
  5
310F
330
1
100
AcDbSymbolTableRecord
100
AcDbBlockTableRecord
  2
*D5
340
0
  0
BLOCK_RECORD
  5
3118
330
1
100
AcDbSymbolTableRecord
100
AcDbBlockTableRecord
  2
*D6
340
0
  0
BLOCK_RECORD
  5
31A1
102
{ACAD_XDICTIONARY
360
31AA
102
}
330
1
100
AcDbSymbolTableRecord
100
AcDbBlockTableRecord
  2
A$C5E5C7AF6
340
0
1001
ACAD
1000
DesignCenter Data
1002
{
1070
     1
1070
     1
1002
}
  0
BLOCK_RECORD
  5
31AE
330
1
100
AcDbSymbolTableRecord
100
AcDbBlockTableRecord
  2
*D8
340
0
  0
BLOCK_RECORD
  5
31BA
330
1
100
AcDbSymbolTableRecord
100
AcDbBlockTableRecord
  2
*D9
340
0
  0
BLOCK_RECORD
  5
31E0
330
1
100
AcDbSymbolTableRecord
100
AcDbBlockTableRecord
  2
*D10
340
0
  0
BLOCK_RECORD
  5
31EC
330
1
100
AcDbSymbolTableRecord
100
AcDbBlockTableRecord
  2
*D11
340
0
  0
BLOCK_RECORD
  5
332D
330
1
100
AcDbSymbolTableRecord
100
AcDbBlockTableRecord
  2
_ClosedBlank
340
0
102
{BLKREFS
331
3338
331
3339
331
3344
331
3345
331
3376
331
3377
331
338D
331
338E
331
33B0
331
33B1
331
33BB
331
33A4
331
33A5
331
342E
331
342F
331
343C
331
343D
331
3444
102
}
  0
BLOCK_RECORD
  5
3333
330
1
100
AcDbSymbolTableRecord
100
AcDbBlockTableRecord
  2
*D13
340
0
  0
BLOCK_RECORD
  5
333F
330
1
100
AcDbSymbolTableRecord
100
AcDbBlockTableRecord
  2
*D14
340
0
  0
BLOCK_RECORD
  5
3372
330
1
100
AcDbSymbolTableRecord
100
AcDbBlockTableRecord
  2
*D16
340
0
  0
BLOCK_RECORD
  5
337E
330
1
100
AcDbSymbolTableRecord
100
AcDbBlockTableRecord
  2
*D17
340
0
  0
BLOCK_RECORD
  5
339F
330
1
100
AcDbSymbolTableRecord
100
AcDbBlockTableRecord
  2
*D19
340
0
  0
BLOCK_RECORD
  5
33AB
330
1
100
AcDbSymbolTableRecord
100
AcDbBlockTableRecord
  2
*D20
340
0
  0
BLOCK_RECORD
  5
33B7
330
1
100
AcDbSymbolTableRecord
100
AcDbBlockTableRecord
  2
*D21
340
0
  0
BLOCK_RECORD
  5
33EC
330
1
100
AcDbSymbolTableRecord
100
AcDbBlockTableRecord
  2
*D23
340
0
  0
BLOCK_RECORD
  5
33F8
330
1
100
AcDbSymbolTableRecord
100
AcDbBlockTableRecord
  2
*D24
340
0
  0
BLOCK_RECORD
  5
3404
330
1
100
AcDbSymbolTableRecord
100
AcDbBlockTableRecord
  2
*D25
340
0
  0
ENDTAB
  0
ENDSEC
  0
SECTION
  2
BLOCKS
  0
BLOCK
  5
3
330
2
100
AcDbEntity
  8
0
100
AcDbBlockBegin
  2
*Model_Space
 70
     2
 10
0.0
 20
0.0
 30
0.0
  3
*Model_Space
  1

  0
ENDBLK
  5
9
330
2
100
AcDbEntity
  8
0
100
AcDbBlockEnd
  0
BLOCK
  5
D
330
C
100
AcDbEntity
 67
     1
  8
0
100
AcDbBlockBegin
  2
*Paper_Space
 70
     0
 10
0.0
 20
0.0
 30
0.0
  3
*Paper_Space
  1

  0
ENDBLK
  5
E
330
C
100
AcDbEntity
 67
     1
  8
0
100
AcDbBlockEnd
  0
BLOCK
  5
2A1B
330
2A1A
100
AcDbEntity
  8
0
100
AcDbBlockBegin
  2
LCDIM1
 70
     0
 10
0.0
 20
0.0
 30
0.0
  3
LCDIM1
  1

  4
LCDIM1
  0
LINE
  5
2A1C
330
2A1A
100
AcDbEntity
  8
LC-004-003-MTG-0
 62
     7
370
    25
100
AcDbLine
 10
530.6772829999998
 20
541.813267
 30
0.0
 11
572.0219369999997
 21
549.203774
 31
0.0
  0
LINE
  5
2A1D
330
2A1A
100
AcDbEntity
  8
LC-005-003-----0
 62
     7
370
    25
100
AcDbLine
 10
533.0598
 20
542.5706389999998
 30
0.0
 11
530.6772829999998
 21
541.813267
 31
0.0
  0
LINE
  5
2A1E
330
2A1A
100
AcDbEntity
  8
LC-005-003-----0
 62
     7
370
    25
100
AcDbLine
 10
530.6772829999998
 20
541.813267
 30
0.0
 11
533.17464
 21
541.9281909999998
 31
0.0
  0
LINE
  5
2A1F
330
2A1A
100
AcDbEntity
  8
LC-005-003-----0
 62
     7
370
    25
100
AcDbLine
 10
533.17464
 20
541.9281909999998
 30
0.0
 11
533.0598
 21
542.5706389999998
 31
0.0
  0
LINE
  5
2A20
330
2A1A
100
AcDbEntity
  8
LC-005-003-----0
 62
     7
370
    25
100
AcDbLine
 10
533.080204
 20
542.488099
 30
0.0
 11
531.3171409999998
 21
541.9276439999999
 31
0.0
  0
LINE
  5
2A21
330
2A1A
100
AcDbEntity
  8
LC-005-003-----0
 62
     7
370
    25
100
AcDbLine
 10
531.3171409999998
 20
541.9276439999999
 30
0.0
 11
533.1651849999998
 21
542.012688
 31
0.0
  0
LINE
  5
2A22
330
2A1A
100
AcDbEntity
  8
LC-005-003-----0
 62
     7
370
    25
100
AcDbLine
 10
533.100607
 20
542.405559
 30
0.0
 11
531.9569979999998
 21
542.0420209999998
 31
0.0
  0
LINE
  5
2A23
330
2A1A
100
AcDbEntity
  8
LC-005-003-----0
 62
     7
370
    25
100
AcDbLine
 10
531.9569979999998
 20
542.0420209999998
 30
0.0
 11
533.1557299999998
 21
542.0971839999999
 31
0.0
  0
LINE
  5
2A24
330
2A1A
100
AcDbEntity
  8
LC-005-003-----0
 62
     7
370
    25
100
AcDbLine
 10
533.1210099999998
 20
542.32302
 30
0.0
 11
532.5968559999998
 21
542.1563980000001
 31
0.0
  0
LINE
  5
2A25
330
2A1A
100
AcDbEntity
  8
LC-005-003-----0
 62
     7
370
    25
100
AcDbLine
 10
532.5968559999998
 20
542.1563980000001
 30
0.0
 11
533.1462749999998
 21
542.1816809999998
 31
0.0
  0
LINE
  5
2A26
330
2A1A
100
AcDbEntity
  8
LC-005-003-----0
 62
     7
370
    25
100
AcDbLine
 10
569.6394199999997
 20
548.4464019999998
 30
0.0
 11
572.0219369999997
 21
549.203774
 31
0.0
  0
LINE
  5
2A27
330
2A1A
100
AcDbEntity
  8
LC-005-003-----0
 62
     7
370
    25
100
AcDbLine
 10
572.0219369999997
 20
549.203774
 30
0.0
 11
569.52458
 21
549.0888499999998
 31
0.0
  0
LINE
  5
2A28
330
2A1A
100
AcDbEntity
  8
LC-005-003-----0
 62
     7
370
    25
100
AcDbLine
 10
569.52458
 20
549.0888499999998
 30
0.0
 11
569.6394199999997
 21
548.4464019999998
 31
0.0
  0
LINE
  5
2A29
330
2A1A
100
AcDbEntity
  8
LC-005-003-----0
 62
     7
370
    25
100
AcDbLine
 10
569.6190159999997
 20
548.5289419999998
 30
0.0
 11
571.3820789999997
 21
549.089397
 31
0.0
  0
LINE
  5
2A2A
330
2A1A
100
AcDbEntity
  8
LC-005-003-----0
 62
     7
370
    25
100
AcDbLine
 10
571.3820789999997
 20
549.089397
 30
0.0
 11
569.534035
 21
549.004353
 31
0.0
  0
LINE
  5
2A2B
330
2A1A
100
AcDbEntity
  8
LC-005-003-----0
 62
     7
370
    25
100
AcDbLine
 10
569.598613
 20
548.611482
 30
0.0
 11
570.7422209999997
 21
548.9750199999998
 31
0.0
  0
LINE
  5
2A2C
330
2A1A
100
AcDbEntity
  8
LC-005-003-----0
 62
     7
370
    25
100
AcDbLine
 10
570.7422209999997
 20
548.9750199999998
 30
0.0
 11
569.54349
 21
548.919856
 31
0.0
  0
LINE
  5
2A2D
330
2A1A
100
AcDbEntity
  8
LC-005-003-----0
 62
     7
370
    25
100
AcDbLine
 10
569.57821
 20
548.694021
 30
0.0
 11
570.1023639999997
 21
548.8606429999999
 31
0.0
  0
LINE
  5
2A2E
330
2A1A
100
AcDbEntity
  8
LC-005-003-----0
 62
     7
370
    25
100
AcDbLine
 10
570.1023639999997
 20
548.8606429999999
 30
0.0
 11
569.552945
 21
548.8353599999998
 31
0.0
  0
TEXT
  5
2A2F
330
2A1A
100
AcDbEntity
  8
LC-005-003-----0
 62
     7
370
    25
100
AcDbText
 10
540.1123619545855
 20
545.0235976179942
 30
0.0
 40
2.5
  1
%%c420 (16.54")
 50
10.134788
 41
0.7
  7
LCTX0-400-0-0pDIN-Schrift
 72
     1
 11
549.1565049999998
 21
546.6402709999998
 31
0.0
100
AcDbText
  0
ENDBLK
  5
2A30
330
2A1A
100
AcDbEntity
  8
0
100
AcDbBlockEnd
  0
BLOCK
  5
3063
330
3062
100
AcDbEntity
  8
0
100
AcDbBlockBegin
  2
*X1
 70
     1
 10
0.0
 20
0.0
 30
0.0
  3
*X1
  1

  4
*X1
  0
LINE
  5
3064
330
3062
100
AcDbEntity
  8
LC-003-005-----0
 62
     7
370
    25
100
AcDbLine
 10
703.080211
 20
411.7522169999999
 30
0.0
 11
704.1397809999997
 21
412.811787
 31
0.0
  0
LINE
  5
3065
330
3062
100
AcDbEntity
  8
LC-003-005-----0
 62
     7
370
    25
100
AcDbLine
 10
700.8973089999997
 20
412.397742
 30
0.0
 11
704.410961
 21
415.911394
 31
0.0
  0
LINE
  5
3066
330
3062
100
AcDbEntity
  8
LC-003-005-----0
 62
     7
370
    25
100
AcDbLine
 10
732.696777
 20
444.197211
 30
0.0
 11
733.498909
 21
444.9993429999998
 31
0.0
  0
LINE
  5
3067
330
3062
100
AcDbEntity
  8
LC-003-005-----0
 62
     7
370
    25
100
AcDbLine
 10
698.7144059999997
 20
413.043267
 30
0.0
 11
704.682142
 21
419.011002
 31
0.0
  0
LINE
  5
3068
330
3062
100
AcDbEntity
  8
LC-003-005-----0
 62
     7
370
    25
100
AcDbLine
 10
729.86835
 20
444.197211
 30
0.0
 11
733.314053
 21
447.6429129999998
 31
0.0
  0
LINE
  5
3069
330
3062
100
AcDbEntity
  8
LC-003-005-----0
 62
     7
370
    25
100
AcDbLine
 10
696.531504
 20
413.688791
 30
0.0
 11
704.9533219999997
 21
422.1106099999998
 31
0.0
  0
LINE
  5
306A
330
3062
100
AcDbEntity
  8
LC-003-005-----0
 62
     7
370
    25
100
AcDbLine
 10
727.039923
 20
444.197211
 30
0.0
 11
732.8384039999997
 21
449.995692
 31
0.0
  0
LINE
  5
306B
330
3062
100
AcDbEntity
  8
LC-003-005-----0
 62
     7
370
    25
100
AcDbLine
 10
696.424
 20
416.4097139999998
 30
0.0
 11
705.224503
 21
425.2102169999998
 31
0.0
  0
LINE
  5
306C
330
3062
100
AcDbEntity
  8
LC-003-005-----0
 62
     7
370
    25
100
AcDbLine
 10
724.211496
 20
444.197211
 30
0.0
 11
731.5174049999996
 21
451.50312
 31
0.0
  0
LINE
  5
306D
330
3062
100
AcDbEntity
  8
LC-003-005-----0
 62
     7
370
    25
100
AcDbLine
 10
696.6951799999996
 20
419.509322
 30
0.0
 11
705.495683
 21
428.309825
 31
0.0
  0
LINE
  5
306E
330
3062
100
AcDbEntity
  8
LC-003-005-----0
 62
     7
370
    25
100
AcDbLine
 10
721.383069
 20
444.197211
 30
0.0
 11
729.3813899999999
 21
452.195532
 31
0.0
  0
LINE
  5
306F
330
3062
100
AcDbEntity
  8
LC-003-005-----0
 62
     7
370
    25
100
AcDbLine
 10
696.966361
 20
422.6089299999999
 30
0.0
 11
705.7668639999997
 21
431.409433
 31
0.0
  0
LINE
  5
3070
330
3062
100
AcDbEntity
  8
LC-003-005-----0
 62
     7
370
    25
100
AcDbLine
 10
717.0546419999997
 20
442.697211
 30
0.0
 11
726.5546419999997
 21
452.197211
 31
0.0
  0
LINE
  5
3071
330
3062
100
AcDbEntity
  8
LC-003-005-----0
 62
     7
370
    25
100
AcDbLine
 10
697.2375409999997
 20
425.708537
 30
0.0
 11
706.038044
 21
434.50904
 31
0.0
  0
LINE
  5
3072
330
3062
100
AcDbEntity
  8
LC-003-005-----0
 62
     7
370
    25
100
AcDbLine
 10
714.226215
 20
442.697211
 30
0.0
 11
723.726215
 21
452.197211
 31
0.0
  0
LINE
  5
3073
330
3062
100
AcDbEntity
  8
LC-003-005-----0
 62
     7
370
    25
100
AcDbLine
 10
697.5087219999997
 20
428.8081449999999
 30
0.0
 11
706.3092249999997
 21
437.608648
 31
0.0
  0
LINE
  5
3074
330
3062
100
AcDbEntity
  8
LC-003-005-----0
 62
     7
370
    25
100
AcDbLine
 10
711.397699
 20
442.6971219999998
 30
0.0
 11
720.897787
 21
452.197211
 31
0.0
  0
LINE
  5
3075
330
3062
100
AcDbEntity
  8
LC-003-005-----0
 62
     7
370
    25
100
AcDbLine
 10
697.7799019999999
 20
431.907753
 30
0.0
 11
718.0693599999997
 21
452.197211
 31
0.0
  0
LINE
  5
3076
330
3062
100
AcDbEntity
  8
LC-003-005-----0
 62
     7
370
    25
100
AcDbLine
 10
698.051083
 20
435.0073599999998
 30
0.0
 11
715.240933
 21
452.197211
 31
0.0
  0
LINE
  5
3077
330
3062
100
AcDbEntity
  8
LC-003-005-----0
 62
     7
370
    25
100
AcDbLine
 10
698.322264
 20
438.106968
 30
0.0
 11
712.4125059999999
 21
452.197211
 31
0.0
  0
LINE
  5
3078
330
3062
100
AcDbEntity
  8
LC-003-005-----0
 62
     7
370
    25
100
AcDbLine
 10
698.5934440000002
 20
441.2065759999999
 30
0.0
 11
709.5840789999997
 21
452.197211
 31
0.0
  0
LINE
  5
3079
330
3062
100
AcDbEntity
  8
LC-003-005-----0
 62
     7
370
    25
100
AcDbLine
 10
698.864625
 20
444.306183
 30
0.0
 11
706.7556519999997
 21
452.197211
 31
0.0
  0
LINE
  5
307A
330
3062
100
AcDbEntity
  8
LC-003-005-----0
 62
     7
370
    25
100
AcDbLine
 10
699.135805
 20
447.4057909999998
 30
0.0
 11
703.922642
 21
452.192628
 31
0.0
  0
ENDBLK
  5
307B
330
3062
100
AcDbEntity
  8
0
100
AcDbBlockEnd
  0
BLOCK
  5
307D
330
307C
100
AcDbEntity
  8
0
100
AcDbBlockBegin
  2
*X2
 70
     1
 10
0.0
 20
0.0
 30
0.0
  3
*X2
  1

  4
*X2
  0
LINE
  5
307E
330
307C
100
AcDbEntity
  8
LC-003-005-----0
 62
     7
370
    25
100
AcDbLine
 10
745.455
 20
402.886413
 30
0.0
 11
747.602259
 21
400.7391539999998
 31
0.0
  0
LINE
  5
307F
330
307C
100
AcDbEntity
  8
LC-003-005-----0
 62
     7
370
    25
100
AcDbLine
 10
745.455
 20
405.7148399999999
 30
0.0
 11
750.6721309999996
 21
400.4977089999998
 31
0.0
  0
LINE
  5
3080
330
307C
100
AcDbEntity
  8
LC-003-005-----0
 62
     7
370
    25
100
AcDbLine
 10
745.455
 20
408.543267
 30
0.0
 11
753.742003
 21
400.2562639999998
 31
0.0
  0
LINE
  5
3081
330
307C
100
AcDbEntity
  8
LC-003-005-----0
 62
     7
370
    25
100
AcDbLine
 10
745.455
 20
411.3716939999997
 30
0.0
 11
756.811875
 21
400.0148189999999
 31
0.0
  0
LINE
  5
3082
330
307C
100
AcDbEntity
  8
LC-003-005-----0
 62
     7
370
    25
100
AcDbLine
 10
707.455
 20
452.2001209999998
 30
0.0
 11
707.4579110000001
 21
452.197211
 31
0.0
  0
LINE
  5
3083
330
307C
100
AcDbEntity
  8
LC-003-005-----0
 62
     7
370
    25
100
AcDbLine
 10
745.455
 20
414.200121
 30
0.0
 11
759.881747
 21
399.7733740000001
 31
0.0
  0
LINE
  5
3084
330
307C
100
AcDbEntity
  8
LC-003-005-----0
 62
     7
370
    25
100
AcDbLine
 10
707.455
 20
455.028548
 30
0.0
 11
710.286338
 21
452.197211
 31
0.0
  0
LINE
  5
3085
330
307C
100
AcDbEntity
  8
LC-003-005-----0
 62
     7
370
    25
100
AcDbLine
 10
745.455
 20
417.028548
 30
0.0
 11
762.951619
 21
399.531929
 31
0.0
  0
LINE
  5
3086
330
307C
100
AcDbEntity
  8
LC-003-005-----0
 62
     7
370
    25
100
AcDbLine
 10
707.455
 20
457.8569749999998
 30
0.0
 11
713.114765
 21
452.197211
 31
0.0
  0
LINE
  5
3087
330
307C
100
AcDbEntity
  8
LC-003-005-----0
 62
     7
370
    25
100
AcDbLine
 10
745.455
 20
419.8569749999998
 30
0.0
 11
764.455
 21
400.8569749999998
 31
0.0
  0
LINE
  5
3088
330
307C
100
AcDbEntity
  8
LC-003-005-----0
 62
     7
370
    25
100
AcDbLine
 10
707.455
 20
460.685403
 30
0.0
 11
715.9431919999997
 21
452.197211
 31
0.0
  0
LINE
  5
3089
330
307C
100
AcDbEntity
  8
LC-003-005-----0
 62
     7
370
    25
100
AcDbLine
 10
745.455
 20
422.685403
 30
0.0
 11
764.455
 21
403.6854029999998
 31
0.0
  0
LINE
  5
308A
330
307C
100
AcDbEntity
  8
LC-003-005-----0
 62
     7
370
    25
100
AcDbLine
 10
707.455
 20
463.51383
 30
0.0
 11
718.7716189999996
 21
452.197211
 31
0.0
  0
LINE
  5
308B
330
307C
100
AcDbEntity
  8
LC-003-005-----0
 62
     7
370
    25
100
AcDbLine
 10
745.455
 20
425.5138299999998
 30
0.0
 11
764.455
 21
406.51383
 31
0.0
  0
LINE
  5
308C
330
307C
100
AcDbEntity
  8
LC-003-005-----0
 62
     7
370
    25
100
AcDbLine
 10
707.455
 20
466.342257
 30
0.0
 11
721.600046
 21
452.197211
 31
0.0
  0
LINE
  5
308D
330
307C
100
AcDbEntity
  8
LC-003-005-----0
 62
     7
370
    25
100
AcDbLine
 10
745.455
 20
428.3422569999998
 30
0.0
 11
764.455
 21
409.3422569999998
 31
0.0
  0
LINE
  5
308E
330
307C
100
AcDbEntity
  8
LC-003-005-----0
 62
     7
370
    25
100
AcDbLine
 10
707.455
 20
469.170684
 30
0.0
 11
724.428473
 21
452.197211
 31
0.0
  0
LINE
  5
308F
330
307C
100
AcDbEntity
  8
LC-003-005-----0
 62
     7
370
    25
100
AcDbLine
 10
745.455
 20
431.170684
 30
0.0
 11
764.455
 21
412.1706839999998
 31
0.0
  0
LINE
  5
3090
330
307C
100
AcDbEntity
  8
LC-003-005-----0
 62
     7
370
    25
100
AcDbLine
 10
707.455
 20
471.999111
 30
0.0
 11
727.2568999999997
 21
452.197211
 31
0.0
  0
LINE
  5
3091
330
307C
100
AcDbEntity
  8
LC-003-005-----0
 62
     7
370
    25
100
AcDbLine
 10
745.455
 20
433.999111
 30
0.0
 11
764.455
 21
414.999111
 31
0.0
  0
LINE
  5
3092
330
307C
100
AcDbEntity
  8
LC-003-005-----0
 62
     7
370
    25
100
AcDbLine
 10
707.455
 20
474.8275379999998
 30
0.0
 11
730.085328
 21
452.197211
 31
0.0
  0
LINE
  5
3093
330
307C
100
AcDbEntity
  8
LC-003-005-----0
 62
     7
370
    25
100
AcDbLine
 10
745.455
 20
436.827538
 30
0.0
 11
764.455
 21
417.827538
 31
0.0
  0
LINE
  5
3094
330
307C
100
AcDbEntity
  8
LC-003-005-----0
 62
     7
370
    25
100
AcDbLine
 10
707.455
 20
477.655965
 30
0.0
 11
732.913755
 21
452.197211
 31
0.0
  0
LINE
  5
3095
330
307C
100
AcDbEntity
  8
LC-003-005-----0
 62
     7
370
    25
100
AcDbLine
 10
745.455
 20
439.655965
 30
0.0
 11
764.455
 21
420.655965
 31
0.0
  0
LINE
  5
3096
330
307C
100
AcDbEntity
  8
LC-003-005-----0
 62
     7
370
    25
100
AcDbLine
 10
707.455
 20
480.484392
 30
0.0
 11
735.742182
 21
452.197211
 31
0.0
  0
LINE
  5
3097
330
307C
100
AcDbEntity
  8
LC-003-005-----0
 62
     7
370
    25
100
AcDbLine
 10
745.455
 20
442.4843919999998
 30
0.0
 11
764.455
 21
423.484392
 31
0.0
  0
LINE
  5
3098
330
307C
100
AcDbEntity
  8
LC-003-005-----0
 62
     7
370
    25
100
AcDbLine
 10
707.455
 20
483.31282
 30
0.0
 11
738.570609
 21
452.197211
 31
0.0
  0
LINE
  5
3099
330
307C
100
AcDbEntity
  8
LC-003-005-----0
 62
     7
370
    25
100
AcDbLine
 10
745.455
 20
445.31282
 30
0.0
 11
764.455
 21
426.31282
 31
0.0
  0
LINE
  5
309A
330
307C
100
AcDbEntity
  8
LC-003-005-----0
 62
     7
370
    25
100
AcDbLine
 10
707.455
 20
486.1412469999998
 30
0.0
 11
741.399036
 21
452.197211
 31
0.0
  0
LINE
  5
309B
330
307C
100
AcDbEntity
  8
LC-003-005-----0
 62
     7
370
    25
100
AcDbLine
 10
745.455
 20
448.1412469999998
 30
0.0
 11
764.455
 21
429.141247
 31
0.0
  0
LINE
  5
309C
330
307C
100
AcDbEntity
  8
LC-003-005-----0
 62
     7
370
    25
100
AcDbLine
 10
707.455
 20
488.9696739999997
 30
0.0
 11
744.227463
 21
452.197211
 31
0.0
  0
LINE
  5
309D
330
307C
100
AcDbEntity
  8
LC-003-005-----0
 62
     7
370
    25
100
AcDbLine
 10
745.455
 20
450.9696739999998
 30
0.0
 11
764.455
 21
431.969674
 31
0.0
  0
LINE
  5
309E
330
307C
100
AcDbEntity
  8
LC-003-005-----0
 62
     7
370
    25
100
AcDbLine
 10
709.0558900000003
 20
490.197211
 30
0.0
 11
764.455
 21
434.7981009999998
 31
0.0
  0
LINE
  5
309F
330
307C
100
AcDbEntity
  8
LC-003-005-----0
 62
     7
370
    25
100
AcDbLine
 10
711.8843169999997
 20
490.197211
 30
0.0
 11
764.455
 21
437.626528
 31
0.0
  0
LINE
  5
30A0
330
307C
100
AcDbEntity
  8
LC-003-005-----0
 62
     7
370
    25
100
AcDbLine
 10
714.712745
 20
490.197211
 30
0.0
 11
764.455
 21
440.4549549999998
 31
0.0
  0
LINE
  5
30A1
330
307C
100
AcDbEntity
  8
LC-003-005-----0
 62
     7
370
    25
100
AcDbLine
 10
717.5411719999997
 20
490.197211
 30
0.0
 11
764.455
 21
443.2833819999998
 31
0.0
  0
LINE
  5
30A2
330
307C
100
AcDbEntity
  8
LC-003-005-----0
 62
     7
370
    25
100
AcDbLine
 10
720.3695989999999
 20
490.197211
 30
0.0
 11
764.455
 21
446.111809
 31
0.0
  0
LINE
  5
30A3
330
307C
100
AcDbEntity
  8
LC-003-005-----0
 62
     7
370
    25
100
AcDbLine
 10
723.198026
 20
490.197211
 30
0.0
 11
764.455
 21
448.940237
 31
0.0
  0
LINE
  5
30A4
330
307C
100
AcDbEntity
  8
LC-003-005-----0
 62
     7
370
    25
100
AcDbLine
 10
726.026453
 20
490.197211
 30
0.0
 11
764.455
 21
451.7686639999998
 31
0.0
  0
LINE
  5
30A5
330
307C
100
AcDbEntity
  8
LC-003-005-----0
 62
     7
370
    25
100
AcDbLine
 10
728.85488
 20
490.197211
 30
0.0
 11
766.8548799999999
 21
452.197211
 31
0.0
  0
LINE
  5
30A6
330
307C
100
AcDbEntity
  8
LC-003-005-----0
 62
     7
370
    25
100
AcDbLine
 10
731.683307
 20
490.197211
 30
0.0
 11
769.683307
 21
452.197211
 31
0.0
  0
LINE
  5
30A7
330
307C
100
AcDbEntity
  8
LC-003-005-----0
 62
     7
370
    25
100
AcDbLine
 10
734.5117339999997
 20
490.197211
 30
0.0
 11
772.5117339999997
 21
452.197211
 31
0.0
  0
LINE
  5
30A8
330
307C
100
AcDbEntity
  8
LC-003-005-----0
 62
     7
370
    25
100
AcDbLine
 10
737.340162
 20
490.197211
 30
0.0
 11
775.3401619999999
 21
452.197211
 31
0.0
  0
LINE
  5
30A9
330
307C
100
AcDbEntity
  8
LC-003-005-----0
 62
     7
370
    25
100
AcDbLine
 10
740.168589
 20
490.197211
 30
0.0
 11
777.693341
 21
452.6724579999998
 31
0.0
  0
LINE
  5
30AA
330
307C
100
AcDbEntity
  8
LC-003-005-----0
 62
     7
370
    25
100
AcDbLine
 10
742.997016
 20
490.197211
 30
0.0
 11
777.693341
 21
455.500885
 31
0.0
  0
LINE
  5
30AB
330
307C
100
AcDbEntity
  8
LC-003-005-----0
 62
     7
370
    25
100
AcDbLine
 10
745.8254429999997
 20
490.197211
 30
0.0
 11
777.693341
 21
458.329312
 31
0.0
  0
LINE
  5
30AC
330
307C
100
AcDbEntity
  8
LC-003-005-----0
 62
     7
370
    25
100
AcDbLine
 10
748.6538699999996
 20
490.197211
 30
0.0
 11
777.693341
 21
461.1577389999998
 31
0.0
  0
LINE
  5
30AD
330
307C
100
AcDbEntity
  8
LC-003-005-----0
 62
     7
370
    25
100
AcDbLine
 10
751.4822969999999
 20
490.197211
 30
0.0
 11
777.693341
 21
463.986166
 31
0.0
  0
LINE
  5
30AE
330
307C
100
AcDbEntity
  8
LC-003-005-----0
 62
     7
370
    25
100
AcDbLine
 10
754.310724
 20
490.197211
 30
0.0
 11
777.693341
 21
466.814594
 31
0.0
  0
LINE
  5
30AF
330
307C
100
AcDbEntity
  8
LC-003-005-----0
 62
     7
370
    25
100
AcDbLine
 10
757.1391509999997
 20
490.197211
 30
0.0
 11
777.693341
 21
469.6430209999999
 31
0.0
  0
LINE
  5
30B0
330
307C
100
AcDbEntity
  8
LC-003-005-----0
 62
     7
370
    25
100
AcDbLine
 10
759.967579
 20
490.197211
 30
0.0
 11
777.693341
 21
472.4714480000002
 31
0.0
  0
LINE
  5
30B1
330
307C
100
AcDbEntity
  8
LC-003-005-----0
 62
     7
370
    25
100
AcDbLine
 10
762.7960059999996
 20
490.197211
 30
0.0
 11
777.693341
 21
475.2998749999998
 31
0.0
  0
LINE
  5
30B2
330
307C
100
AcDbEntity
  8
LC-003-005-----0
 62
     7
370
    25
100
AcDbLine
 10
765.6244329999997
 20
490.197211
 30
0.0
 11
777.693341
 21
478.128302
 31
0.0
  0
LINE
  5
30B3
330
307C
100
AcDbEntity
  8
LC-003-005-----0
 62
     7
370
    25
100
AcDbLine
 10
768.45286
 20
490.197211
 30
0.0
 11
777.693341
 21
480.956729
 31
0.0
  0
LINE
  5
30B4
330
307C
100
AcDbEntity
  8
LC-003-005-----0
 62
     7
370
    25
100
AcDbLine
 10
771.281287
 20
490.197211
 30
0.0
 11
777.693341
 21
483.7851559999998
 31
0.0
  0
LINE
  5
30B5
330
307C
100
AcDbEntity
  8
LC-003-005-----0
 62
     7
370
    25
100
AcDbLine
 10
774.1097139999997
 20
490.197211
 30
0.0
 11
777.693341
 21
486.613583
 31
0.0
  0
LINE
  5
30B6
330
307C
100
AcDbEntity
  8
LC-003-005-----0
 62
     7
370
    25
100
AcDbLine
 10
776.938141
 20
490.197211
 30
0.0
 11
777.693341
 21
489.442011
 31
0.0
  0
ENDBLK
  5
30B7
330
307C
100
AcDbEntity
  8
0
100
AcDbBlockEnd
  0
BLOCK
  5
30FF
330
30F5
100
AcDbEntity
  8
0
100
AcDbBlockBegin
  2
*D3
 70
     1
 10
0.0
 20
0.0
 30
0.0
  3
*D3
  1

  0
LINE
  5
30F6
330
30F5
100
AcDbEntity
  8
0
 62
     0
370
    -2
100
AcDbLine
 10
1279.26169097301
 20
1280.51736308066
 30
0.0
 11
1281.544120119735
 21
1280.51736308066
 31
0.0
  0
LINE
  5
30F7
330
30F5
100
AcDbEntity
  8
0
 62
     0
370
    -2
100
AcDbLine
 10
1279.26169097301
 20
1297.52520308066
 30
0.0
 11
1281.544120119735
 21
1297.52520308066
 31
0.0
  0
LINE
  5
30F8
330
30F5
100
AcDbEntity
  8
0
 62
     0
370
    -2
100
AcDbLine
 10
1281.344120119735
 20
1280.71736308066
 30
0.0
 11
1281.344120119735
 21
1297.32520308066
 31
0.0
  0
SOLID
  5
30F9
330
30F5
100
AcDbEntity
  8
0
 62
     0
100
AcDbTrace
 10
1281.310786786401
 20
1280.71736308066
 30
0.0
 11
1281.377453453068
 21
1280.71736308066
 31
0.0
 12
1281.344120119735
 22
1280.51736308066
 32
0.0
 13
1281.344120119735
 23
1280.51736308066
 33
0.0
  0
SOLID
  5
30FA
330
30F5
100
AcDbEntity
  8
0
 62
     0
100
AcDbTrace
 10
1281.310786786401
 20
1297.32520308066
 30
0.0
 11
1281.377453453068
 21
1297.32520308066
 31
0.0
 12
1281.344120119735
 22
1297.52520308066
 32
0.0
 13
1281.344120119735
 23
1297.52520308066
 33
0.0
  0
MTEXT
  5
30FB
330
30F5
100
AcDbEntity
  8
0
 62
     0
100
AcDbMText
 10
1281.097270119734
 20
1289.02128308066
 30
0.0
 40
0.3937
 41
0.0
 71
     5
 72
     1
  1
\A1;17.0078
  7
\U+C2A4\U+D0C0\U+C77C2
 11
0.0000000000000001
 21
1.0
 31
0.0
 73
     1
 44
1.0
  0
POINT
  5
30FC
330
30F5
100
AcDbEntity
  8
Defpoints
 62
     0
100
AcDbPoint
 10
1279.16169097301
 20
1280.51736308066
 30
0.0
  0
POINT
  5
30FD
330
30F5
100
AcDbEntity
  8
Defpoints
 62
     0
100
AcDbPoint
 10
1279.16169097301
 20
1297.52520308066
 30
0.0
  0
POINT
  5
30FE
330
30F5
100
AcDbEntity
  8
Defpoints
 62
     0
100
AcDbPoint
 10
1281.344120119735
 20
1297.52520308066
 30
0.0
  0
ENDBLK
  5
3100
330
30F5
100
AcDbEntity
  8
0
100
AcDbBlockEnd
  0
BLOCK
  5
310C
330
3102
100
AcDbEntity
  8
0
100
AcDbBlockBegin
  2
*D4
 70
     1
 10
0.0
 20
0.0
 30
0.0
  3
*D4
  1

  0
LINE
  5
3103
330
3102
100
AcDbEntity
  8
0
 62
     0
370
    -2
100
AcDbLine
 10
1249.31923097301
 20
1281.51972308066
 30
0.0
 11
1249.31923097301
 21
1279.300385811046
 31
0.0
  0
LINE
  5
3104
330
3102
100
AcDbEntity
  8
0
 62
     0
370
    -2
100
AcDbLine
 10
1280.26405097301
 20
1281.51972308066
 30
0.0
 11
1280.26405097301
 21
1279.300385811046
 31
0.0
  0
LINE
  5
3105
330
3102
100
AcDbEntity
  8
0
 62
     0
370
    -2
100
AcDbLine
 10
1249.51923097301
 20
1279.500385811046
 30
0.0
 11
1280.064050973011
 21
1279.500385811046
 31
0.0
  0
SOLID
  5
3106
330
3102
100
AcDbEntity
  8
0
 62
     0
100
AcDbTrace
 10
1249.51923097301
 20
1279.533719144379
 30
0.0
 11
1249.51923097301
 21
1279.467052477713
 31
0.0
 12
1249.31923097301
 22
1279.500385811046
 32
0.0
 13
1249.31923097301
 23
1279.500385811046
 33
0.0
  0
SOLID
  5
3107
330
3102
100
AcDbEntity
  8
0
 62
     0
100
AcDbTrace
 10
1280.064050973011
 20
1279.533719144379
 30
0.0
 11
1280.064050973011
 21
1279.467052477713
 31
0.0
 12
1280.26405097301
 22
1279.500385811046
 32
0.0
 13
1280.26405097301
 23
1279.500385811046
 33
0.0
  0
MTEXT
  5
3108
330
3102
100
AcDbEntity
  8
0
 62
     0
100
AcDbMText
 10
1264.79164097301
 20
1279.747235811046
 30
0.0
 40
0.3937
 41
0.0
 71
     5
 72
     1
  1
\A1;30.9448
  7
\U+C2A4\U+D0C0\U+C77C2
 73
     1
 44
1.0
  0
POINT
  5
3109
330
3102
100
AcDbEntity
  8
Defpoints
 62
     0
100
AcDbPoint
 10
1249.31923097301
 20
1281.61972308066
 30
0.0
  0
POINT
  5
310A
330
3102
100
AcDbEntity
  8
Defpoints
 62
     0
100
AcDbPoint
 10
1280.26405097301
 20
1281.61972308066
 30
0.0
  0
POINT
  5
310B
330
3102
100
AcDbEntity
  8
Defpoints
 62
     0
100
AcDbPoint
 10
1280.26405097301
 20
1279.500385811046
 30
0.0
  0
ENDBLK
  5
310D
330
3102
100
AcDbEntity
  8
0
100
AcDbBlockEnd
  0
BLOCK
  5
3115
330
310F
100
AcDbEntity
  8
0
100
AcDbBlockBegin
  2
*D5
 70
     1
 10
0.0
 20
0.0
 30
0.0
  3
*D5
  1

  0
LINE
  5
3110
330
310F
100
AcDbEntity
  8
0
 62
     0
370
    -2
100
AcDbLine
 10
1251.677353684342
 20
1295.063737244321
 30
0.0
 11
1249.809221335469
 21
1297.085607742223
 31
0.0
  0
MTEXT
  5
3111
330
310F
100
AcDbEntity
  8
0
 62
     0
100
AcDbMText
 10
1251.134520814853
 20
1296.014989516349
 30
0.0
 40
0.3937
 41
0.0
 71
     5
 72
     1
  1
\A1;R1.1024
  7
\U+C2A4\U+D0C0\U+C77C2
 11
0.6786311866014314
 21
-0.7344792118038014
 31
0.0
 73
     1
 44
1.0
  0
SOLID
  5
3112
330
310F
100
AcDbEntity
  8
0
 62
     0
100
AcDbTrace
 10
1249.833703975862
 20
1297.108228781777
 30
0.0
 11
1249.784738695075
 21
1297.06298670267
 31
0.0
 12
1249.673495098148
 22
1297.232503584584
 32
0.0
 13
1249.673495098148
 23
1297.232503584584
 33
0.0
  0
POINT
  5
3113
330
310F
100
AcDbEntity
  8
Defpoints
 62
     0
100
AcDbPoint
 10
1249.673495098148
 20
1297.232503584584
 30
0.0
  0
POINT
  5
3114
330
310F
100
AcDbEntity
  8
Defpoints
 62
     0
100
AcDbPoint
 10
1250.42159097301
 20
1296.42284308066
 30
0.0
  0
ENDBLK
  5
3116
330
310F
100
AcDbEntity
  8
0
100
AcDbBlockEnd
  0
BLOCK
  5
3124
330
3118
100
AcDbEntity
  8
0
100
AcDbBlockBegin
  2
*D6
 70
     1
 10
0.0
 20
0.0
 30
0.0
  3
*D6
  1

  0
LINE
  5
3119
330
3118
100
AcDbEntity
  8
0
 62
     0
370
    -2
100
AcDbLine
 10
1267.93776286973
 20
1290.28873676937
 30
0.0
 11
1267.93776286973
 21
1292.138233373838
 31
0.0
  0
LINE
  5
311A
330
3118
100
AcDbEntity
  8
0
 62
     0
370
    -2
100
AcDbLine
 10
1268.06840607301
 20
1291.78479676937
 30
0.0
 11
1268.06840607301
 21
1292.138233373838
 31
0.0
  0
LINE
  5
311B
330
3118
100
AcDbEntity
  8
0
 62
     0
370
    -2
100
AcDbLine
 10
1267.73776286973
 20
1291.938233373838
 30
0.0
 11
1267.53776286973
 21
1291.938233373838
 31
0.0
  0
LINE
  5
311C
330
3118
100
AcDbEntity
  8
0
 62
     0
370
    -2
100
AcDbLine
 10
1268.26840607301
 20
1291.938233373838
 30
0.0
 11
1270.274439406344
 21
1291.938233373838
 31
0.0
  0
LINE
  5
311D
330
3118
100
AcDbEntity
  8
0
 62
     0
370
    -2
100
AcDbLine
 10
1267.93776286973
 20
1291.938233373838
 30
0.0
 11
1268.06840607301
 21
1291.938233373838
 31
0.0
  0
SOLID
  5
311E
330
3118
100
AcDbEntity
  8
0
 62
     0
100
AcDbTrace
 10
1267.73776286973
 20
1291.971566707172
 30
0.0
 11
1267.73776286973
 21
1291.904900040505
 31
0.0
 12
1267.93776286973
 22
1291.938233373838
 32
0.0
 13
1267.93776286973
 23
1291.938233373838
 33
0.0
  0
SOLID
  5
311F
330
3118
100
AcDbEntity
  8
0
 62
     0
100
AcDbTrace
 10
1268.26840607301
 20
1291.971566707172
 30
0.0
 11
1268.26840607301
 21
1291.904900040505
 31
0.0
 12
1268.06840607301
 22
1291.938233373838
 32
0.0
 13
1268.06840607301
 23
1291.938233373838
 33
0.0
  0
MTEXT
  5
3120
330
3118
100
AcDbEntity
  8
0
 62
     0
100
AcDbMText
 10
1269.371422739677
 20
1292.185083373838
 30
0.0
 40
0.3937
 41
0.0
 71
     5
 72
     1
  1
\A1;0.1306
  7
\U+C2A4\U+D0C0\U+C77C2
 73
     1
 44
1.0
  0
POINT
  5
3121
330
3118
100
AcDbEntity
  8
Defpoints
 62
     0
100
AcDbPoint
 10
1267.93776286973
 20
1290.18873676937
 30
0.0
  0
POINT
  5
3122
330
3118
100
AcDbEntity
  8
Defpoints
 62
     0
100
AcDbPoint
 10
1268.06840607301
 20
1291.68479676937
 30
0.0
  0
POINT
  5
3123
330
3118
100
AcDbEntity
  8
Defpoints
 62
     0
100
AcDbPoint
 10
1268.06840607301
 20
1291.938233373838
 30
0.0
  0
ENDBLK
  5
3125
330
3118
100
AcDbEntity
  8
0
100
AcDbBlockEnd
  0
BLOCK
  5
31AC
330
31A1
100
AcDbEntity
  8
0
100
AcDbBlockBegin
  2
A$C5E5C7AF6
 70
     0
 10
0.0
 20
0.0
 30
0.0
  3
A$C5E5C7AF6
  1

  0
ARC
  5
31A2
330
31A1
100
AcDbEntity
  8
0
 48
3.0
100
AcDbCircle
 10
10.49604200699707
 20
-181.1019999442684
 30
0.0
 40
196.8499999992126
100
AcDbArc
 50
90.0
 51
92.19298310358579
  0
ARC
  5
31A3
330
31A1
100
AcDbEntity
  8
0
 48
3.0
100
AcDbCircle
 10
133.8580000065035
 20
7.87400005497534
 30
0.0
 40
133.8579999994645
100
AcDbArc
 50
177.9243198827217
 51
180.0
  0
ARC
  5
31A4
330
31A1
100
AcDbEntity
  8
0
 48
3.0
100
AcDbCircle
 10
3.077986657287282
 20
12.61390051984494
 30
0.0
 40
2.992119999988031
100
AcDbArc
 50
92.19298310358579
 51
177.9243198827217
  0
ARC
  5
31A5
330
31A1
100
AcDbEntity
  8
0
 48
3.0
100
AcDbCircle
 10
-112.8659159925112
 20
7.87400005497534
 30
0.0
 40
133.8579999994645
100
AcDbArc
 50
0.0
 51
2.075680117278249
  0
ARC
  5
31A6
330
31A1
100
AcDbEntity
  8
0
 48
3.0
100
AcDbCircle
 10
17.91409735670322
 20
12.61390051984494
 30
0.0
 40
2.992119999988031
100
AcDbArc
 50
2.075680117278249
 51
87.8070168964142
  0
ARC
  5
31A7
330
31A1
100
AcDbEntity
  8
0
 48
3.0
100
AcDbCircle
 10
10.49604200699707
 20
196.8500000542199
 30
0.0
 40
196.8499999992126
100
AcDbArc
 50
267.8070168964142
 51
270.0
  0
ARC
  5
31A8
330
31A1
100
AcDbEntity
  8
0
 48
3.0
100
AcDbCircle
 10
3.077986657287282
 20
3.134099590105734
 30
0.0
 40
2.992119999988031
100
AcDbArc
 50
182.0756801172782
 51
267.8070168964142
  0
ARC
  5
31A9
330
31A1
100
AcDbEntity
  8
0
 48
3.0
100
AcDbCircle
 10
17.91409735670322
 20
3.134099590105734
 30
0.0
 40
2.992119999988031
100
AcDbArc
 50
272.1929831035858
 51
357.9243198827218
  0
ENDBLK
  5
31AD
330
31A1
100
AcDbEntity
  8
0
100
AcDbBlockEnd
  0
BLOCK
  5
31AF
330
31AE
100
AcDbEntity
  8
0
 62
     5
100
AcDbBlockBegin
  2
*D8
 70
     1
 10
0.0
 20
0.0
 30
0.0
  3
*D8
  1

  0
LINE
  5
31B0
330
31AE
100
AcDbEntity
  8
0
 62
     0
370
    -2
100
AcDbLine
 10
546.3235598921303
 20
610.3827218287356
 30
0.0
 11
559.1911998360236
 21
610.3827218287356
 31
0.0
  0
LINE
  5
31B1
330
31AE
100
AcDbEntity
  8
0
 62
     0
370
    -2
100
AcDbLine
 10
546.3235598921303
 20
626.1307218286717
 30
0.0
 11
559.1911998360236
 21
626.1307218286717
 31
0.0
  0
LINE
  5
31B2
330
31AE
100
AcDbEntity
  8
0
 62
     0
370
    -2
100
AcDbLine
 10
558.9911998360236
 20
610.582721828736
 30
0.0
 11
558.9911998360236
 21
625.9307218286717
 31
0.0
  0
SOLID
  5
31B3
330
31AE
100
AcDbEntity
  8
0
 62
     0
100
AcDbTrace
 10
558.9578665026903
 20
610.582721828736
 30
0.0
 11
559.024533169357
 21
610.582721828736
 31
0.0
 12
558.9911998360236
 22
610.3827218287356
 32
0.0
 13
558.9911998360236
 23
610.3827218287356
 33
0.0
  0
SOLID
  5
31B4
330
31AE
100
AcDbEntity
  8
0
 62
     0
100
AcDbTrace
 10
558.9578665026903
 20
625.9307218286717
 30
0.0
 11
559.024533169357
 21
625.9307218286717
 31
0.0
 12
558.9911998360236
 22
626.1307218286717
 32
0.0
 13
558.9911998360236
 23
626.1307218286717
 33
0.0
  0
MTEXT
  5
31B5
330
31AE
100
AcDbEntity
  8
0
 62
     0
100
AcDbMText
 10
558.7443498360236
 20
618.256721828704
 30
0.0
 40
0.3937
 41
0.0
 71
     5
 72
     1
  1
\A1;15.748
  7
\U+C2A4\U+D0C0\U+C77C2
 11
0.0000000000000001
 21
1.0
 31
0.0
 73
     1
 44
1.0
  0
POINT
  5
31B6
330
31AE
100
AcDbEntity
  8
Defpoints
 62
     0
100
AcDbPoint
 10
546.2235598921303
 20
610.3827218287356
 30
0.0
  0
POINT
  5
31B7
330
31AE
100
AcDbEntity
  8
Defpoints
 62
     0
100
AcDbPoint
 10
546.2235598921303
 20
626.1307218286717
 30
0.0
  0
POINT
  5
31B8
330
31AE
100
AcDbEntity
  8
Defpoints
 62
     0
100
AcDbPoint
 10
558.9911998360236
 20
626.1307218286717
 30
0.0
  0
ENDBLK
  5
31B9
330
31AE
100
AcDbEntity
  8
0
 62
     5
100
AcDbBlockEnd
  0
BLOCK
  5
31BB
330
31BA
100
AcDbEntity
  8
0
 62
     5
100
AcDbBlockBegin
  2
*D9
 70
     1
 10
0.0
 20
0.0
 30
0.0
  3
*D9
  1

  0
LINE
  5
31BC
330
31BA
100
AcDbEntity
  8
0
 62
     0
370
    -2
100
AcDbLine
 10
535.7275178921716
 20
618.1567218287048
 30
0.0
 11
535.7275178921716
 21
607.8420296293367
 31
0.0
  0
LINE
  5
31BD
330
31BA
100
AcDbEntity
  8
0
 62
     0
370
    -2
100
AcDbLine
 10
556.7196018920856
 20
618.1567218287027
 30
0.0
 11
556.7196018920856
 21
607.8420296293367
 31
0.0
  0
LINE
  5
31BE
330
31BA
100
AcDbEntity
  8
0
 62
     0
370
    -2
100
AcDbLine
 10
535.9275178921716
 20
608.0420296293367
 30
0.0
 11
556.5196018920857
 21
608.0420296293367
 31
0.0
  0
SOLID
  5
31BF
330
31BA
100
AcDbEntity
  8
0
 62
     0
100
AcDbTrace
 10
535.9275178921716
 20
608.0753629626699
 30
0.0
 11
535.9275178921716
 21
608.0086962960032
 31
0.0
 12
535.7275178921716
 22
608.0420296293367
 32
0.0
 13
535.7275178921716
 23
608.0420296293367
 33
0.0
  0
SOLID
  5
31C0
330
31BA
100
AcDbEntity
  8
0
 62
     0
100
AcDbTrace
 10
556.5196018920857
 20
608.0753629626699
 30
0.0
 11
556.5196018920857
 21
608.0086962960032
 31
0.0
 12
556.7196018920856
 22
608.0420296293367
 32
0.0
 13
556.7196018920856
 23
608.0420296293367
 33
0.0
  0
MTEXT
  5
31C1
330
31BA
100
AcDbEntity
  8
0
 62
     0
100
AcDbMText
 10
546.2235598921286
 20
608.2888796293367
 30
0.0
 40
0.3937
 41
0.0
 71
     5
 72
     1
  1
\A1;20.9921
  7
\U+C2A4\U+D0C0\U+C77C2
 73
     1
 44
1.0
  0
POINT
  5
31C2
330
31BA
100
AcDbEntity
  8
Defpoints
 62
     0
100
AcDbPoint
 10
535.7275178921716
 20
618.2567218287047
 30
0.0
  0
POINT
  5
31C3
330
31BA
100
AcDbEntity
  8
Defpoints
 62
     0
100
AcDbPoint
 10
556.7196018920856
 20
618.2567218287029
 30
0.0
  0
POINT
  5
31C4
330
31BA
100
AcDbEntity
  8
Defpoints
 62
     0
100
AcDbPoint
 10
556.7196018920856
 20
608.0420296293367
 30
0.0
  0
ENDBLK
  5
31C5
330
31BA
100
AcDbEntity
  8
0
 62
     5
100
AcDbBlockEnd
  0
BLOCK
  5
31E1
330
31E0
100
AcDbEntity
  8
0
100
AcDbBlockBegin
  2
*D10
 70
     1
 10
0.0
 20
0.0
 30
0.0
  3
*D10
  1

  0
LINE
  5
320A
330
31E0
100
AcDbEntity
  8
0
 62
     0
370
    -2
100
AcDbLine
 10
1260.51137911771
 20
1279.382206235255
 30
0.0
 11
1273.379019061603
 21
1279.382206235255
 31
0.0
  0
LINE
  5
320B
330
31E0
100
AcDbEntity
  8
0
 62
     0
370
    -2
100
AcDbLine
 10
1260.51137911771
 20
1295.130206235191
 30
0.0
 11
1273.379019061603
 21
1295.130206235191
 31
0.0
  0
LINE
  5
320C
330
31E0
100
AcDbEntity
  8
0
 62
     0
370
    -2
100
AcDbLine
 10
1273.179019061603
 20
1279.582206235255
 30
0.0
 11
1273.179019061603
 21
1294.930206235191
 31
0.0
  0
SOLID
  5
320D
330
31E0
100
AcDbEntity
  8
0
 62
     0
100
AcDbTrace
 10
1273.145685728269
 20
1279.582206235255
 30
0.0
 11
1273.212352394936
 21
1279.582206235255
 31
0.0
 12
1273.179019061603
 22
1279.382206235255
 32
0.0
 13
1273.179019061603
 23
1279.382206235255
 33
0.0
  0
SOLID
  5
320E
330
31E0
100
AcDbEntity
  8
0
 62
     0
100
AcDbTrace
 10
1273.145685728269
 20
1294.930206235191
 30
0.0
 11
1273.212352394936
 21
1294.930206235191
 31
0.0
 12
1273.179019061603
 22
1295.130206235191
 32
0.0
 13
1273.179019061603
 23
1295.130206235191
 33
0.0
  0
MTEXT
  5
320F
330
31E0
100
AcDbEntity
  8
0
 62
     0
100
AcDbMText
 10
1272.932169061603
 20
1287.256206235223
 30
0.0
 40
0.3937
 41
0.0
 71
     5
 72
     1
  1
\A1;15.748
  7
\U+C2A4\U+D0C0\U+C77C2
 11
0.0000000000000001
 21
1.0
 31
0.0
 73
     1
 44
1.0
  0
POINT
  5
3210
330
31E0
100
AcDbEntity
  8
Defpoints
 62
     0
100
AcDbPoint
 10
1260.41137911771
 20
1279.382206235255
 30
0.0
  0
POINT
  5
3211
330
31E0
100
AcDbEntity
  8
Defpoints
 62
     0
100
AcDbPoint
 10
1260.41137911771
 20
1295.130206235191
 30
0.0
  0
POINT
  5
3212
330
31E0
100
AcDbEntity
  8
Defpoints
 62
     0
100
AcDbPoint
 10
1273.179019061603
 20
1295.130206235191
 30
0.0
  0
ENDBLK
  5
31E2
330
31E0
100
AcDbEntity
  8
0
100
AcDbBlockEnd
  0
BLOCK
  5
31ED
330
31EC
100
AcDbEntity
  8
0
100
AcDbBlockBegin
  2
*D11
 70
     1
 10
0.0
 20
0.0
 30
0.0
  3
*D11
  1

  0
LINE
  5
3213
330
31EC
100
AcDbEntity
  8
0
 62
     0
370
    -2
100
AcDbLine
 10
1249.915337117751
 20
1287.156206235224
 30
0.0
 11
1249.915337117751
 21
1276.841514035856
 31
0.0
  0
LINE
  5
3214
330
31EC
100
AcDbEntity
  8
0
 62
     0
370
    -2
100
AcDbLine
 10
1270.907421117665
 20
1287.156206235222
 30
0.0
 11
1270.907421117665
 21
1276.841514035856
 31
0.0
  0
LINE
  5
3215
330
31EC
100
AcDbEntity
  8
0
 62
     0
370
    -2
100
AcDbLine
 10
1250.115337117751
 20
1277.041514035856
 30
0.0
 11
1270.707421117665
 21
1277.041514035856
 31
0.0
  0
SOLID
  5
3216
330
31EC
100
AcDbEntity
  8
0
 62
     0
100
AcDbTrace
 10
1250.115337117751
 20
1277.074847369189
 30
0.0
 11
1250.115337117751
 21
1277.008180702523
 31
0.0
 12
1249.915337117751
 22
1277.041514035856
 32
0.0
 13
1249.915337117751
 23
1277.041514035856
 33
0.0
  0
SOLID
  5
3217
330
31EC
100
AcDbEntity
  8
0
 62
     0
100
AcDbTrace
 10
1270.707421117665
 20
1277.074847369189
 30
0.0
 11
1270.707421117665
 21
1277.008180702523
 31
0.0
 12
1270.907421117665
 22
1277.041514035856
 32
0.0
 13
1270.907421117665
 23
1277.041514035856
 33
0.0
  0
MTEXT
  5
3218
330
31EC
100
AcDbEntity
  8
0
 62
     0
100
AcDbMText
 10
1260.411379117708
 20
1277.288364035856
 30
0.0
 40
0.3937
 41
0.0
 71
     5
 72
     1
  1
\A1;20.9921
  7
\U+C2A4\U+D0C0\U+C77C2
 73
     1
 44
1.0
  0
POINT
  5
3219
330
31EC
100
AcDbEntity
  8
Defpoints
 62
     0
100
AcDbPoint
 10
1249.915337117751
 20
1287.256206235224
 30
0.0
  0
POINT
  5
321A
330
31EC
100
AcDbEntity
  8
Defpoints
 62
     0
100
AcDbPoint
 10
1270.907421117665
 20
1287.256206235222
 30
0.0
  0
POINT
  5
321B
330
31EC
100
AcDbEntity
  8
Defpoints
 62
     0
100
AcDbPoint
 10
1270.907421117665
 20
1277.041514035856
 30
0.0
  0
ENDBLK
  5
31EE
330
31EC
100
AcDbEntity
  8
0
100
AcDbBlockEnd
  0
BLOCK
  5
332E
330
332D
100
AcDbEntity
  8
0
100
AcDbBlockBegin
  2
_ClosedBlank
 70
     0
 10
0.0
 20
0.0
 30
0.0
  3
_ClosedBlank
  1

  0
LINE
  5
332F
330
332D
100
AcDbEntity
  8
0
  6
ByBlock
 62
     0
370
    -2
100
AcDbLine
 10
-1.0
 20
0.1666666666666666
 30
0.0
 11
0.0
 21
0.0
 31
0.0
  0
LINE
  5
3330
330
332D
100
AcDbEntity
  8
0
  6
ByBlock
 62
     0
370
    -2
100
AcDbLine
 10
0.0
 20
0.0
 30
0.0
 11
-1.0
 21
-0.1666666666666666
 31
0.0
  0
LINE
  5
3331
330
332D
100
AcDbEntity
  8
0
  6
ByBlock
 62
     0
370
    -2
100
AcDbLine
 10
-1.0
 20
0.1666666666666666
 30
0.0
 11
-1.0
 21
-0.1666666666666666
 31
0.0
  0
ENDBLK
  5
3332
330
332D
100
AcDbEntity
  8
0
100
AcDbBlockEnd
  0
BLOCK
  5
3334
330
3333
100
AcDbEntity
  8
0
100
AcDbBlockBegin
  2
*D13
 70
     1
 10
0.0
 20
0.0
 30
0.0
  3
*D13
  1

  0
LINE
  5
3335
330
3333
100
AcDbEntity
  8
0
 62
     0
370
    -2
100
AcDbLine
 10
8963.530670702192
 20
2215.296727894825
 30
0.0
 11
8967.738769699741
 21
2215.296727894825
 31
0.0
  0
LINE
  5
3336
330
3333
100
AcDbEntity
  8
0
 62
     0
370
    -2
100
AcDbLine
 10
8963.530670702192
 20
2231.296736534825
 30
0.0
 11
8967.738769699741
 21
2231.296736534825
 31
0.0
  0
LINE
  5
3337
330
3333
100
AcDbEntity
  8
0
 62
     0
370
    -2
100
AcDbLine
 10
8966.48876969974
 20
2216.296727894825
 30
0.0
 11
8966.48876969974
 21
2230.296736534825
 31
0.0
  0
INSERT
  5
3338
330
3333
100
AcDbEntity
  8
0
 62
     0
370
    -2
100
AcDbBlockReference
  2
_ClosedBlank
 10
8966.48876969974
 20
2215.296727894825
 30
0.0
 50
270.0
  0
INSERT
  5
3339
330
3333
100
AcDbEntity
  8
0
 62
     0
370
    -2
100
AcDbBlockReference
  2
_ClosedBlank
 10
8966.48876969974
 20
2231.296736534825
 30
0.0
 50
90.0
  0
MTEXT
  5
333A
330
3333
100
AcDbEntity
  8
0
 62
     0
100
AcDbMText
 10
8965.36376969974
 20
2223.296732214826
 30
0.0
 40
1.0
 41
0.0
 71
     5
 72
     1
  1
16
 11
0.0000000000000001
 21
1.0
 31
0.0
 73
     1
 44
1.0
  0
POINT
  5
333B
330
3333
100
AcDbEntity
  8
Defpoints
 62
     0
100
AcDbPoint
 10
8963.030670702192
 20
2215.296727894825
 30
0.0
  0
POINT
  5
333C
330
3333
100
AcDbEntity
  8
Defpoints
 62
     0
100
AcDbPoint
 10
8963.030670702192
 20
2231.296736534825
 30
0.0
  0
POINT
  5
333D
330
3333
100
AcDbEntity
  8
Defpoints
 62
     0
100
AcDbPoint
 10
8966.48876969974
 20
2231.296736534825
 30
0.0
  0
ENDBLK
  5
333E
330
3333
100
AcDbEntity
  8
0
100
AcDbBlockEnd
  0
BLOCK
  5
3340
330
333F
100
AcDbEntity
  8
0
100
AcDbBlockBegin
  2
*D14
 70
     1
 10
0.0
 20
0.0
 30
0.0
  3
*D14
  1

  0
LINE
  5
3341
330
333F
100
AcDbEntity
  8
0
 62
     0
370
    -2
100
AcDbLine
 10
8948.424363602191
 20
2215.190428894825
 30
0.0
 11
8948.424363602191
 21
2211.479958729193
 31
0.0
  0
LINE
  5
3342
330
333F
100
AcDbEntity
  8
0
 62
     0
370
    -2
100
AcDbLine
 10
8963.424371702192
 20
2215.190428894825
 30
0.0
 11
8963.424371702192
 21
2211.479958729193
 31
0.0
  0
LINE
  5
3343
330
333F
100
AcDbEntity
  8
0
 62
     0
370
    -2
100
AcDbLine
 10
8949.42436360219
 20
2212.729958729193
 30
0.0
 11
8962.424371702191
 21
2212.729958729193
 31
0.0
  0
INSERT
  5
3344
330
333F
100
AcDbEntity
  8
0
 62
     0
370
    -2
100
AcDbBlockReference
  2
_ClosedBlank
 10
8948.424363602191
 20
2212.729958729193
 30
0.0
 50
180.0
  0
INSERT
  5
3345
330
333F
100
AcDbEntity
  8
0
 62
     0
370
    -2
100
AcDbBlockReference
  2
_ClosedBlank
 10
8963.424371702192
 20
2212.729958729193
 30
0.0
  0
MTEXT
  5
3346
330
333F
100
AcDbEntity
  8
0
 62
     0
100
AcDbMText
 10
8955.924367652192
 20
2213.854958729193
 30
0.0
 40
1.0
 41
0.0
 71
     5
 72
     1
  1
15
 73
     1
 44
1.0
  0
POINT
  5
3347
330
333F
100
AcDbEntity
  8
Defpoints
 62
     0
100
AcDbPoint
 10
8948.424363602191
 20
2215.690428894824
 30
0.0
  0
POINT
  5
3348
330
333F
100
AcDbEntity
  8
Defpoints
 62
     0
100
AcDbPoint
 10
8963.424371702192
 20
2215.690428894824
 30
0.0
  0
POINT
  5
3349
330
333F
100
AcDbEntity
  8
Defpoints
 62
     0
100
AcDbPoint
 10
8963.424371702192
 20
2212.729958729193
 30
0.0
  0
ENDBLK
  5
334A
330
333F
100
AcDbEntity
  8
0
100
AcDbBlockEnd
  0
BLOCK
  5
337C
330
3372
100
AcDbEntity
  8
0
100
AcDbBlockBegin
  2
*D16
 70
     1
 10
0.0
 20
0.0
 30
0.0
  3
*D16
  1

  0
LINE
  5
3373
330
3372
100
AcDbEntity
  8
0
 62
     0
370
    -2
100
AcDbLine
 10
1289.209899697158
 20
1282.531028327383
 30
0.0
 11
1293.417998694705
 21
1282.531028327383
 31
0.0
  0
LINE
  5
3374
330
3372
100
AcDbEntity
  8
0
 62
     0
370
    -2
100
AcDbLine
 10
1289.209899697158
 20
1298.531036967383
 30
0.0
 11
1293.417998694705
 21
1298.531036967383
 31
0.0
  0
LINE
  5
3375
330
3372
100
AcDbEntity
  8
0
 62
     0
370
    -2
100
AcDbLine
 10
1292.167998694705
 20
1283.531028327383
 30
0.0
 11
1292.167998694705
 21
1297.531036967384
 31
0.0
  0
INSERT
  5
3376
330
3372
100
AcDbEntity
  8
0
 62
     0
370
    -2
100
AcDbBlockReference
  2
_ClosedBlank
 10
1292.167998694705
 20
1282.531028327383
 30
0.0
 50
270.0
  0
INSERT
  5
3377
330
3372
100
AcDbEntity
  8
0
 62
     0
370
    -2
100
AcDbBlockReference
  2
_ClosedBlank
 10
1292.167998694705
 20
1298.531036967383
 30
0.0
 50
90.0
  0
MTEXT
  5
3378
330
3372
100
AcDbEntity
  8
0
 62
     0
100
AcDbMText
 10
1291.042998694705
 20
1290.531032647384
 30
0.0
 40
1.0
 41
0.0
 71
     5
 72
     1
  1
16
 11
0.0000000000000001
 21
1.0
 31
0.0
 73
     1
 44
1.0
  0
POINT
  5
3379
330
3372
100
AcDbEntity
  8
Defpoints
 62
     0
100
AcDbPoint
 10
1288.709899697158
 20
1282.531028327383
 30
0.0
  0
POINT
  5
337A
330
3372
100
AcDbEntity
  8
Defpoints
 62
     0
100
AcDbPoint
 10
1288.709899697158
 20
1298.531036967383
 30
0.0
  0
POINT
  5
337B
330
3372
100
AcDbEntity
  8
Defpoints
 62
     0
100
AcDbPoint
 10
1292.167998694705
 20
1298.531036967383
 30
0.0
  0
ENDBLK
  5
337D
330
3372
100
AcDbEntity
  8
0
100
AcDbBlockEnd
  0
BLOCK
  5
3388
330
337E
100
AcDbEntity
  8
0
100
AcDbBlockBegin
  2
*D17
 70
     1
 10
0.0
 20
0.0
 30
0.0
  3
*D17
  1

  0
LINE
  5
338A
330
337E
100
AcDbEntity
  8
0
 62
     0
370
    -2
100
AcDbLine
 10
1274.103592597158
 20
1282.424729327384
 30
0.0
 11
1274.103592597158
 21
1278.714259161752
 31
0.0
  0
LINE
  5
338B
330
337E
100
AcDbEntity
  8
0
 62
     0
370
    -2
100
AcDbLine
 10
1289.103600697158
 20
1282.424729327384
 30
0.0
 11
1289.103600697158
 21
1278.714259161752
 31
0.0
  0
LINE
  5
338C
330
337E
100
AcDbEntity
  8
0
 62
     0
370
    -2
100
AcDbLine
 10
1275.103592597158
 20
1279.964259161752
 30
0.0
 11
1288.103600697158
 21
1279.964259161752
 31
0.0
  0
INSERT
  5
338D
330
337E
100
AcDbEntity
  8
0
 62
     0
370
    -2
100
AcDbBlockReference
  2
_ClosedBlank
 10
1274.103592597158
 20
1279.964259161752
 30
0.0
 50
180.0
  0
INSERT
  5
338E
330
337E
100
AcDbEntity
  8
0
 62
     0
370
    -2
100
AcDbBlockReference
  2
_ClosedBlank
 10
1289.103600697158
 20
1279.964259161752
 30
0.0
  0
MTEXT
  5
338F
330
337E
100
AcDbEntity
  8
0
 62
     0
100
AcDbMText
 10
1281.603596647158
 20
1281.089259161752
 30
0.0
 40
1.0
 41
0.0
 71
     5
 72
     1
  1
15
 73
     1
 44
1.0
  0
POINT
  5
3390
330
337E
100
AcDbEntity
  8
Defpoints
 62
     0
100
AcDbPoint
 10
1274.103592597158
 20
1282.924729327383
 30
0.0
  0
POINT
  5
3391
330
337E
100
AcDbEntity
  8
Defpoints
 62
     0
100
AcDbPoint
 10
1289.103600697158
 20
1282.924729327383
 30
0.0
  0
POINT
  5
3392
330
337E
100
AcDbEntity
  8
Defpoints
 62
     0
100
AcDbPoint
 10
1289.103600697158
 20
1279.964259161752
 30
0.0
  0
ENDBLK
  5
3389
330
337E
100
AcDbEntity
  8
0
100
AcDbBlockEnd
  0
BLOCK
  5
33A0
330
339F
100
AcDbEntity
  8
0
100
AcDbBlockBegin
  2
*D19
 70
     1
 10
0.0
 20
0.0
 30
0.0
  3
*D19
  1

  0
LINE
  5
33A1
330
339F
100
AcDbEntity
  8
0
 62
     0
370
    -2
100
AcDbLine
 10
8933.594627106939
 20
5727.703380243067
 30
0.0
 11
8933.594627106939
 21
5724.190626657001
 31
0.0
  0
LINE
  5
33A2
330
339F
100
AcDbEntity
  8
0
 62
     0
370
    -2
100
AcDbLine
 10
8963.594643306938
 20
5727.703380243067
 30
0.0
 11
8963.594643306938
 21
5724.190626657001
 31
0.0
  0
LINE
  5
33A3
330
339F
100
AcDbEntity
  8
0
 62
     0
370
    -2
100
AcDbLine
 10
8934.594627106939
 20
5725.440626657
 30
0.0
 11
8962.594643306939
 21
5725.440626657
 31
0.0
  0
INSERT
  5
33A4
330
339F
100
AcDbEntity
  8
0
 62
     0
370
    -2
100
AcDbBlockReference
  2
_ClosedBlank
 10
8933.594627106939
 20
5725.440626657
 30
0.0
 50
180.0
  0
INSERT
  5
33A5
330
339F
100
AcDbEntity
  8
0
 62
     0
370
    -2
100
AcDbBlockReference
  2
_ClosedBlank
 10
8963.594643306938
 20
5725.440626657
 30
0.0
  0
MTEXT
  5
33A6
330
339F
100
AcDbEntity
  8
0
 62
     0
100
AcDbMText
 10
8948.594635206939
 20
5726.565626657
 30
0.0
 40
1.0
 41
0.0
 71
     5
 72
     1
  1
30
 73
     1
 44
1.0
  0
POINT
  5
33A7
330
339F
100
AcDbEntity
  8
Defpoints
 62
     0
100
AcDbPoint
 10
8933.594627106939
 20
5728.203380243066
 30
0.0
  0
POINT
  5
33A8
330
339F
100
AcDbEntity
  8
Defpoints
 62
     0
100
AcDbPoint
 10
8963.594643306938
 20
5728.203380243066
 30
0.0
  0
POINT
  5
33A9
330
339F
100
AcDbEntity
  8
Defpoints
 62
     0
100
AcDbPoint
 10
8963.594643306938
 20
5725.440626657
 30
0.0
  0
ENDBLK
  5
33AA
330
339F
100
AcDbEntity
  8
0
100
AcDbBlockEnd
  0
BLOCK
  5
33AC
330
33AB
100
AcDbEntity
  8
0
100
AcDbBlockBegin
  2
*D20
 70
     1
 10
0.0
 20
0.0
 30
0.0
  3
*D20
  1

  0
LINE
  5
33AD
330
33AB
100
AcDbEntity
  8
0
 62
     0
370
    -2
100
AcDbLine
 10
8963.700942306937
 20
5727.809679243067
 30
0.0
 11
8967.76606775683
 21
5727.809679243067
 31
0.0
  0
LINE
  5
33AE
330
33AB
100
AcDbEntity
  8
0
 62
     0
370
    -2
100
AcDbLine
 10
8963.700942306937
 20
5743.809687883066
 30
0.0
 11
8967.76606775683
 21
5743.809687883066
 31
0.0
  0
LINE
  5
33AF
330
33AB
100
AcDbEntity
  8
0
 62
     0
370
    -2
100
AcDbLine
 10
8966.516067756829
 20
5728.809679243067
 30
0.0
 11
8966.516067756829
 21
5742.809687883067
 31
0.0
  0
INSERT
  5
33B0
330
33AB
100
AcDbEntity
  8
0
 62
     0
370
    -2
100
AcDbBlockReference
  2
_ClosedBlank
 10
8966.516067756829
 20
5727.809679243067
 30
0.0
 50
270.0
  0
INSERT
  5
33B1
330
33AB
100
AcDbEntity
  8
0
 62
     0
370
    -2
100
AcDbBlockReference
  2
_ClosedBlank
 10
8966.516067756829
 20
5743.809687883066
 30
0.0
 50
90.0
  0
MTEXT
  5
33B2
330
33AB
100
AcDbEntity
  8
0
 62
     0
100
AcDbMText
 10
8965.391067756828
 20
5735.809683563068
 30
0.0
 40
1.0
 41
0.0
 71
     5
 72
     1
  1
16
 11
0.0000000000000001
 21
1.0
 31
0.0
 73
     1
 44
1.0
  0
POINT
  5
33B3
330
33AB
100
AcDbEntity
  8
Defpoints
 62
     0
100
AcDbPoint
 10
8963.200942306938
 20
5727.809679243067
 30
0.0
  0
POINT
  5
33B4
330
33AB
100
AcDbEntity
  8
Defpoints
 62
     0
100
AcDbPoint
 10
8963.200942306938
 20
5743.809687883066
 30
0.0
  0
POINT
  5
33B5
330
33AB
100
AcDbEntity
  8
Defpoints
 62
     0
100
AcDbPoint
 10
8966.516067756829
 20
5743.809687883066
 30
0.0
  0
ENDBLK
  5
33B6
330
33AB
100
AcDbEntity
  8
0
100
AcDbBlockEnd
  0
BLOCK
  5
33B8
330
33B7
100
AcDbEntity
  8
0
100
AcDbBlockBegin
  2
*D21
 70
     1
 10
0.0
 20
0.0
 30
0.0
  3
*D21
  1

  0
LINE
  5
33B9
330
33B7
100
AcDbEntity
  8
0
 62
     0
370
    -2
100
AcDbLine
 10
8956.1035191909
 20
5730.746101122281
 30
0.0
 11
8962.63016732505
 21
5728.407865933163
 31
0.0
  0
MTEXT
  5
33BA
330
33B7
100
AcDbEntity
  8
0
 62
     0
100
AcDbMText
 10
8958.875692898896
 20
5730.947960918022
 30
0.0
 40
1.0
 41
0.0
 71
     5
 72
     1
  1
R0.39
 11
0.9414084171119993
 21
-0.3372687240031008
 31
0.0
 73
     1
 44
1.0
  0
INSERT
  5
33BB
330
33B7
100
AcDbEntity
  8
0
 62
     0
370
    -2
100
AcDbBlockReference
  2
_ClosedBlank
 10
8963.571575742163
 20
5728.070597209158
 30
0.0
 50
340.2894429267109
  0
POINT
  5
33BC
330
33B7
100
AcDbEntity
  8
Defpoints
 62
     0
100
AcDbPoint
 10
8963.571575742163
 20
5728.070597209158
 30
0.0
  0
POINT
  5
33BD
330
33B7
100
AcDbEntity
  8
Defpoints
 62
     0
100
AcDbPoint
 10
8963.200942306938
 20
5728.203380243066
 30
0.0
  0
ENDBLK
  5
33BE
330
33B7
100
AcDbEntity
  8
0
100
AcDbBlockEnd
  0
BLOCK
  5
33F6
330
33EC
100
AcDbEntity
  8
0
100
AcDbBlockBegin
  2
*D23
 70
     1
 10
0.0
 20
0.0
 30
0.0
  3
*D23
  1

  0
LINE
  5
3439
330
33EC
100
AcDbEntity
  8
0
 62
     0
370
    -2
100
AcDbLine
 10
1269.128016308723
 20
1282.279877658236
 30
0.0
 11
1269.128016308723
 21
1278.76712407217
 31
0.0
  0
LINE
  5
343A
330
33EC
100
AcDbEntity
  8
0
 62
     0
370
    -2
100
AcDbLine
 10
1299.128032508723
 20
1282.279877658236
 30
0.0
 11
1299.128032508723
 21
1278.76712407217
 31
0.0
  0
LINE
  5
343B
330
33EC
100
AcDbEntity
  8
0
 62
     0
370
    -2
100
AcDbLine
 10
1270.128016308723
 20
1280.01712407217
 30
0.0
 11
1298.128032508723
 21
1280.01712407217
 31
0.0
  0
INSERT
  5
343C
330
33EC
100
AcDbEntity
  8
0
 62
     0
370
    -2
100
AcDbBlockReference
  2
_ClosedBlank
 10
1269.128016308723
 20
1280.01712407217
 30
0.0
 50
180.0
  0
INSERT
  5
343D
330
33EC
100
AcDbEntity
  8
0
 62
     0
370
    -2
100
AcDbBlockReference
  2
_ClosedBlank
 10
1299.128032508723
 20
1280.01712407217
 30
0.0
  0
MTEXT
  5
343E
330
33EC
100
AcDbEntity
  8
0
 62
     0
100
AcDbMText
 10
1284.128024408723
 20
1281.14212407217
 30
0.0
 40
1.0
 41
0.0
 71
     5
 72
     1
  1
30
 73
     1
 44
1.0
  0
POINT
  5
343F
330
33EC
100
AcDbEntity
  8
Defpoints
 62
     0
100
AcDbPoint
 10
1269.128016308723
 20
1282.779877658237
 30
0.0
  0
POINT
  5
3440
330
33EC
100
AcDbEntity
  8
Defpoints
 62
     0
100
AcDbPoint
 10
1299.128032508723
 20
1282.779877658237
 30
0.0
  0
POINT
  5
3441
330
33EC
100
AcDbEntity
  8
Defpoints
 62
     0
100
AcDbPoint
 10
1299.128032508723
 20
1280.01712407217
 30
0.0
  0
ENDBLK
  5
33F7
330
33EC
100
AcDbEntity
  8
0
100
AcDbBlockEnd
  0
BLOCK
  5
3402
330
33F8
100
AcDbEntity
  8
0
100
AcDbBlockBegin
  2
*D24
 70
     1
 10
0.0
 20
0.0
 30
0.0
  3
*D24
  1

  0
LINE
  5
342B
330
33F8
100
AcDbEntity
  8
0
 62
     0
370
    -2
100
AcDbLine
 10
1299.234331508722
 20
1282.386176658237
 30
0.0
 11
1303.299456958614
 21
1282.386176658237
 31
0.0
  0
LINE
  5
342C
330
33F8
100
AcDbEntity
  8
0
 62
     0
370
    -2
100
AcDbLine
 10
1299.234331508722
 20
1298.386185298236
 30
0.0
 11
1303.299456958614
 21
1298.386185298236
 31
0.0
  0
LINE
  5
342D
330
33F8
100
AcDbEntity
  8
0
 62
     0
370
    -2
100
AcDbLine
 10
1302.049456958614
 20
1283.386176658237
 30
0.0
 11
1302.049456958614
 21
1297.386185298236
 31
0.0
  0
INSERT
  5
342E
330
33F8
100
AcDbEntity
  8
0
 62
     0
370
    -2
100
AcDbBlockReference
  2
_ClosedBlank
 10
1302.049456958614
 20
1282.386176658237
 30
0.0
 50
270.0
  0
INSERT
  5
342F
330
33F8
100
AcDbEntity
  8
0
 62
     0
370
    -2
100
AcDbBlockReference
  2
_ClosedBlank
 10
1302.049456958614
 20
1298.386185298236
 30
0.0
 50
90.0
  0
MTEXT
  5
3430
330
33F8
100
AcDbEntity
  8
0
 62
     0
100
AcDbMText
 10
1300.924456958613
 20
1290.386180978237
 30
0.0
 40
1.0
 41
0.0
 71
     5
 72
     1
  1
16
 11
0.0000000000000001
 21
1.0
 31
0.0
 73
     1
 44
1.0
  0
POINT
  5
3431
330
33F8
100
AcDbEntity
  8
Defpoints
 62
     0
100
AcDbPoint
 10
1298.734331508722
 20
1282.386176658237
 30
0.0
  0
POINT
  5
3432
330
33F8
100
AcDbEntity
  8
Defpoints
 62
     0
100
AcDbPoint
 10
1298.734331508722
 20
1298.386185298236
 30
0.0
  0
POINT
  5
3433
330
33F8
100
AcDbEntity
  8
Defpoints
 62
     0
100
AcDbPoint
 10
1302.049456958614
 20
1298.386185298236
 30
0.0
  0
ENDBLK
  5
3403
330
33F8
100
AcDbEntity
  8
0
100
AcDbBlockEnd
  0
BLOCK
  5
340A
330
3404
100
AcDbEntity
  8
0
100
AcDbBlockBegin
  2
*D25
 70
     1
 10
0.0
 20
0.0
 30
0.0
  3
*D25
  1

  0
LINE
  5
3442
330
3404
100
AcDbEntity
  8
0
 62
     0
370
    -2
100
AcDbLine
 10
1291.636908392671
 20
1285.322598537421
 30
0.0
 11
1298.163556526833
 21
1282.984363348329
 31
0.0
  0
MTEXT
  5
3443
330
3404
100
AcDbEntity
  8
0
 62
     0
100
AcDbMText
 10
1294.409082100667
 20
1285.524458333175
 30
0.0
 40
1.0
 41
0.0
 71
     5
 72
     1
  1
R0.39
 11
0.9414084171133239
 21
-0.3372687239994034
 31
0.0
 73
     1
 44
1.0
  0
INSERT
  5
3444
330
3404
100
AcDbEntity
  8
0
 62
     0
370
    -2
100
AcDbBlockReference
  2
_ClosedBlank
 10
1299.104964943947
 20
1282.64709462433
 30
0.0
 50
340.289442926936
  0
POINT
  5
3445
330
3404
100
AcDbEntity
  8
Defpoints
 62
     0
100
AcDbPoint
 10
1299.104964943947
 20
1282.64709462433
 30
0.0
  0
POINT
  5
3446
330
3404
100
AcDbEntity
  8
Defpoints
 62
     0
100
AcDbPoint
 10
1298.734331508722
 20
1282.779877658237
 30
0.0
  0
ENDBLK
  5
340B
330
3404
100
AcDbEntity
  8
0
100
AcDbBlockEnd
  0
ENDSEC
  0
SECTION
  2
ENTITIES
  0
POINT
  5
37C
330
2
100
AcDbEntity
  8
0
 60
     1
100
AcDbPoint
 10
170.4737662487822
 20
-90.83440570086338
 30
0.0
1001
GENIUS_GENOBJ-N-TIT_13
1002
{
1000
OWNER
1000
GEN
1002
}
1001
GENIUS_GENOENT_13
1002
{
1000
MYREF
1005
37C
1002
}
1002
{
1000
GRP
1005
0
1002
}
1001
GENIUS_GENOLIS_13
1002
{
1000
ENT
1005
0
1005
0
1002
}
1001
GENIUS_GENTITLE_13
1002
{
1000
SCALE
1000
1:1
1002
}
1002
{
1000
BORDER
1000
GEN_A1
1002
}
1002
{
1000
TITLE
1000
GENTITLE
1002
}
1002
{
1000
UNCHG
1002
{
1000
GEN-TITLE-SCA
1000
GEN-TITLE-SIZ
1002
}
1002
}
1002
{
1000
HRA
1005
0
1002
}
1002
{
1000
HTIT
1005
0
1002
}
1002
{
1000
GENIUSID
1005
37C
1002
}
1001
GENIUS_GENODEF_13
1002
{
1000
HIER
1070
     1
1002
}
1002
{
1000
MANEDIT
1070
     0
1002
}
1002
{
1000
NOSEL
1070
     0
1002
}
1002
{
1000
BEHIND
1070
     0
1002
}
1002
{
1000
REACTOR
1002
}
  0
TEXT
  5
384
330
2
100
AcDbEntity
  8
0
 60
     1
100
AcDbText
 10
830.9999999999996
 20
-52.92726755347096
 30
0.0
 40
3.5
  1
!GENTITLE-INSERT
100
AcDbText
  0
TEXT
  5
385
330
2
100
AcDbEntity
  8
0
 60
     1
100
AcDbText
 10
10.0
 20
-47.92726755347096
 30
0.0
 40
3.5
  1
!GENTITLE-LL
100
AcDbText
  0
TEXT
  5
386
330
2
100
AcDbEntity
  8
0
 60
     1
100
AcDbText
 10
831.0
 20
526.072732446529
 30
0.0
 40
3.5
  1
!GENTITLE-RU
100
AcDbText
  0
TEXT
  5
387
330
2
100
AcDbEntity
  8
0
 60
     1
100
AcDbText
 10
841.0
 20
536.0727324465289
 30
0.0
 40
3.5
  1
!GENTITLE-MAX
100
AcDbText
  0
TEXT
  5
3FA
330
2
100
AcDbEntity
  8
0
 60
     1
100
AcDbText
 10
684.8812705983662
 20
141.8068575944205
 30
0.0
 40
3.5
  1
!GENTITLE-INSERT
100
AcDbText
  0
TEXT
  5
3FB
330
2
100
AcDbEntity
  8
0
 60
     1
100
AcDbText
 10
-136.1187294016335
 20
146.8068575944205
 30
0.0
 40
3.5
  1
!GENTITLE-LL
100
AcDbText
  0
TEXT
  5
3FC
330
2
100
AcDbEntity
  8
0
 60
     1
100
AcDbText
 10
684.8812705983664
 20
720.8068575944203
 30
0.0
 40
3.5
  1
!GENTITLE-RU
100
AcDbText
  0
TEXT
  5
3FD
330
2
100
AcDbEntity
  8
0
 60
     1
100
AcDbText
 10
694.8812705983664
 20
730.8068575944203
 30
0.0
 40
3.5
  1
!GENTITLE-MAX
100
AcDbText
  0
LINE
  5
33D9
330
2
100
AcDbEntity
  8
0
100
AcDbLine
 10
1269.521717308722
 20
1282.386176658237
 30
0.0
 11
1287.521727028723
 21
1282.386176658237
 31
0.0
  0
LINE
  5
33DA
330
2
100
AcDbEntity
  8
0
100
AcDbLine
 10
1285.734324488722
 20
1298.386185298236
 30
0.0
 11
1269.521717308722
 21
1298.386185298236
 31
0.0
  0
ARC
  5
33DB
330
2
100
AcDbEntity
  8
0
100
AcDbCircle
 10
1269.521717308722
 20
1297.992484298236
 30
0.0
 40
0.393701
100
AcDbArc
 50
90.0
 51
180.0
  0
LINE
  5
33DC
330
2
100
AcDbEntity
  8
0
100
AcDbLine
 10
1269.128016308723
 20
1297.992484298236
 30
0.0
 11
1269.128016308723
 21
1282.779877658237
 31
0.0
  0
ARC
  5
33DD
102
{ACAD_REACTORS
330
33E5
102
}
330
2
100
AcDbEntity
  8
0
100
AcDbCircle
 10
1269.521717308722
 20
1282.779877658237
 30
0.0
 40
0.393701
100
AcDbArc
 50
180.0
 51
270.0
  0
LINE
  5
33DE
102
{ACAD_REACTORS
330
33E8
102
}
330
2
100
AcDbEntity
  8
0
100
AcDbLine
 10
1285.734324488722
 20
1298.386185298236
 30
0.0
 11
1298.734331508722
 21
1298.386185298236
 31
0.0
  0
ARC
  5
33DF
330
2
100
AcDbEntity
  8
0
100
AcDbCircle
 10
1298.734331508722
 20
1297.992484298236
 30
0.0
 40
0.393701
100
AcDbArc
 50
0.0
 51
90.0
  0
LINE
  5
33E0
330
2
100
AcDbEntity
  8
0
100
AcDbLine
 10
1299.128032508723
 20
1297.992484298236
 30
0.0
 11
1299.128032508723
 21
1282.779877658237
 31
0.0
  0
ARC
  5
33E1
102
{ACAD_REACTORS
330
33EB
102
}
330
2
100
AcDbEntity
  8
0
100
AcDbCircle
 10
1298.734331508722
 20
1282.779877658237
 30
0.0
 40
0.393701
100
AcDbArc
 50
270.0
 51
0.0
  0
LINE
  5
33E2
102
{ACAD_REACTORS
330
33E8
102
}
330
2
100
AcDbEntity
  8
0
100
AcDbLine
 10
1298.734331508722
 20
1282.386176658237
 30
0.0
 11
1287.521727028723
 21
1282.386176658237
 31
0.0
  0
DIMENSION
  5
33E3
102
{ACAD_XDICTIONARY
360
33E4
102
}
102
{ACAD_REACTORS
330
33E5
102
}
330
2
100
AcDbEntity
  8
0
100
AcDbDimension
  2
*D23
 10
1299.128032508723
 20
1280.01712407217
 30
0.0
 11
1284.128024408723
 21
1281.14212407217
 31
0.0
 70
    32
 71
     5
 42
30.00001619999967
  3
\U+6211\U+7684\U+6837\U+5F0F
100
AcDbAlignedDimension
 13
1269.128016308723
 23
1282.779877658237
 33
0.0
 14
1299.128032508723
 24
1282.779877658237
 34
0.0
100
AcDbRotatedDimension
1001
ACAD
1000
DSTYLE
1002
{
1070
    42
1040
0.5
1070
   371
1070
    -2
1070
    41
1040
1.0
1070
   140
1040
1.0
1002
}
  0
DIMENSION
  5
33E6
102
{ACAD_XDICTIONARY
360
33E7
102
}
102
{ACAD_REACTORS
330
33E8
102
}
330
2
100
AcDbEntity
  8
0
100
AcDbDimension
  2
*D24
 10
1302.049456958614
 20
1298.386185298236
 30
0.0
 11
1300.924456958613
 21
1290.386180978237
 31
0.0
 70
    32
 71
     5
 42
16.00000863999958
  3
\U+6211\U+7684\U+6837\U+5F0F
100
AcDbAlignedDimension
 13
1298.734331508722
 23
1282.386176658237
 33
0.0
 14
1298.734331508722
 24
1298.386185298236
 34
0.0
 50
90.0
100
AcDbRotatedDimension
1001
ACAD
1000
DSTYLE
1002
{
1070
    42
1040
0.5
1070
   371
1070
    -2
1070
    41
1040
1.0
1070
   140
1040
1.0
1002
}
  0
DIMENSION
  5
33E9
102
{ACAD_XDICTIONARY
360
33EA
102
}
102
{ACAD_REACTORS
330
33EB
102
}
330
2
100
AcDbEntity
  8
0
100
AcDbDimension
  2
*D25
 10
1298.734331508722
 20
1282.779877658237
 30
0.0
 11
1294.029654786167
 21
1284.465373863923
 31
0.0
 70
   164
 71
     5
 42
0.3937009999988277
  3
\U+6211\U+7684\U+6837\U+5F0F
100
AcDbRadialDimension
 15
1299.104964943947
 25
1282.64709462433
 35
0.0
 40
0.0
1001
ACAD_DSTYLE_DIMRADIAL_EXTENSION
1070
   387
1070
     1
1070
   388
1040
4.712388980384688
1070
   390
1040
0.0
1001
ACAD
1000
DSTYLE
1002
{
1070
   371
1070
    -2
1070
    41
1040
1.0
1070
   140
1040
1.0
1070
   288
1070
     1
1002
}
  0
MTEXT
  5
3421
330
2
100
AcDbEntity
  8
0
100
AcDbMText
 10
1272.375633826216
 20
1289.904896760345
 30
0.0
 40
0.3937
 41
14.93397349915023
 71
     1
 72
     5
  3
{\fTimes New Roman|b0|i0|c0|p18;\H1.27x;Model : AXI-3218D   \H0.58x;IMPORTANT ! \PThis template is provided as a guide for Undermount cutout only. \PBefore beginning to cut countertop, compare physical dimension of the template and the cutout line wi
  1
th the actual sink unit for an accurate cut.\PHamatUSA is not responsible for any countertop, installation or labor charges due to failure to follow these instructions.\P\Lwww.Hamatusa.com }
  7
\U+C2A4\U+D0C0\U+C77C2
 73
     1
 44
1.0
  0
VIEWPORT
  5
74
330
C
100
AcDbEntity
 67
     1
  8
0
100
AcDbViewport
 10
490.633788896909
 20
297.0009369707932
 30
0.0
 40
1115.370256166983
 41
599.3755656108596
 68
     1
 69
     1
 12
490.633788896909
 22
297.0009369707932
 13
0.0
 23
0.0
 14
10.0
 24
10.0
 15
10.0
 25
10.0
 16
0.0
 26
0.0
 36
1.0
 17
0.0
 27
0.0
 37
0.0
 42
50.0
 43
0.0
 44
0.0
 45
599.3755656108596
 50
0.0
 51
0.0
 72
  1000
 90
    32800
  1

281
     0
 71
     1
 74
     0
110
0.0
120
0.0
130
0.0
111
1.0
121
0.0
131
0.0
112
0.0
122
1.0
132
0.0
 79
     0
146
0.0
170
     0
  0
ENDSEC
  0
SECTION
  2
OBJECTS
  0
DICTIONARY
  5
7
330
0
100
AcDbDictionary
281
     1
  3
ACAD_COLOR
350
5A3
  3
ACAD_GROUP
350
20
  3
ACAD_LAYOUT
350
B
  3
ACAD_MATERIAL
350
5A2
  3
ACAD_MLEADERSTYLE
350
319C
  3
ACAD_MLINESTYLE
350
21
  3
ACAD_PLOTSETTINGS
350
22
  3
ACAD_PLOTSTYLENAME
350
6
  3
ACAD_SCALELIST
350
318A
  3
ACAD_TABLESTYLE
350
5C3
  3
ACAD_VISUALSTYLE
350
3176
  3
ACDB_RECOMPOSE_DATA
350
329C
  3
AcDbVariableDictionary
350
81
  0
DICTIONARY
  5
1CC0
330
10
100
AcDbDictionary
280
     1
281
     1
  3
ACAD_LAYERSTATES
360
1CC1
  0
DICTIONARY
  5
323C
330
4
100
AcDbDictionary
280
     1
281
     1
  3
ADSK_XREC_LAYER_RECONCILED
360
323D
  0
DICTIONARY
  5
323E
330
8E
100
AcDbDictionary
280
     1
281
     1
  3
ADSK_XREC_LAYER_RECONCILED
360
323F
  0
DICTIONARY
  5
3240
330
8F
100
AcDbDictionary
280
     1
281
     1
  3
ADSK_XREC_LAYER_RECONCILED
360
3241
  0
DICTIONARY
  5
3242
330
90
100
AcDbDictionary
280
     1
281
     1
  3
ADSK_XREC_LAYER_RECONCILED
360
3243
  0
DICTIONARY
  5
3244
330
91
100
AcDbDictionary
280
     1
281
     1
  3
ADSK_XREC_LAYER_RECONCILED
360
3245
  0
DICTIONARY
  5
3246
330
62B
100
AcDbDictionary
280
     1
281
     1
  3
ADSK_XREC_LAYER_RECONCILED
360
3247
  0
DICTIONARY
  5
3248
330
62C
100
AcDbDictionary
280
     1
281
     1
  3
ADSK_XREC_LAYER_RECONCILED
360
3249
  0
DICTIONARY
  5
324A
330
1812
100
AcDbDictionary
280
     1
281
     1
  3
ADSK_XREC_LAYER_RECONCILED
360
324B
  0
DICTIONARY
  5
324C
330
26BA
100
AcDbDictionary
280
     1
281
     1
  3
ADSK_XREC_LAYER_RECONCILED
360
324D
  0
DICTIONARY
  5
324E
330
26BB
100
AcDbDictionary
280
     1
281
     1
  3
ADSK_XREC_LAYER_RECONCILED
360
324F
  0
DICTIONARY
  5
3250
330
26BC
100
AcDbDictionary
280
     1
281
     1
  3
ADSK_XREC_LAYER_RECONCILED
360
3251
  0
DICTIONARY
  5
3252
330
26BD
100
AcDbDictionary
280
     1
281
     1
  3
ADSK_XREC_LAYER_RECONCILED
360
3253
  0
DICTIONARY
  5
3254
330
26BE
100
AcDbDictionary
280
     1
281
     1
  3
ADSK_XREC_LAYER_RECONCILED
360
3255
  0
DICTIONARY
  5
3256
330
2762
100
AcDbDictionary
280
     1
281
     1
  3
ADSK_XREC_LAYER_RECONCILED
360
3257
  0
DICTIONARY
  5
3258
330
2763
100
AcDbDictionary
280
     1
281
     1
  3
ADSK_XREC_LAYER_RECONCILED
360
3259
  0
DICTIONARY
  5
325A
330
2764
100
AcDbDictionary
280
     1
281
     1
  3
ADSK_XREC_LAYER_RECONCILED
360
325B
  0
DICTIONARY
  5
325C
330
29AA
100
AcDbDictionary
280
     1
281
     1
  3
ADSK_XREC_LAYER_RECONCILED
360
325D
  0
DICTIONARY
  5
325E
330
29AB
100
AcDbDictionary
280
     1
281
     1
  3
ADSK_XREC_LAYER_RECONCILED
360
325F
  0
DICTIONARY
  5
3260
330
2A31
100
AcDbDictionary
280
     1
281
     1
  3
ADSK_XREC_LAYER_RECONCILED
360
3261
  0
DICTIONARY
  5
3262
330
2A32
100
AcDbDictionary
280
     1
281
     1
  3
ADSK_XREC_LAYER_RECONCILED
360
3263
  0
DICTIONARY
  5
3264
330
2AD2
100
AcDbDictionary
280
     1
281
     1
  3
ADSK_XREC_LAYER_RECONCILED
360
3265
  0
DICTIONARY
  5
3266
330
2DCD
100
AcDbDictionary
280
     1
281
     1
  3
ADSK_XREC_LAYER_RECONCILED
360
3267
  0
DICTIONARY
  5
3268
330
2DCE
100
AcDbDictionary
280
     1
281
     1
  3
ADSK_XREC_LAYER_RECONCILED
360
3269
  0
DICTIONARY
  5
95E
330
2
100
AcDbDictionary
280
     1
281
     1
  3
ACAD_SORTENTS
360
95F
  0
DICTIONARY
  5
31AA
330
31A1
100
AcDbDictionary
280
     1
281
     1
  3
ACAD_SORTENTS
360
31AB
  0
DICTIONARY
  5
33E4
330
33E3
100
AcDbDictionary
280
     1
281
     1
  3
ACAD_DIMASSOC
360
33E5
  0
DICTIONARY
  5
33E7
330
33E6
100
AcDbDictionary
280
     1
281
     1
  3
ACAD_DIMASSOC
360
33E8
  0
DICTIONARY
  5
33EA
330
33E9
100
AcDbDictionary
280
     1
281
     1
  3
ACAD_DIMASSOC
360
33EB
  0
DICTIONARY
  5
5A3
102
{ACAD_REACTORS
330
7
102
}
330
7
100
AcDbDictionary
281
     1
  0
DICTIONARY
  5
20
102
{ACAD_REACTORS
330
7
102
}
330
7
100
AcDbDictionary
281
     1
  0
DICTIONARY
  5
B
102
{ACAD_REACTORS
330
7
102
}
330
7
100
AcDbDictionary
281
     1
  3
DIN A1 Title Block
350
F
  3
Model
350
A
  0
DICTIONARY
  5
5A2
102
{ACAD_REACTORS
330
7
102
}
330
7
100
AcDbDictionary
281
     1
  3
ByBlock
350
3166
  3
ByLayer
350
315E
  3
Global
350
316E
  0
DICTIONARY
  5
319C
102
{ACAD_REACTORS
330
7
102
}
330
7
100
AcDbDictionary
281
     1
  3
Standard
350
319D
  0
DICTIONARY
  5
21
102
{ACAD_REACTORS
330
7
102
}
330
7
100
AcDbDictionary
281
     1
  3
Standard
350
23
  0
DICTIONARY
  5
22
102
{ACAD_REACTORS
330
7
102
}
330
7
100
AcDbDictionary
281
     1
  0
ACDBDICTIONARYWDFLT
  5
6
102
{ACAD_REACTORS
330
7
102
}
330
7
100
AcDbDictionary
281
     1
  3
Normal
350
5
100
AcDbDictionaryWithDefault
340
5
  0
DICTIONARY
  5
318A
102
{ACAD_REACTORS
330
7
102
}
330
7
100
AcDbDictionary
281
     1
  3
A0
350
318B
  3
A1
350
318C
  3
A2
350
318D
  3
A3
350
318E
  3
A4
350
318F
  3
A5
350
3190
  3
A6
350
3191
  3
A7
350
3192
  3
A8
350
3193
  3
A9
350
3194
  3
B0
350
3195
  3
B1
350
3196
  3
B2
350
3197
  3
B3
350
3198
  3
B4
350
3199
  3
B5
350
319A
  3
B6
350
319B
  0
DICTIONARY
  5
5C3
102
{ACAD_REACTORS
330
7
102
}
330
7
100
AcDbDictionary
281
     1
  3
Standard
350
5C4
  0
DICTIONARY
  5
3176
102
{ACAD_REACTORS
330
7
102
}
330
7
100
AcDbDictionary
281
     1
  3
2dWireframe
350
317C
  3
3D Hidden
350
317E
  3
3dWireframe
350
317D
  3
Basic
350
317B
  3
Brighten
350
3182
  3
ColorChange
350
3186
  3
Conceptual
350
317F
  3
Dim
350
3181
  3
EdgeColorOff
350
3189
  3
Facepattern
350
3185
  3
Flat
350
3177
  3
FlatWithEdges
350
3178
  3
Gouraud
350
3179
  3
GouraudWithEdges
350
317A
  3
JitterOff
350
3187
  3
Linepattern
350
3184
  3
OverhangOff
350
3188
  3
Realistic
350
3180
  3
Thicken
350
3183
  0
XRECORD
  5
329C
102
{ACAD_REACTORS
330
7
102
}
330
7
100
AcDbXrecord
280
     1
 90
        1
330
5C4
  0
DICTIONARY
  5
81
102
{ACAD_REACTORS
330
7
102
}
330
7
100
AcDbDictionary
281
     1
  3
CANNOSCALE
350
326B
  3
CMLEADERSTYLE
350
326A
  3
CTABLESTYLE
350
5EE
  3
DIMASSOC
350
82
  3
PROJECTNAME
350
3137
  0
DICTIONARY
  5
1CC1
102
{ACAD_REACTORS
330
1CC0
102
}
330
1CC0
100
AcDbDictionary
281
     1
  0
XRECORD
  5
323D
102
{ACAD_REACTORS
330
323C
102
}
330
323C
100
AcDbXrecord
280
     1
290
     1
  0
XRECORD
  5
323F
102
{ACAD_REACTORS
330
323E
102
}
330
323E
100
AcDbXrecord
280
     1
290
     1
  0
XRECORD
  5
3241
102
{ACAD_REACTORS
330
3240
102
}
330
3240
100
AcDbXrecord
280
     1
290
     1
  0
XRECORD
  5
3243
102
{ACAD_REACTORS
330
3242
102
}
330
3242
100
AcDbXrecord
280
     1
290
     1
  0
XRECORD
  5
3245
102
{ACAD_REACTORS
330
3244
102
}
330
3244
100
AcDbXrecord
280
     1
290
     1
  0
XRECORD
  5
3247
102
{ACAD_REACTORS
330
3246
102
}
330
3246
100
AcDbXrecord
280
     1
290
     1
  0
XRECORD
  5
3249
102
{ACAD_REACTORS
330
3248
102
}
330
3248
100
AcDbXrecord
280
     1
290
     1
  0
XRECORD
  5
324B
102
{ACAD_REACTORS
330
324A
102
}
330
324A
100
AcDbXrecord
280
     1
290
     1
  0
XRECORD
  5
324D
102
{ACAD_REACTORS
330
324C
102
}
330
324C
100
AcDbXrecord
280
     1
290
     1
  0
XRECORD
  5
324F
102
{ACAD_REACTORS
330
324E
102
}
330
324E
100
AcDbXrecord
280
     1
290
     1
  0
XRECORD
  5
3251
102
{ACAD_REACTORS
330
3250
102
}
330
3250
100
AcDbXrecord
280
     1
290
     1
  0
XRECORD
  5
3253
102
{ACAD_REACTORS
330
3252
102
}
330
3252
100
AcDbXrecord
280
     1
290
     1
  0
XRECORD
  5
3255
102
{ACAD_REACTORS
330
3254
102
}
330
3254
100
AcDbXrecord
280
     1
290
     1
  0
XRECORD
  5
3257
102
{ACAD_REACTORS
330
3256
102
}
330
3256
100
AcDbXrecord
280
     1
290
     1
  0
XRECORD
  5
3259
102
{ACAD_REACTORS
330
3258
102
}
330
3258
100
AcDbXrecord
280
     1
290
     1
  0
XRECORD
  5
325B
102
{ACAD_REACTORS
330
325A
102
}
330
325A
100
AcDbXrecord
280
     1
290
     1
  0
XRECORD
  5
325D
102
{ACAD_REACTORS
330
325C
102
}
330
325C
100
AcDbXrecord
280
     1
290
     1
  0
XRECORD
  5
325F
102
{ACAD_REACTORS
330
325E
102
}
330
325E
100
AcDbXrecord
280
     1
290
     1
  0
XRECORD
  5
3261
102
{ACAD_REACTORS
330
3260
102
}
330
3260
100
AcDbXrecord
280
     1
290
     1
  0
XRECORD
  5
3263
102
{ACAD_REACTORS
330
3262
102
}
330
3262
100
AcDbXrecord
280
     1
290
     1
  0
XRECORD
  5
3265
102
{ACAD_REACTORS
330
3264
102
}
330
3264
100
AcDbXrecord
280
     1
290
     1
  0
XRECORD
  5
3267
102
{ACAD_REACTORS
330
3266
102
}
330
3266
100
AcDbXrecord
280
     1
290
     1
  0
XRECORD
  5
3269
102
{ACAD_REACTORS
330
3268
102
}
330
3268
100
AcDbXrecord
280
     1
290
     1
  0
SORTENTSTABLE
  5
95F
102
{ACAD_REACTORS
330
95E
102
}
330
95E
100
AcDbSortentsTable
330
2
331
3FC
  5
3FC
331
3FA
  5
3FA
331
386
  5
386
331
384
  5
384
331
3FD
  5
3FD
331
37C
  5
37C
331
3FB
  5
3FB
331
387
  5
387
331
385
  5
385
  0
SORTENTSTABLE
  5
31AB
102
{ACAD_REACTORS
330
31AA
102
}
330
31AA
100
AcDbSortentsTable
330
31A1
  0
DIMASSOC
  5
33E5
102
{ACAD_REACTORS
330
33E4
102
}
330
33E4
100
AcDbDimAssoc
330
33E3
 90
        1
 70
     0
 71
     0
  1
AcDbOsnapPointRef
 72
    13
331
33DD
 73
     2
 91
        0
 40
3.141592653589792
 10
0.0
 20
0.0
 30
2.000000000000000E+50
 75
     0
  0
DIMASSOC
  5
33E8
102
{ACAD_REACTORS
330
33E7
102
}
330
33E7
100
AcDbDimAssoc
330
33E6
 90
        3
 70
     0
 71
     0
  1
AcDbOsnapPointRef
 72
    13
331
33E2
 73
     2
 91
        0
 40
0.0
 10
0.0
 20
0.0
 30
2.000000000000000E+50
 75
     0
  1
AcDbOsnapPointRef
 72
     8
331
33DE
 73
     2
 91
        0
 40
0.9999999999999936
 10
0.0
 20
0.0
 30
0.0
 75
     1
  1
AcDbOsnapPointRef
 72
    13
331
33E2
 73
     2
 91
        0
 40
0.0
 10
0.0
 20
0.0
 30
2.000000000000000E+50
 75
     0
  0
DIMASSOC
  5
33EB
102
{ACAD_REACTORS
330
33EA
102
}
330
33EA
100
AcDbDimAssoc
330
33E9
 90
        2
 70
     0
 71
     0
  1
AcDbOsnapPointRef
 72
     3
331
33E1
 73
     2
 91
        0
 40
0.0
 10
0.0
 20
0.0
 30
0.0
 75
     0
  0
LAYOUT
  5
F
102
{ACAD_REACTORS
330
B
102
}
330
B
100
AcDbPlotSettings
  1

  2
none_device
  4
ISO_A1_(841.00_x_594.00_MM)
  6

 40
7.549999999999998
 41
20.05
 42
7.549999999999998
 43
20.05
 44
841.0
 45
594.0
 46
-7.57
 47
-20.06
 48
0.0
 49
0.0
140
0.0
141
0.0
142
1.0
143
1.0
 70
   688
 72
     1
 73
     0
 74
     5
  7

 75
    16
147
1.0
 76
     0
 77
     2
 78
   300
148
0.0128164049386896
149
0.0090630292066862
100
AcDbLayout
  1
DIN A1 Title Block
 70
     1
 71
     1
 10
0.0071835950613108
 20
0.0009369707933118
 11
841.0071835950612
 21
594.0009369707931
 12
0.0
 22
0.0
 32
0.0
 14
1.000000000000000E+20
 24
1.000000000000000E+20
 34
1.000000000000000E+20
 15
-1.000000000000000E+20
 25
-1.000000000000000E+20
 35
-1.000000000000000E+20
146
0.0
 13
0.0
 23
0.0
 33
0.0
 16
1.0
 26
0.0
 36
0.0
 17
0.0
 27
1.0
 37
0.0
 76
     0
330
C
331
74
  0
LAYOUT
  5
A
102
{ACAD_REACTORS
330
B
102
}
330
B
100
AcDbPlotSettings
  1

  2
none_device
  4
ISO_A4_(297.00_x_210.00_MM)
  6

 40
7.5
 41
20.0
 42
7.5
 43
20.0
 44
297.0
 45
210.0
 46
0.0
 47
0.0
 48
969.1120635225747
 49
1410.089773188028
140
997.7071895623687
141
1431.243016253039
142
1.0
143
20.0
 70
 11952
 72
     1
 73
     0
 74
     4
  7

 75
    22
147
0.05
 76
     0
 77
     2
 78
   300
148
-969.1120635225747
149
-1410.089773188028
100
AcDbLayout
  1
Model
 70
     1
 71
     0
 10
0.0
 20
0.0
 11
12.0
 21
9.0
 12
0.0
 22
0.0
 32
0.0
 14
0.0
 24
0.0
 34
0.0
 15
0.0
 25
0.0
 35
0.0
146
0.0
 13
0.0
 23
0.0
 33
0.0
 16
1.0
 26
0.0
 36
0.0
 17
0.0
 27
1.0
 37
0.0
 76
     0
330
2
331
3158
1001
ACAD_PSEXT
1000
\U+C5C6\U+C74C
1000
\U+C5C6\U+C74C
1000
\U+C801\U+C6A9 \U+AC00\U+B2A5\U+D558\U+C9C0 \U+C54A\U+C74C
1000
\U+BC30\U+CE58\U+AC00 \U+C0C8\U+B85C\U+C6B4 \U+D50C\U+B85C\U+D130 \U+AD6C\U+C131\U+C744 \U+C120\U+D0DD\U+D560 \U+B54C\U+AE4C\U+C9C0 \U+D50C\U+B86F\U+B418\U+C9C0 \U+C54A\U+C2B5\U+B2C8\U+B2E4.
1070
     0
  0
MATERIAL
  5
3166
102
{ACAD_XDICTIONARY
360
3167
102
}
102
{ACAD_REACTORS
330
5A2
102
}
330
5A2
100
AcDbMaterial
  1
ByBlock
 72
     0
 43
0.0208333333333333
 43
0.0
 43
0.0
 43
0.0
 43
0.0
 43
0.0208333333333333
 43
0.0
 43
0.0
 43
0.0
 43
0.0
 43
1.0
 43
0.0
 43
0.0
 43
0.0
 43
0.0
 43
1.0
 77
     0
 47
0.0208333333333333
 47
0.0
 47
0.0
 47
0.0
 47
0.0
 47
0.0208333333333333
 47
0.0
 47
0.0
 47
0.0
 47
0.0
 47
1.0
 47
0.0
 47
0.0
 47
0.0
 47
0.0
 47
1.0
171
     0
 49
0.0208333333333333
 49
0.0
 49
0.0
 49
0.0
 49
0.0
 49
0.0208333333333333
 49
0.0
 49
0.0
 49
0.0
 49
0.0
 49
1.0
 49
0.0
 49
0.0
 49
0.0
 49
0.0
 49
1.0
175
     0
142
0.0208333333333333
142
0.0
142
0.0
142
0.0
142
0.0
142
0.0208333333333333
142
0.0
142
0.0
142
0.0
142
0.0
142
1.0
142
0.0
142
0.0
142
0.0
142
0.0
142
1.0
179
     0
144
0.0208333333333333
144
0.0
144
0.0
144
0.0
144
0.0
144
0.0208333333333333
144
0.0
144
0.0
144
0.0
144
0.0
144
1.0
144
0.0
144
0.0
144
0.0
144
0.0
144
1.0
147
0.0208333333333333
147
0.0
147
0.0
147
0.0
147
0.0
147
0.0208333333333333
147
0.0
147
0.0
147
0.0
147
0.0
147
1.0
147
0.0
147
0.0
147
0.0
147
0.0
147
1.0
  0
MATERIAL
  5
315E
102
{ACAD_XDICTIONARY
360
315F
102
}
102
{ACAD_REACTORS
330
5A2
102
}
330
5A2
100
AcDbMaterial
  1
ByLayer
 72
     0
 43
0.0208333333333333
 43
0.0
 43
0.0
 43
0.0
 43
0.0
 43
0.0208333333333333
 43
0.0
 43
0.0
 43
0.0
 43
0.0
 43
1.0
 43
0.0
 43
0.0
 43
0.0
 43
0.0
 43
1.0
 77
     0
 47
0.0208333333333333
 47
0.0
 47
0.0
 47
0.0
 47
0.0
 47
0.0208333333333333
 47
0.0
 47
0.0
 47
0.0
 47
0.0
 47
1.0
 47
0.0
 47
0.0
 47
0.0
 47
0.0
 47
1.0
171
     0
 49
0.0208333333333333
 49
0.0
 49
0.0
 49
0.0
 49
0.0
 49
0.0208333333333333
 49
0.0
 49
0.0
 49
0.0
 49
0.0
 49
1.0
 49
0.0
 49
0.0
 49
0.0
 49
0.0
 49
1.0
175
     0
142
0.0208333333333333
142
0.0
142
0.0
142
0.0
142
0.0
142
0.0208333333333333
142
0.0
142
0.0
142
0.0
142
0.0
142
1.0
142
0.0
142
0.0
142
0.0
142
0.0
142
1.0
179
     0
144
0.0208333333333333
144
0.0
144
0.0
144
0.0
144
0.0
144
0.0208333333333333
144
0.0
144
0.0
144
0.0
144
0.0
144
1.0
144
0.0
144
0.0
144
0.0
144
0.0
144
1.0
147
0.0208333333333333
147
0.0
147
0.0
147
0.0
147
0.0
147
0.0208333333333333
147
0.0
147
0.0
147
0.0
147
0.0
147
1.0
147
0.0
147
0.0
147
0.0
147
0.0
147
1.0
  0
MATERIAL
  5
316E
102
{ACAD_XDICTIONARY
360
316F
102
}
102
{ACAD_REACTORS
330
5A2
102
}
330
5A2
100
AcDbMaterial
  1
Global
 72
     0
 43
0.0208333333333333
 43
0.0
 43
0.0
 43
0.0
 43
0.0
 43
0.0208333333333333
 43
0.0
 43
0.0
 43
0.0
 43
0.0
 43
1.0
 43
0.0
 43
0.0
 43
0.0
 43
0.0
 43
1.0
 77
     0
 47
0.0208333333333333
 47
0.0
 47
0.0
 47
0.0
 47
0.0
 47
0.0208333333333333
 47
0.0
 47
0.0
 47
0.0
 47
0.0
 47
1.0
 47
0.0
 47
0.0
 47
0.0
 47
0.0
 47
1.0
171
     0
 49
0.0208333333333333
 49
0.0
 49
0.0
 49
0.0
 49
0.0
 49
0.0208333333333333
 49
0.0
 49
0.0
 49
0.0
 49
0.0
 49
1.0
 49
0.0
 49
0.0
 49
0.0
 49
0.0
 49
1.0
175
     0
142
0.0208333333333333
142
0.0
142
0.0
142
0.0
142
0.0
142
0.0208333333333333
142
0.0
142
0.0
142
0.0
142
0.0
142
1.0
142
0.0
142
0.0
142
0.0
142
0.0
142
1.0
179
     0
144
0.0208333333333333
144
0.0
144
0.0
144
0.0
144
0.0
144
0.0208333333333333
144
0.0
144
0.0
144
0.0
144
0.0
144
1.0
144
0.0
144
0.0
144
0.0
144
0.0
144
1.0
147
0.0208333333333333
147
0.0
147
0.0
147
0.0
147
0.0
147
0.0208333333333333
147
0.0
147
0.0
147
0.0
147
0.0
147
1.0
147
0.0
147
0.0
147
0.0
147
0.0
147
1.0
  0
MLEADERSTYLE
  5
319D
102
{ACAD_REACTORS
330
319C
102
}
330
319C
100
AcDbMLeaderStyle
170
     2
171
     1
172
     0
 90
        2
 40
0.0
 41
0.0
173
     1
 91
-1056964608
340
15
 92
       -2
290
     1
 42
2.0
291
     1
 43
0.36
  3
Standard
 44
4.0
300

342
12
174
     1
178
     6
175
     1
176
     0
 93
-1056964608
 45
4.0
292
     0
297
     0
 46
4.0
 94
-1056964608
 47
1.0
 49
1.0
140
1.0
293
     1
141
0.0
294
     1
177
     0
142
1.0
295
     0
296
     0
143
0.125
1001
ACAD_MLEADERVER
1070
     2
  0
MLINESTYLE
  5
23
102
{ACAD_REACTORS
330
21
102
}
330
21
100
AcDbMlineStyle
  2
STANDARD
 70
     0
  3

 62
   256
 51
90.0
 52
90.0
 71
     2
 49
0.5
 62
   256
  6
BYLAYER
 49
-0.5
 62
   256
  6
BYLAYER
  0
ACDBPLACEHOLDER
  5
5
102
{ACAD_REACTORS
330
6
102
}
330
6
  0
SCALE
  5
318B
102
{ACAD_REACTORS
330
318A
102
}
330
318A
100
AcDbScale
 70
     0
300
1:1
140
1.0
141
1.0
290
     1
  0
SCALE
  5
318C
102
{ACAD_REACTORS
330
318A
102
}
330
318A
100
AcDbScale
 70
     0
300
1:2
140
1.0
141
2.0
290
     0
  0
SCALE
  5
318D
102
{ACAD_REACTORS
330
318A
102
}
330
318A
100
AcDbScale
 70
     0
300
1:4
140
1.0
141
4.0
290
     0
  0
SCALE
  5
318E
102
{ACAD_REACTORS
330
318A
102
}
330
318A
100
AcDbScale
 70
     0
300
1:5
140
1.0
141
5.0
290
     0
  0
SCALE
  5
318F
102
{ACAD_REACTORS
330
318A
102
}
330
318A
100
AcDbScale
 70
     0
300
1:8
140
1.0
141
8.0
290
     0
  0
SCALE
  5
3190
102
{ACAD_REACTORS
330
318A
102
}
330
318A
100
AcDbScale
 70
     0
300
1:10
140
1.0
141
10.0
290
     0
  0
SCALE
  5
3191
102
{ACAD_REACTORS
330
318A
102
}
330
318A
100
AcDbScale
 70
     0
300
1:16
140
1.0
141
16.0
290
     0
  0
SCALE
  5
3192
102
{ACAD_REACTORS
330
318A
102
}
330
318A
100
AcDbScale
 70
     0
300
1:20
140
1.0
141
20.0
290
     0
  0
SCALE
  5
3193
102
{ACAD_REACTORS
330
318A
102
}
330
318A
100
AcDbScale
 70
     0
300
1:30
140
1.0
141
30.0
290
     0
  0
SCALE
  5
3194
102
{ACAD_REACTORS
330
318A
102
}
330
318A
100
AcDbScale
 70
     0
300
1:40
140
1.0
141
40.0
290
     0
  0
SCALE
  5
3195
102
{ACAD_REACTORS
330
318A
102
}
330
318A
100
AcDbScale
 70
     0
300
1:50
140
1.0
141
50.0
290
     0
  0
SCALE
  5
3196
102
{ACAD_REACTORS
330
318A
102
}
330
318A
100
AcDbScale
 70
     0
300
1:100
140
1.0
141
100.0
290
     0
  0
SCALE
  5
3197
102
{ACAD_REACTORS
330
318A
102
}
330
318A
100
AcDbScale
 70
     0
300
2:1
140
2.0
141
1.0
290
     0
  0
SCALE
  5
3198
102
{ACAD_REACTORS
330
318A
102
}
330
318A
100
AcDbScale
 70
     0
300
4:1
140
4.0
141
1.0
290
     0
  0
SCALE
  5
3199
102
{ACAD_REACTORS
330
318A
102
}
330
318A
100
AcDbScale
 70
     0
300
8:1
140
8.0
141
1.0
290
     0
  0
SCALE
  5
319A
102
{ACAD_REACTORS
330
318A
102
}
330
318A
100
AcDbScale
 70
     0
300
10:1
140
10.0
141
1.0
290
     0
  0
SCALE
  5
319B
102
{ACAD_REACTORS
330
318A
102
}
330
318A
100
AcDbScale
 70
     0
300
100:1
140
100.0
141
1.0
290
     0
  0
TABLESTYLE
  5
5C4
102
{ACAD_XDICTIONARY
360
329A
102
}
102
{ACAD_REACTORS
330
5C3
102
}
330
5C3
100
AcDbTableStyle
  3
Standard
 70
     0
 71
     0
 40
1.5
 41
1.5
280
     0
281
     0
  7
Standard
140
4.5
170
     2
 62
     0
 63
     7
283
     0
274
    -2
284
     1
 64
     0
275
    -2
285
     1
 65
     0
276
    -2
286
     1
 66
     0
277
    -2
287
     1
 67
     0
278
    -2
288
     1
 68
     0
279
    -2
289
     1
 69
     0
  7
Standard
140
6.0
170
     5
 62
     0
 63
     7
283
     0
274
    -2
284
     1
 64
     0
275
    -2
285
     1
 65
     0
276
    -2
286
     1
 66
     0
277
    -2
287
     1
 67
     0
278
    -2
288
     1
 68
     0
279
    -2
289
     1
 69
     0
  7
Standard
140
4.5
170
     5
 62
     0
 63
     7
283
     0
274
    -2
284
     1
 64
     0
275
    -2
285
     1
 65
     0
276
    -2
286
     1
 66
     0
277
    -2
287
     1
 67
     0
278
    -2
288
     1
 68
     0
279
    -2
289
     1
 69
     0
  0
VISUALSTYLE
  5
317C
102
{ACAD_XDICTIONARY
360
32AB
102
}
102
{ACAD_REACTORS
330
3176
102
}
330
3176
100
AcDbVisualStyle
  2
2dWireframe
 70
     4
 71
     0
 72
     2
 73
     0
 90
        0
 40
-0.6
 41
-30.0
 62
     5
 63
     7
421
 16777215
 74
     1
 91
        4
 64
     7
 65
   257
 75
     1
175
     1
 42
1.0
 92
        0
 66
   257
 43
1.0
 76
     1
 77
     6
 78
     2
 67
     7
 79
     5
170
     0
171
     0
290
     0
174
     0
 93
        1
 44
0.0
173
     0
291
     0
 45
0.0
1001
ACAD
1000
AcDbSavedByObjectVersion
1070
     0
1000
AcDbSavedByObjectVersion
1070
     0
  0
VISUALSTYLE
  5
317E
102
{ACAD_XDICTIONARY
360
32AF
102
}
102
{ACAD_REACTORS
330
3176
102
}
330
3176
100
AcDbVisualStyle
  2
3D Hidden
 70
     6
 71
     1
 72
     2
 73
     2
 90
        0
 40
-0.6
 41
-30.0
 62
     5
 63
     7
421
 16777215
 74
     2
 91
        2
 64
     7
 65
   257
 75
     2
175
     1
 42
179.0
 92
        0
 66
   257
 43
1.0
 76
     1
 77
     6
 78
     2
 67
     7
 79
     3
170
     0
171
     0
290
     0
174
     0
 93
        1
 44
0.0
173
     0
291
     0
 45
0.0
1001
ACAD
1000
AcDbSavedByObjectVersion
1070
     0
1000
AcDbSavedByObjectVersion
1070
     0
  0
VISUALSTYLE
  5
317D
102
{ACAD_XDICTIONARY
360
32AD
102
}
102
{ACAD_REACTORS
330
3176
102
}
330
3176
100
AcDbVisualStyle
  2
3dWireframe
 70
     5
 71
     0
 72
     2
 73
     0
 90
        0
 40
-0.6
 41
-30.0
 62
     5
 63
     7
421
 16777215
 74
     1
 91
        4
 64
     7
 65
   257
 75
     1
175
     1
 42
1.0
 92
        0
 66
   257
 43
1.0
 76
     1
 77
     6
 78
     2
 67
     7
 79
     5
170
     0
171
     0
290
     0
174
     0
 93
        1
 44
0.0
173
     0
291
     0
 45
0.0
1001
ACAD
1000
AcDbSavedByObjectVersion
1070
     0
1000
AcDbSavedByObjectVersion
1070
     0
  0
VISUALSTYLE
  5
317B
102
{ACAD_XDICTIONARY
360
32A9
102
}
102
{ACAD_REACTORS
330
3176
102
}
330
3176
100
AcDbVisualStyle
  2
Basic
 70
     7
 71
     1
 72
     0
 73
     1
 90
        0
 40
-0.6
 41
-30.0
 62
     5
 63
     7
421
 16777215
 74
     0
 91
        4
 64
     7
 65
   257
 75
     1
175
     1
 42
1.0
 92
        8
 66
     7
 43
1.0
 76
     1
 77
     6
 78
     2
 67
     7
 79
     5
170
     0
171
     0
290
     0
174
     0
 93
        1
 44
0.0
173
     0
291
     1
 45
0.0
1001
ACAD
1000
AcDbSavedByObjectVersion
1070
     0
1000
AcDbSavedByObjectVersion
1070
     0
  0
VISUALSTYLE
  5
3182
102
{ACAD_XDICTIONARY
360
32B7
102
}
102
{ACAD_REACTORS
330
3176
102
}
330
3176
100
AcDbVisualStyle
  2
Brighten
 70
    12
 71
     2
 72
     2
 73
     0
 90
        0
 40
-0.6
 41
-30.0
 62
     5
 63
     7
421
 16777215
 74
     1
 91
        4
 64
     7
 65
   257
 75
     1
175
     1
 42
1.0
 92
        8
 66
     7
 43
1.0
 76
     1
 77
     6
 78
     2
 67
     7
 79
     5
170
     0
171
     0
290
     0
174
     0
 93
        1
 44
50.0
173
     0
291
     1
 45
0.0
1001
ACAD
1000
AcDbSavedByObjectVersion
1070
     0
1000
AcDbSavedByObjectVersion
1070
     0
  0
VISUALSTYLE
  5
3186
102
{ACAD_XDICTIONARY
360
32BF
102
}
102
{ACAD_REACTORS
330
3176
102
}
330
3176
100
AcDbVisualStyle
  2
ColorChange
 70
    16
 71
     2
 72
     2
 73
     3
 90
        0
 40
-0.6
 41
-30.0
 62
     5
 63
     8
421
  8421504
 74
     1
 91
        4
 64
     7
 65
   257
 75
     1
175
     1
 42
1.0
 92
        8
 66
     8
424
  8421504
 43
1.0
 76
     1
 77
     6
 78
     2
 67
     7
 79
     5
170
     0
171
     0
290
     0
174
     0
 93
        1
 44
0.0
173
     0
291
     1
 45
0.0
1001
ACAD
1000
AcDbSavedByObjectVersion
1070
     0
1000
AcDbSavedByObjectVersion
1070
     0
  0
VISUALSTYLE
  5
317F
102
{ACAD_XDICTIONARY
360
32B1
102
}
102
{ACAD_REACTORS
330
3176
102
}
330
3176
100
AcDbVisualStyle
  2
Conceptual
 70
     9
 71
     3
 72
     2
 73
     0
 90
        0
 40
-0.6
 41
-30.0
 62
     5
 63
     7
421
 16777215
 74
     2
 91
        2
 64
     7
 65
   257
 75
     1
175
     1
 42
179.0
 92
        8
 66
     7
 43
1.0
 76
     1
 77
     6
 78
     2
 67
     7
 79
     3
170
     0
171
     0
290
     0
174
     0
 93
        1
 44
0.0
173
     0
291
     0
 45
0.0
1001
ACAD
1000
AcDbSavedByObjectVersion
1070
     0
1000
AcDbSavedByObjectVersion
1070
     0
  0
VISUALSTYLE
  5
3181
102
{ACAD_XDICTIONARY
360
32B5
102
}
102
{ACAD_REACTORS
330
3176
102
}
330
3176
100
AcDbVisualStyle
  2
Dim
 70
    11
 71
     2
 72
     2
 73
     0
 90
        0
 40
-0.6
 41
-30.0
 62
     5
 63
     7
421
 16777215
 74
     1
 91
        4
 64
     7
 65
   257
 75
     1
175
     1
 42
1.0
 92
        8
 66
     7
 43
1.0
 76
     1
 77
     6
 78
     2
 67
     7
 79
     5
170
     0
171
     0
290
     0
174
     0
 93
        1
 44
-50.0
173
     0
291
     1
 45
0.0
1001
ACAD
1000
AcDbSavedByObjectVersion
1070
     0
1000
AcDbSavedByObjectVersion
1070
     0
  0
VISUALSTYLE
  5
3189
102
{ACAD_XDICTIONARY
360
32C5
102
}
102
{ACAD_REACTORS
330
3176
102
}
330
3176
100
AcDbVisualStyle
  2
EdgeColorOff
 70
    22
 71
     2
 72
     2
 73
     0
 90
        0
 40
-0.6
 41
-30.0
 62
     5
 63
     7
421
 16777215
 74
     1
 91
        4
 64
     7
 65
   257
 75
     1
175
     1
 42
1.0
 92
        8
 66
     7
 43
1.0
 76
     1
 77
     6
 78
     2
 67
     7
 79
     5
170
     0
171
     0
290
     0
174
     0
 93
        1
 44
0.0
173
     0
291
     1
 45
0.0
1001
ACAD
1000
AcDbSavedByObjectVersion
1070
     0
1000
AcDbSavedByObjectVersion
1070
     0
  0
VISUALSTYLE
  5
3185
102
{ACAD_XDICTIONARY
360
32BD
102
}
102
{ACAD_REACTORS
330
3176
102
}
330
3176
100
AcDbVisualStyle
  2
Facepattern
 70
    15
 71
     2
 72
     2
 73
     0
 90
        0
 40
-0.6
 41
-30.0
 62
     5
 63
     7
421
 16777215
 74
     1
 91
        4
 64
     7
 65
   257
 75
     1
175
     1
 42
1.0
 92
        8
 66
     7
 43
1.0
 76
     1
 77
     6
 78
     2
 67
     7
 79
     5
170
     0
171
     0
290
     0
174
     0
 93
        1
 44
0.0
173
     0
291
     1
 45
0.0
1001
ACAD
1000
AcDbSavedByObjectVersion
1070
     0
1000
AcDbSavedByObjectVersion
1070
     0
  0
VISUALSTYLE
  5
3177
102
{ACAD_XDICTIONARY
360
32A1
102
}
102
{ACAD_REACTORS
330
3176
102
}
330
3176
100
AcDbVisualStyle
  2
Flat
 70
     0
 71
     2
 72
     1
 73
     1
 90
        2
 40
-0.6
 41
30.0
 62
     5
 63
     7
421
 16777215
 74
     0
 91
        4
 64
     7
 65
   257
 75
     1
175
     1
 42
1.0
 92
        8
 66
     7
 43
1.0
 76
     1
 77
     6
 78
     2
 67
     7
 79
     5
170
     0
171
     0
290
     0
174
     0
 93
       13
 44
0.0
173
     0
291
     1
 45
0.0
1001
ACAD
1000
AcDbSavedByObjectVersion
1070
     0
1000
AcDbSavedByObjectVersion
1070
     0
  0
VISUALSTYLE
  5
3178
102
{ACAD_XDICTIONARY
360
32A3
102
}
102
{ACAD_REACTORS
330
3176
102
}
330
3176
100
AcDbVisualStyle
  2
FlatWithEdges
 70
     1
 71
     2
 72
     1
 73
     1
 90
        2
 40
-0.6
 41
30.0
 62
     5
 63
     7
421
 16777215
 74
     1
 91
        4
 64
     7
 65
   257
 75
     1
175
     1
 42
1.0
 92
        0
 66
   257
 43
1.0
 76
     1
 77
     6
 78
     2
 67
     7
 79
     5
170
     0
171
     0
290
     0
174
     0
 93
       13
 44
0.0
173
     0
291
     1
 45
0.0
1001
ACAD
1000
AcDbSavedByObjectVersion
1070
     0
1000
AcDbSavedByObjectVersion
1070
     0
  0
VISUALSTYLE
  5
3179
102
{ACAD_XDICTIONARY
360
32A5
102
}
102
{ACAD_REACTORS
330
3176
102
}
330
3176
100
AcDbVisualStyle
  2
Gouraud
 70
     2
 71
     2
 72
     2
 73
     1
 90
        2
 40
-0.6
 41
30.0
 62
     5
 63
     7
421
 16777215
 74
     0
 91
        4
 64
     7
 65
   257
 75
     1
175
     1
 42
1.0
 92
        0
 66
     7
 43
1.0
 76
     1
 77
     6
 78
     2
 67
     7
 79
     5
170
     0
171
     0
290
     0
174
     0
 93
       13
 44
0.0
173
     0
291
     1
 45
0.0
1001
ACAD
1000
AcDbSavedByObjectVersion
1070
     0
1000
AcDbSavedByObjectVersion
1070
     0
  0
VISUALSTYLE
  5
317A
102
{ACAD_XDICTIONARY
360
32A7
102
}
102
{ACAD_REACTORS
330
3176
102
}
330
3176
100
AcDbVisualStyle
  2
GouraudWithEdges
 70
     3
 71
     2
 72
     2
 73
     1
 90
        2
 40
-0.6
 41
30.0
 62
     5
 63
     7
421
 16777215
 74
     1
 91
        4
 64
     7
 65
   257
 75
     1
175
     1
 42
1.0
 92
        0
 66
   257
 43
1.0
 76
     1
 77
     6
 78
     2
 67
     7
 79
     5
170
     0
171
     0
290
     0
174
     0
 93
       13
 44
0.0
173
     0
291
     1
 45
0.0
1001
ACAD
1000
AcDbSavedByObjectVersion
1070
     0
1000
AcDbSavedByObjectVersion
1070
     0
  0
VISUALSTYLE
  5
3187
102
{ACAD_XDICTIONARY
360
32C1
102
}
102
{ACAD_REACTORS
330
3176
102
}
330
3176
100
AcDbVisualStyle
  2
JitterOff
 70
    20
 71
     2
 72
     2
 73
     0
 90
        0
 40
-0.6
 41
-30.0
 62
     5
 63
     7
421
 16777215
 74
     1
 91
        4
 64
     7
 65
   257
 75
     1
175
     1
 42
1.0
 92
       10
 66
     7
 43
1.0
 76
     1
 77
     6
 78
     2
 67
     7
 79
     5
170
     0
171
     0
290
     0
174
     0
 93
        1
 44
0.0
173
     0
291
     1
 45
0.0
1001
ACAD
1000
AcDbSavedByObjectVersion
1070
     0
1000
AcDbSavedByObjectVersion
1070
     0
  0
VISUALSTYLE
  5
3184
102
{ACAD_XDICTIONARY
360
32BB
102
}
102
{ACAD_REACTORS
330
3176
102
}
330
3176
100
AcDbVisualStyle
  2
Linepattern
 70
    14
 71
     2
 72
     2
 73
     0
 90
        0
 40
-0.6
 41
-30.0
 62
     5
 63
     7
421
 16777215
 74
     1
 91
        4
 64
     7
 65
   257
 75
     7
175
     7
 42
1.0
 92
        8
 66
     7
 43
1.0
 76
     1
 77
     6
 78
     2
 67
     7
 79
     5
170
     0
171
     0
290
     0
174
     0
 93
        1
 44
0.0
173
     0
291
     1
 45
0.0
1001
ACAD
1000
AcDbSavedByObjectVersion
1070
     0
1000
AcDbSavedByObjectVersion
1070
     0
  0
VISUALSTYLE
  5
3188
102
{ACAD_XDICTIONARY
360
32C3
102
}
102
{ACAD_REACTORS
330
3176
102
}
330
3176
100
AcDbVisualStyle
  2
OverhangOff
 70
    21
 71
     2
 72
     2
 73
     0
 90
        0
 40
-0.6
 41
-30.0
 62
     5
 63
     7
421
 16777215
 74
     1
 91
        4
 64
     7
 65
   257
 75
     1
175
     1
 42
1.0
 92
        9
 66
     7
 43
1.0
 76
     1
 77
     6
 78
     2
 67
     7
 79
     5
170
     0
171
     0
290
     0
174
     0
 93
        1
 44
0.0
173
     0
291
     1
 45
0.0
1001
ACAD
1000
AcDbSavedByObjectVersion
1070
     0
1000
AcDbSavedByObjectVersion
1070
     0
  0
VISUALSTYLE
  5
3180
102
{ACAD_XDICTIONARY
360
32B3
102
}
102
{ACAD_REACTORS
330
3176
102
}
330
3176
100
AcDbVisualStyle
  2
Realistic
 70
     8
 71
     2
 72
     2
 73
     0
 90
        0
 40
-0.6
 41
-30.0
 62
     5
 63
     7
421
 16777215
 74
     1
 91
        0
 64
     7
 65
   257
 75
     1
175
     1
 42
1.0
 92
        8
 66
     8
424
  7895160
 43
1.0
 76
     1
 77
     6
 78
     2
 67
     7
 79
     5
170
     0
171
     0
290
     0
174
     0
 93
       13
 44
0.0
173
     0
291
     0
 45
0.0
1001
ACAD
1000
AcDbSavedByObjectVersion
1070
     0
1000
AcDbSavedByObjectVersion
1070
     0
  0
VISUALSTYLE
  5
3183
102
{ACAD_XDICTIONARY
360
32B9
102
}
102
{ACAD_REACTORS
330
3176
102
}
330
3176
100
AcDbVisualStyle
  2
Thicken
 70
    13
 71
     2
 72
     2
 73
     0
 90
        0
 40
-0.6
 41
-30.0
 62
     5
 63
     7
421
 16777215
 74
     1
 91
        4
 64
     7
 65
   257
 75
     1
175
     1
 42
1.0
 92
       12
 66
     7
 43
1.0
 76
     1
 77
     6
 78
     2
 67
     7
 79
     5
170
     0
171
     0
290
     0
174
     0
 93
        1
 44
0.0
173
     0
291
     1
 45
0.0
1001
ACAD
1000
AcDbSavedByObjectVersion
1070
     0
1000
AcDbSavedByObjectVersion
1070
     0
  0
DICTIONARYVAR
  5
326B
102
{ACAD_REACTORS
330
81
102
}
330
81
100
DictionaryVariables
280
     0
  1
1:1
  0
DICTIONARYVAR
  5
326A
102
{ACAD_REACTORS
330
81
102
}
330
81
100
DictionaryVariables
280
     0
  1
STANDARD
  0
DICTIONARYVAR
  5
5EE
102
{ACAD_REACTORS
330
81
102
}
330
81
100
DictionaryVariables
280
     0
  1
STANDARD
  0
DICTIONARYVAR
  5
82
102
{ACAD_REACTORS
330
81
102
}
330
81
100
DictionaryVariables
280
     0
  1
1
  0
DICTIONARYVAR
  5
3137
102
{ACAD_REACTORS
330
81
102
}
330
81
100
DictionaryVariables
280
     0
  1

  0
DICTIONARY
  5
3167
330
3166
100
AcDbDictionary
280
     1
281
     1
  3
ACAD_XREC_ROUNDTRIP
360
329F
  3
BUMPTILE
360
3169
  3
DIFFUSETILE
360
3168
  3
OPACITYTILE
360
316C
  3
REFLECTIONTILE
360
316B
  3
REFRACTIONTILE
360
316D
  3
SPECULARTILE
360
316A
  0
DICTIONARY
  5
315F
330
315E
100
AcDbDictionary
280
     1
281
     1
  3
ACAD_XREC_ROUNDTRIP
360
329E
  3
BUMPTILE
360
3161
  3
DIFFUSETILE
360
3160
  3
OPACITYTILE
360
3164
  3
REFLECTIONTILE
360
3163
  3
REFRACTIONTILE
360
3165
  3
SPECULARTILE
360
3162
  0
DICTIONARY
  5
316F
330
316E
100
AcDbDictionary
280
     1
281
     1
  3
ACAD_XREC_ROUNDTRIP
360
32A0
  3
BUMPTILE
360
3171
  3
DIFFUSETILE
360
3170
  3
OPACITYTILE
360
3174
  3
REFLECTIONTILE
360
3173
  3
REFRACTIONTILE
360
3175
  3
SPECULARTILE
360
3172
  0
DICTIONARY
  5
329A
330
5C4
100
AcDbDictionary
280
     1
281
     1
  3
ACAD_ROUNDTRIP_2008_TABLESTYLE_CELLSTYLEMAP
360
329B
  3
ACAD_XREC_ROUNDTRIP
360
3447
  0
DICTIONARY
  5
32AB
330
317C
100
AcDbDictionary
280
     1
281
     1
  3
ACAD_XREC_ROUNDTRIP
360
32AC
  0
DICTIONARY
  5
32AF
330
317E
100
AcDbDictionary
280
     1
281
     1
  3
ACAD_XREC_ROUNDTRIP
360
32B0
  0
DICTIONARY
  5
32AD
330
317D
100
AcDbDictionary
280
     1
281
     1
  3
ACAD_XREC_ROUNDTRIP
360
32AE
  0
DICTIONARY
  5
32A9
330
317B
100
AcDbDictionary
280
     1
281
     1
  3
ACAD_XREC_ROUNDTRIP
360
32AA
  0
DICTIONARY
  5
32B7
330
3182
100
AcDbDictionary
280
     1
281
     1
  3
ACAD_XREC_ROUNDTRIP
360
32B8
  0
DICTIONARY
  5
32BF
330
3186
100
AcDbDictionary
280
     1
281
     1
  3
ACAD_XREC_ROUNDTRIP
360
32C0
  0
DICTIONARY
  5
32B1
330
317F
100
AcDbDictionary
280
     1
281
     1
  3
ACAD_XREC_ROUNDTRIP
360
32B2
  0
DICTIONARY
  5
32B5
330
3181
100
AcDbDictionary
280
     1
281
     1
  3
ACAD_XREC_ROUNDTRIP
360
32B6
  0
DICTIONARY
  5
32C5
330
3189
100
AcDbDictionary
280
     1
281
     1
  3
ACAD_XREC_ROUNDTRIP
360
32C6
  0
DICTIONARY
  5
32BD
330
3185
100
AcDbDictionary
280
     1
281
     1
  3
ACAD_XREC_ROUNDTRIP
360
32BE
  0
DICTIONARY
  5
32A1
330
3177
100
AcDbDictionary
280
     1
281
     1
  3
ACAD_XREC_ROUNDTRIP
360
32A2
  0
DICTIONARY
  5
32A3
330
3178
100
AcDbDictionary
280
     1
281
     1
  3
ACAD_XREC_ROUNDTRIP
360
32A4
  0
DICTIONARY
  5
32A5
330
3179
100
AcDbDictionary
280
     1
281
     1
  3
ACAD_XREC_ROUNDTRIP
360
32A6
  0
DICTIONARY
  5
32A7
330
317A
100
AcDbDictionary
280
     1
281
     1
  3
ACAD_XREC_ROUNDTRIP
360
32A8
  0
DICTIONARY
  5
32C1
330
3187
100
AcDbDictionary
280
     1
281
     1
  3
ACAD_XREC_ROUNDTRIP
360
32C2
  0
DICTIONARY
  5
32BB
330
3184
100
AcDbDictionary
280
     1
281
     1
  3
ACAD_XREC_ROUNDTRIP
360
32BC
  0
DICTIONARY
  5
32C3
330
3188
100
AcDbDictionary
280
     1
281
     1
  3
ACAD_XREC_ROUNDTRIP
360
32C4
  0
DICTIONARY
  5
32B3
330
3180
100
AcDbDictionary
280
     1
281
     1
  3
ACAD_XREC_ROUNDTRIP
360
32B4
  0
DICTIONARY
  5
32B9
330
3183
100
AcDbDictionary
280
     1
281
     1
  3
ACAD_XREC_ROUNDTRIP
360
32BA
  0
XRECORD
  5
329F
102
{ACAD_REACTORS
330
3167
102
}
330
3167
100
AcDbXrecord
280
     1
102
MATERIAL
148
0.0
149
0.0
149
0.0
 93
        0
 94
       63
282
     0
 72
     0
 77
     0
171
     0
175
     0
179
     0
273
     0
  0
XRECORD
  5
3169
102
{ACAD_REACTORS
330
3167
102
}
330
3167
100
AcDbXrecord
280
     1
270
     1
271
     1
  0
XRECORD
  5
3168
102
{ACAD_REACTORS
330
3167
102
}
330
3167
100
AcDbXrecord
280
     1
270
     1
271
     1
  0
XRECORD
  5
316C
102
{ACAD_REACTORS
330
3167
102
}
330
3167
100
AcDbXrecord
280
     1
270
     1
271
     1
  0
XRECORD
  5
316B
102
{ACAD_REACTORS
330
3167
102
}
330
3167
100
AcDbXrecord
280
     1
270
     1
271
     1
  0
XRECORD
  5
316D
102
{ACAD_REACTORS
330
3167
102
}
330
3167
100
AcDbXrecord
280
     1
270
     1
271
     1
  0
XRECORD
  5
316A
102
{ACAD_REACTORS
330
3167
102
}
330
3167
100
AcDbXrecord
280
     1
270
     1
271
     1
  0
XRECORD
  5
329E
102
{ACAD_REACTORS
330
315F
102
}
330
315F
100
AcDbXrecord
280
     1
102
MATERIAL
148
0.0
149
0.0
149
0.0
 93
        0
 94
       63
282
     0
 72
     0
 77
     0
171
     0
175
     0
179
     0
273
     0
  0
XRECORD
  5
3161
102
{ACAD_REACTORS
330
315F
102
}
330
315F
100
AcDbXrecord
280
     1
270
     1
271
     1
  0
XRECORD
  5
3160
102
{ACAD_REACTORS
330
315F
102
}
330
315F
100
AcDbXrecord
280
     1
270
     1
271
     1
  0
XRECORD
  5
3164
102
{ACAD_REACTORS
330
315F
102
}
330
315F
100
AcDbXrecord
280
     1
270
     1
271
     1
  0
XRECORD
  5
3163
102
{ACAD_REACTORS
330
315F
102
}
330
315F
100
AcDbXrecord
280
     1
270
     1
271
     1
  0
XRECORD
  5
3165
102
{ACAD_REACTORS
330
315F
102
}
330
315F
100
AcDbXrecord
280
     1
270
     1
271
     1
  0
XRECORD
  5
3162
102
{ACAD_REACTORS
330
315F
102
}
330
315F
100
AcDbXrecord
280
     1
270
     1
271
     1
  0
XRECORD
  5
32A0
102
{ACAD_REACTORS
330
316F
102
}
330
316F
100
AcDbXrecord
280
     1
102
MATERIAL
148
0.0
149
0.0
149
0.0
 93
        0
 94
       63
282
     0
 72
     0
 77
     0
171
     0
175
     0
179
     0
273
     0
  0
XRECORD
  5
3171
102
{ACAD_REACTORS
330
316F
102
}
330
316F
100
AcDbXrecord
280
     1
270
     1
271
     1
  0
XRECORD
  5
3170
102
{ACAD_REACTORS
330
316F
102
}
330
316F
100
AcDbXrecord
280
     1
270
     1
271
     1
  0
XRECORD
  5
3174
102
{ACAD_REACTORS
330
316F
102
}
330
316F
100
AcDbXrecord
280
     1
270
     1
271
     1
  0
XRECORD
  5
3173
102
{ACAD_REACTORS
330
316F
102
}
330
316F
100
AcDbXrecord
280
     1
270
     1
271
     1
  0
XRECORD
  5
3175
102
{ACAD_REACTORS
330
316F
102
}
330
316F
100
AcDbXrecord
280
     1
270
     1
271
     1
  0
XRECORD
  5
3172
102
{ACAD_REACTORS
330
316F
102
}
330
316F
100
AcDbXrecord
280
     1
270
     1
271
     1
  0
CELLSTYLEMAP
  5
329B
102
{ACAD_REACTORS
330
329A
102
}
330
329A
100
AcDbCellStyleMap
 90
        3
300
CELLSTYLE
  1
TABLEFORMAT_BEGIN
 90
        5
170
     1
 91
        0
 92
    32768
 62
   257
 93
        1
300
CONTENTFORMAT
  1
CONTENTFORMAT_BEGIN
 90
        0
 91
        0
 92
        4
 93
        0
300

 40
0.0
140
1.0
 94
        5
 62
     0
340
12
144
6.0
309
CONTENTFORMAT_END
171
     1
301
MARGIN
  1
CELLMARGIN_BEGIN
 40
1.5
 40
1.5
 40
1.5
 40
1.5
 40
0.18
 40
0.18
309
CELLMARGIN_END
 94
        6
 95
        1
302
GRIDFORMAT
  1
GRIDFORMAT_BEGIN
 90
        0
 91
        1
 62
     0
 92
       -2
340
0
 93
        0
 40
0.045
309
GRIDFORMAT_END
 95
        2
302
GRIDFORMAT
  1
GRIDFORMAT_BEGIN
 90
        0
 91
        1
 62
     0
 92
       -2
340
0
 93
        0
 40
0.045
309
GRIDFORMAT_END
 95
        4
302
GRIDFORMAT
  1
GRIDFORMAT_BEGIN
 90
        0
 91
        1
 62
     0
 92
       -2
340
0
 93
        0
 40
0.045
309
GRIDFORMAT_END
 95
        8
302
GRIDFORMAT
  1
GRIDFORMAT_BEGIN
 90
        0
 91
        1
 62
     0
 92
       -2
340
0
 93
        0
 40
0.045
309
GRIDFORMAT_END
 95
       16
302
GRIDFORMAT
  1
GRIDFORMAT_BEGIN
 90
        0
 91
        1
 62
     0
 92
       -2
340
0
 93
        0
 40
0.045
309
GRIDFORMAT_END
 95
       32
302
GRIDFORMAT
  1
GRIDFORMAT_BEGIN
 90
        0
 91
        1
 62
     0
 92
       -2
340
0
 93
        0
 40
0.045
309
GRIDFORMAT_END
309
TABLEFORMAT_END
  1
CELLSTYLE_BEGIN
 90
        1
 91
        1
300
_TITLE
309
CELLSTYLE_END
300
CELLSTYLE
  1
TABLEFORMAT_BEGIN
 90
        5
170
     1
 91
        0
 92
        0
 62
   257
 93
        1
300
CONTENTFORMAT
  1
CONTENTFORMAT_BEGIN
 90
        0
 91
        0
 92
        4
 93
        0
300

 40
0.0
140
1.0
 94
        5
 62
     0
340
12
144
4.5
309
CONTENTFORMAT_END
171
     1
301
MARGIN
  1
CELLMARGIN_BEGIN
 40
1.5
 40
1.5
 40
1.5
 40
1.5
 40
0.18
 40
0.18
309
CELLMARGIN_END
 94
        6
 95
        1
302
GRIDFORMAT
  1
GRIDFORMAT_BEGIN
 90
        0
 91
        1
 62
     0
 92
       -2
340
0
 93
        0
 40
0.045
309
GRIDFORMAT_END
 95
        2
302
GRIDFORMAT
  1
GRIDFORMAT_BEGIN
 90
        0
 91
        1
 62
     0
 92
       -2
340
0
 93
        0
 40
0.045
309
GRIDFORMAT_END
 95
        4
302
GRIDFORMAT
  1
GRIDFORMAT_BEGIN
 90
        0
 91
        1
 62
     0
 92
       -2
340
0
 93
        0
 40
0.045
309
GRIDFORMAT_END
 95
        8
302
GRIDFORMAT
  1
GRIDFORMAT_BEGIN
 90
        0
 91
        1
 62
     0
 92
       -2
340
0
 93
        0
 40
0.045
309
GRIDFORMAT_END
 95
       16
302
GRIDFORMAT
  1
GRIDFORMAT_BEGIN
 90
        0
 91
        1
 62
     0
 92
       -2
340
0
 93
        0
 40
0.045
309
GRIDFORMAT_END
 95
       32
302
GRIDFORMAT
  1
GRIDFORMAT_BEGIN
 90
        0
 91
        1
 62
     0
 92
       -2
340
0
 93
        0
 40
0.045
309
GRIDFORMAT_END
309
TABLEFORMAT_END
  1
CELLSTYLE_BEGIN
 90
        2
 91
        1
300
_HEADER
309
CELLSTYLE_END
300
CELLSTYLE
  1
TABLEFORMAT_BEGIN
 90
        5
170
     1
 91
        0
 92
        0
 62
   257
 93
        1
300
CONTENTFORMAT
  1
CONTENTFORMAT_BEGIN
 90
        0
 91
        0
 92
        4
 93
        0
300

 40
0.0
140
1.0
 94
        2
 62
     0
340
12
144
4.5
309
CONTENTFORMAT_END
171
     1
301
MARGIN
  1
CELLMARGIN_BEGIN
 40
1.5
 40
1.5
 40
1.5
 40
1.5
 40
0.18
 40
0.18
309
CELLMARGIN_END
 94
        6
 95
        1
302
GRIDFORMAT
  1
GRIDFORMAT_BEGIN
 90
        0
 91
        1
 62
     0
 92
       -2
340
0
 93
        0
 40
0.045
309
GRIDFORMAT_END
 95
        2
302
GRIDFORMAT
  1
GRIDFORMAT_BEGIN
 90
        0
 91
        1
 62
     0
 92
       -2
340
0
 93
        0
 40
0.045
309
GRIDFORMAT_END
 95
        4
302
GRIDFORMAT
  1
GRIDFORMAT_BEGIN
 90
        0
 91
        1
 62
     0
 92
       -2
340
0
 93
        0
 40
0.045
309
GRIDFORMAT_END
 95
        8
302
GRIDFORMAT
  1
GRIDFORMAT_BEGIN
 90
        0
 91
        1
 62
     0
 92
       -2
340
0
 93
        0
 40
0.045
309
GRIDFORMAT_END
 95
       16
302
GRIDFORMAT
  1
GRIDFORMAT_BEGIN
 90
        0
 91
        1
 62
     0
 92
       -2
340
0
 93
        0
 40
0.045
309
GRIDFORMAT_END
 95
       32
302
GRIDFORMAT
  1
GRIDFORMAT_BEGIN
 90
        0
 91
        1
 62
     0
 92
       -2
340
0
 93
        0
 40
0.045
309
GRIDFORMAT_END
309
TABLEFORMAT_END
  1
CELLSTYLE_BEGIN
 90
        3
 91
        2
300
_DATA
309
CELLSTYLE_END
  0
XRECORD
  5
3447
102
{ACAD_REACTORS
330
329A
102
}
330
329A
100
AcDbXrecord
280
     1
102
ACAD_ROUNDTRIP_PRE2007_TABLESTYLE
 90
        4
 91
        0
  1

 92
        4
 93
        0
  2

 94
        4
 95
        0
  3

  0
XRECORD
  5
32AC
102
{ACAD_REACTORS
330
32AB
102
}
330
32AB
100
AcDbXrecord
280
     1
102
RTVSPropertyOp0
 70
     1
102
RTVSPropertyOp1
 70
     1
102
RTVSPropertyOp2
 70
     1
102
RTVSPropertyOp3
 70
     1
102
RTVSPropertyOp4
 70
     1
102
RTVSPropertyOp5
 70
     1
102
RTVSPropertyOp6
 70
     1
102
RTVSPropertyOp7
 70
     1
102
RTVSPropertyOp8
 70
     1
102
RTVSPropertyOp9
 70
     1
102
RTVSPropertyOp10
 70
     1
102
RTVSPropertyOp11
 70
     1
102
RTVSPropertyOp12
 70
     1
102
RTVSPropertyOp13
 70
     1
102
RTVSPropertyOp14
 70
     1
102
RTVSPropertyOp15
 70
     1
102
RTVSPropertyOp16
 70
     1
102
RTVSPropertyOp17
 70
     1
102
RTVSPropertyOp18
 70
     1
102
RTVSPropertyOp19
 70
     1
102
RTVSPropertyOp20
 70
     1
102
RTVSPropertyOp21
 70
     1
102
RTVSPropertyOp22
 70
     1
102
RTVSPropertyOp23
 70
     1
102
RTVSPropertyOp24
 70
     1
102
RTVSPropertyOp25
 70
     1
102
RTVSPropertyOp26
 70
     1
102
RTVSPropertyOp27
 70
     1
  0
XRECORD
  5
32B0
102
{ACAD_REACTORS
330
32AF
102
}
330
32AF
100
AcDbXrecord
280
     1
102
RTVSPropertyOp0
 70
     1
102
RTVSPropertyOp1
 70
     1
102
RTVSPropertyOp2
 70
     1
102
RTVSPropertyOp3
 70
     1
102
RTVSPropertyOp4
 70
     1
102
RTVSPropertyOp5
 70
     1
102
RTVSPropertyOp6
 70
     1
102
RTVSPropertyOp7
 70
     1
102
RTVSPropertyOp8
 70
     1
102
RTVSPropertyOp9
 70
     1
102
RTVSPropertyOp10
 70
     1
102
RTVSPropertyOp11
 70
     1
102
RTVSPropertyOp12
 70
     1
102
RTVSPropertyOp13
 70
     1
102
RTVSPropertyOp14
 70
     1
102
RTVSPropertyOp15
 70
     1
102
RTVSPropertyOp16
 70
     1
102
RTVSPropertyOp17
 70
     1
102
RTVSPropertyOp18
 70
     1
102
RTVSPropertyOp19
 70
     1
102
RTVSPropertyOp20
 70
     1
102
RTVSPropertyOp21
 70
     1
102
RTVSPropertyOp22
 70
     1
102
RTVSPropertyOp23
 70
     1
102
RTVSPropertyOp24
 70
     1
102
RTVSPropertyOp25
 70
     1
102
RTVSPropertyOp26
 70
     1
102
RTVSPropertyOp27
 70
     1
  0
XRECORD
  5
32AE
102
{ACAD_REACTORS
330
32AD
102
}
330
32AD
100
AcDbXrecord
280
     1
102
RTVSPropertyOp0
 70
     1
102
RTVSPropertyOp1
 70
     1
102
RTVSPropertyOp2
 70
     1
102
RTVSPropertyOp3
 70
     1
102
RTVSPropertyOp4
 70
     1
102
RTVSPropertyOp5
 70
     1
102
RTVSPropertyOp6
 70
     1
102
RTVSPropertyOp7
 70
     1
102
RTVSPropertyOp8
 70
     1
102
RTVSPropertyOp9
 70
     1
102
RTVSPropertyOp10
 70
     1
102
RTVSPropertyOp11
 70
     1
102
RTVSPropertyOp12
 70
     1
102
RTVSPropertyOp13
 70
     1
102
RTVSPropertyOp14
 70
     1
102
RTVSPropertyOp15
 70
     1
102
RTVSPropertyOp16
 70
     1
102
RTVSPropertyOp17
 70
     1
102
RTVSPropertyOp18
 70
     1
102
RTVSPropertyOp19
 70
     1
102
RTVSPropertyOp20
 70
     1
102
RTVSPropertyOp21
 70
     1
102
RTVSPropertyOp22
 70
     1
102
RTVSPropertyOp23
 70
     1
102
RTVSPropertyOp24
 70
     1
102
RTVSPropertyOp25
 70
     1
102
RTVSPropertyOp26
 70
     1
102
RTVSPropertyOp27
 70
     1
  0
XRECORD
  5
32AA
102
{ACAD_REACTORS
330
32A9
102
}
330
32A9
100
AcDbXrecord
280
     1
102
RTVSPropertyOp0
 70
     1
102
RTVSPropertyOp1
 70
     1
102
RTVSPropertyOp2
 70
     1
102
RTVSPropertyOp3
 70
     1
102
RTVSPropertyOp4
 70
     1
102
RTVSPropertyOp5
 70
     1
102
RTVSPropertyOp6
 70
     1
102
RTVSPropertyOp7
 70
     1
102
RTVSPropertyOp8
 70
     1
102
RTVSPropertyOp9
 70
     1
102
RTVSPropertyOp10
 70
     1
102
RTVSPropertyOp11
 70
     1
102
RTVSPropertyOp12
 70
     1
102
RTVSPropertyOp13
 70
     1
102
RTVSPropertyOp14
 70
     1
102
RTVSPropertyOp15
 70
     1
102
RTVSPropertyOp16
 70
     1
102
RTVSPropertyOp17
 70
     1
102
RTVSPropertyOp18
 70
     1
102
RTVSPropertyOp19
 70
     1
102
RTVSPropertyOp20
 70
     1
102
RTVSPropertyOp21
 70
     1
102
RTVSPropertyOp22
 70
     1
102
RTVSPropertyOp23
 70
     1
102
RTVSPropertyOp24
 70
     1
102
RTVSPropertyOp25
 70
     1
102
RTVSPropertyOp26
 70
     1
102
RTVSPropertyOp27
 70
     1
  0
XRECORD
  5
32B8
102
{ACAD_REACTORS
330
32B7
102
}
330
32B7
100
AcDbXrecord
280
     1
102
RTVSPropertyOp0
 70
     1
102
RTVSPropertyOp1
 70
     1
102
RTVSPropertyOp2
 70
     1
102
RTVSPropertyOp3
 70
     1
102
RTVSPropertyOp4
 70
     1
102
RTVSPropertyOp5
 70
     1
102
RTVSPropertyOp6
 70
     1
102
RTVSPropertyOp7
 70
     1
102
RTVSPropertyOp8
 70
     1
102
RTVSPropertyOp9
 70
     1
102
RTVSPropertyOp10
 70
     1
102
RTVSPropertyOp11
 70
     1
102
RTVSPropertyOp12
 70
     1
102
RTVSPropertyOp13
 70
     1
102
RTVSPropertyOp14
 70
     1
102
RTVSPropertyOp15
 70
     1
102
RTVSPropertyOp16
 70
     1
102
RTVSPropertyOp17
 70
     1
102
RTVSPropertyOp18
 70
     1
102
RTVSPropertyOp19
 70
     1
102
RTVSPropertyOp20
 70
     1
102
RTVSPropertyOp21
 70
     1
102
RTVSPropertyOp22
 70
     1
102
RTVSPropertyOp23
 70
     1
102
RTVSPropertyOp24
 70
     1
102
RTVSPropertyOp25
 70
     1
102
RTVSPropertyOp26
 70
     1
102
RTVSPropertyOp27
 70
     1
  0
XRECORD
  5
32C0
102
{ACAD_REACTORS
330
32BF
102
}
330
32BF
100
AcDbXrecord
280
     1
102
RTVSPropertyOp0
 70
     1
102
RTVSPropertyOp1
 70
     1
102
RTVSPropertyOp2
 70
     1
102
RTVSPropertyOp3
 70
     1
102
RTVSPropertyOp4
 70
     1
102
RTVSPropertyOp5
 70
     1
102
RTVSPropertyOp6
 70
     1
102
RTVSPropertyOp7
 70
     1
102
RTVSPropertyOp8
 70
     1
102
RTVSPropertyOp9
 70
     1
102
RTVSPropertyOp10
 70
     1
102
RTVSPropertyOp11
 70
     1
102
RTVSPropertyOp12
 70
     1
102
RTVSPropertyOp13
 70
     1
102
RTVSPropertyOp14
 70
     1
102
RTVSPropertyOp15
 70
     1
102
RTVSPropertyOp16
 70
     1
102
RTVSPropertyOp17
 70
     1
102
RTVSPropertyOp18
 70
     1
102
RTVSPropertyOp19
 70
     1
102
RTVSPropertyOp20
 70
     1
102
RTVSPropertyOp21
 70
     1
102
RTVSPropertyOp22
 70
     1
102
RTVSPropertyOp23
 70
     1
102
RTVSPropertyOp24
 70
     1
102
RTVSPropertyOp25
 70
     1
102
RTVSPropertyOp26
 70
     1
102
RTVSPropertyOp27
 70
     1
  0
XRECORD
  5
32B2
102
{ACAD_REACTORS
330
32B1
102
}
330
32B1
100
AcDbXrecord
280
     1
102
RTVSPropertyOp0
 70
     1
102
RTVSPropertyOp1
 70
     1
102
RTVSPropertyOp2
 70
     1
102
RTVSPropertyOp3
 70
     1
102
RTVSPropertyOp4
 70
     1
102
RTVSPropertyOp5
 70
     1
102
RTVSPropertyOp6
 70
     1
102
RTVSPropertyOp7
 70
     1
102
RTVSPropertyOp8
 70
     1
102
RTVSPropertyOp9
 70
     1
102
RTVSPropertyOp10
 70
     1
102
RTVSPropertyOp11
 70
     1
102
RTVSPropertyOp12
 70
     1
102
RTVSPropertyOp13
 70
     1
102
RTVSPropertyOp14
 70
     1
102
RTVSPropertyOp15
 70
     1
102
RTVSPropertyOp16
 70
     1
102
RTVSPropertyOp17
 70
     1
102
RTVSPropertyOp18
 70
     1
102
RTVSPropertyOp19
 70
     1
102
RTVSPropertyOp20
 70
     1
102
RTVSPropertyOp21
 70
     1
102
RTVSPropertyOp22
 70
     1
102
RTVSPropertyOp23
 70
     1
102
RTVSPropertyOp24
 70
     1
102
RTVSPropertyOp25
 70
     1
102
RTVSPropertyOp26
 70
     1
102
RTVSPropertyOp27
 70
     1
  0
XRECORD
  5
32B6
102
{ACAD_REACTORS
330
32B5
102
}
330
32B5
100
AcDbXrecord
280
     1
102
RTVSPropertyOp0
 70
     1
102
RTVSPropertyOp1
 70
     1
102
RTVSPropertyOp2
 70
     1
102
RTVSPropertyOp3
 70
     1
102
RTVSPropertyOp4
 70
     1
102
RTVSPropertyOp5
 70
     1
102
RTVSPropertyOp6
 70
     1
102
RTVSPropertyOp7
 70
     1
102
RTVSPropertyOp8
 70
     1
102
RTVSPropertyOp9
 70
     1
102
RTVSPropertyOp10
 70
     1
102
RTVSPropertyOp11
 70
     1
102
RTVSPropertyOp12
 70
     1
102
RTVSPropertyOp13
 70
     1
102
RTVSPropertyOp14
 70
     1
102
RTVSPropertyOp15
 70
     1
102
RTVSPropertyOp16
 70
     1
102
RTVSPropertyOp17
 70
     1
102
RTVSPropertyOp18
 70
     1
102
RTVSPropertyOp19
 70
     1
102
RTVSPropertyOp20
 70
     1
102
RTVSPropertyOp21
 70
     1
102
RTVSPropertyOp22
 70
     1
102
RTVSPropertyOp23
 70
     1
102
RTVSPropertyOp24
 70
     1
102
RTVSPropertyOp25
 70
     1
102
RTVSPropertyOp26
 70
     1
102
RTVSPropertyOp27
 70
     1
  0
XRECORD
  5
32C6
102
{ACAD_REACTORS
330
32C5
102
}
330
32C5
100
AcDbXrecord
280
     1
102
RTVSPropertyOp0
 70
     0
102
RTVSPropertyOp1
 70
     0
102
RTVSPropertyOp2
 70
     0
102
RTVSPropertyOp3
 70
     0
102
RTVSPropertyOp4
 70
     0
102
RTVSPropertyOp5
 70
     0
102
RTVSPropertyOp6
 70
     0
102
RTVSPropertyOp7
 70
     0
102
RTVSPropertyOp8
 70
     0
102
RTVSPropertyOp9
 70
     0
102
RTVSPropertyOp10
 70
     0
102
RTVSPropertyOp11
 70
     0
102
RTVSPropertyOp12
 70
     0
102
RTVSPropertyOp13
 70
     0
102
RTVSPropertyOp14
 70
     2
102
RTVSPropertyOp15
 70
     0
102
RTVSPropertyOp16
 70
     0
102
RTVSPropertyOp17
 70
     0
102
RTVSPropertyOp18
 70
     0
102
RTVSPropertyOp19
 70
     0
102
RTVSPropertyOp20
 70
     0
102
RTVSPropertyOp21
 70
     0
102
RTVSPropertyOp22
 70
     0
102
RTVSPropertyOp23
 70
     0
102
RTVSPropertyOp24
 70
     0
102
RTVSPropertyOp25
 70
     0
102
RTVSPropertyOp26
 70
     0
102
RTVSPropertyOp27
 70
     0
  0
XRECORD
  5
32BE
102
{ACAD_REACTORS
330
32BD
102
}
330
32BD
100
AcDbXrecord
280
     1
102
RTVSPropertyOp0
 70
     1
102
RTVSPropertyOp1
 70
     1
102
RTVSPropertyOp2
 70
     1
102
RTVSPropertyOp3
 70
     1
102
RTVSPropertyOp4
 70
     1
102
RTVSPropertyOp5
 70
     1
102
RTVSPropertyOp6
 70
     1
102
RTVSPropertyOp7
 70
     1
102
RTVSPropertyOp8
 70
     1
102
RTVSPropertyOp9
 70
     1
102
RTVSPropertyOp10
 70
     1
102
RTVSPropertyOp11
 70
     1
102
RTVSPropertyOp12
 70
     1
102
RTVSPropertyOp13
 70
     1
102
RTVSPropertyOp14
 70
     1
102
RTVSPropertyOp15
 70
     1
102
RTVSPropertyOp16
 70
     1
102
RTVSPropertyOp17
 70
     1
102
RTVSPropertyOp18
 70
     1
102
RTVSPropertyOp19
 70
     1
102
RTVSPropertyOp20
 70
     1
102
RTVSPropertyOp21
 70
     1
102
RTVSPropertyOp22
 70
     1
102
RTVSPropertyOp23
 70
     1
102
RTVSPropertyOp24
 70
     1
102
RTVSPropertyOp25
 70
     1
102
RTVSPropertyOp26
 70
     1
102
RTVSPropertyOp27
 70
     1
  0
XRECORD
  5
32A2
102
{ACAD_REACTORS
330
32A1
102
}
330
32A1
100
AcDbXrecord
280
     1
102
RTVSPropertyOp0
 70
     1
102
RTVSPropertyOp1
 70
     1
102
RTVSPropertyOp2
 70
     1
102
RTVSPropertyOp3
 70
     1
102
RTVSPropertyOp4
 70
     1
102
RTVSPropertyOp5
 70
     1
102
RTVSPropertyOp6
 70
     1
102
RTVSPropertyOp7
 70
     1
102
RTVSPropertyOp8
 70
     1
102
RTVSPropertyOp9
 70
     1
102
RTVSPropertyOp10
 70
     1
102
RTVSPropertyOp11
 70
     1
102
RTVSPropertyOp12
 70
     1
102
RTVSPropertyOp13
 70
     1
102
RTVSPropertyOp14
 70
     1
102
RTVSPropertyOp15
 70
     1
102
RTVSPropertyOp16
 70
     1
102
RTVSPropertyOp17
 70
     1
102
RTVSPropertyOp18
 70
     1
102
RTVSPropertyOp19
 70
     1
102
RTVSPropertyOp20
 70
     1
102
RTVSPropertyOp21
 70
     1
102
RTVSPropertyOp22
 70
     1
102
RTVSPropertyOp23
 70
     1
102
RTVSPropertyOp24
 70
     1
102
RTVSPropertyOp25
 70
     1
102
RTVSPropertyOp26
 70
     1
102
RTVSPropertyOp27
 70
     1
  0
XRECORD
  5
32A4
102
{ACAD_REACTORS
330
32A3
102
}
330
32A3
100
AcDbXrecord
280
     1
102
RTVSPropertyOp0
 70
     1
102
RTVSPropertyOp1
 70
     1
102
RTVSPropertyOp2
 70
     1
102
RTVSPropertyOp3
 70
     1
102
RTVSPropertyOp4
 70
     1
102
RTVSPropertyOp5
 70
     1
102
RTVSPropertyOp6
 70
     1
102
RTVSPropertyOp7
 70
     1
102
RTVSPropertyOp8
 70
     1
102
RTVSPropertyOp9
 70
     1
102
RTVSPropertyOp10
 70
     1
102
RTVSPropertyOp11
 70
     1
102
RTVSPropertyOp12
 70
     1
102
RTVSPropertyOp13
 70
     1
102
RTVSPropertyOp14
 70
     1
102
RTVSPropertyOp15
 70
     1
102
RTVSPropertyOp16
 70
     1
102
RTVSPropertyOp17
 70
     1
102
RTVSPropertyOp18
 70
     1
102
RTVSPropertyOp19
 70
     1
102
RTVSPropertyOp20
 70
     1
102
RTVSPropertyOp21
 70
     1
102
RTVSPropertyOp22
 70
     1
102
RTVSPropertyOp23
 70
     1
102
RTVSPropertyOp24
 70
     1
102
RTVSPropertyOp25
 70
     1
102
RTVSPropertyOp26
 70
     1
102
RTVSPropertyOp27
 70
     1
  0
XRECORD
  5
32A6
102
{ACAD_REACTORS
330
32A5
102
}
330
32A5
100
AcDbXrecord
280
     1
102
RTVSPropertyOp0
 70
     1
102
RTVSPropertyOp1
 70
     1
102
RTVSPropertyOp2
 70
     1
102
RTVSPropertyOp3
 70
     1
102
RTVSPropertyOp4
 70
     1
102
RTVSPropertyOp5
 70
     1
102
RTVSPropertyOp6
 70
     1
102
RTVSPropertyOp7
 70
     1
102
RTVSPropertyOp8
 70
     1
102
RTVSPropertyOp9
 70
     1
102
RTVSPropertyOp10
 70
     1
102
RTVSPropertyOp11
 70
     1
102
RTVSPropertyOp12
 70
     1
102
RTVSPropertyOp13
 70
     1
102
RTVSPropertyOp14
 70
     1
102
RTVSPropertyOp15
 70
     1
102
RTVSPropertyOp16
 70
     1
102
RTVSPropertyOp17
 70
     1
102
RTVSPropertyOp18
 70
     1
102
RTVSPropertyOp19
 70
     1
102
RTVSPropertyOp20
 70
     1
102
RTVSPropertyOp21
 70
     1
102
RTVSPropertyOp22
 70
     1
102
RTVSPropertyOp23
 70
     1
102
RTVSPropertyOp24
 70
     1
102
RTVSPropertyOp25
 70
     1
102
RTVSPropertyOp26
 70
     1
102
RTVSPropertyOp27
 70
     1
  0
XRECORD
  5
32A8
102
{ACAD_REACTORS
330
32A7
102
}
330
32A7
100
AcDbXrecord
280
     1
102
RTVSPropertyOp0
 70
     1
102
RTVSPropertyOp1
 70
     1
102
RTVSPropertyOp2
 70
     1
102
RTVSPropertyOp3
 70
     1
102
RTVSPropertyOp4
 70
     1
102
RTVSPropertyOp5
 70
     1
102
RTVSPropertyOp6
 70
     1
102
RTVSPropertyOp7
 70
     1
102
RTVSPropertyOp8
 70
     1
102
RTVSPropertyOp9
 70
     1
102
RTVSPropertyOp10
 70
     1
102
RTVSPropertyOp11
 70
     1
102
RTVSPropertyOp12
 70
     1
102
RTVSPropertyOp13
 70
     1
102
RTVSPropertyOp14
 70
     1
102
RTVSPropertyOp15
 70
     1
102
RTVSPropertyOp16
 70
     1
102
RTVSPropertyOp17
 70
     1
102
RTVSPropertyOp18
 70
     1
102
RTVSPropertyOp19
 70
     1
102
RTVSPropertyOp20
 70
     1
102
RTVSPropertyOp21
 70
     1
102
RTVSPropertyOp22
 70
     1
102
RTVSPropertyOp23
 70
     1
102
RTVSPropertyOp24
 70
     1
102
RTVSPropertyOp25
 70
     1
102
RTVSPropertyOp26
 70
     1
102
RTVSPropertyOp27
 70
     1
  0
XRECORD
  5
32C2
102
{ACAD_REACTORS
330
32C1
102
}
330
32C1
100
AcDbXrecord
280
     1
102
RTVSPropertyOp0
 70
     0
102
RTVSPropertyOp1
 70
     0
102
RTVSPropertyOp2
 70
     0
102
RTVSPropertyOp3
 70
     0
102
RTVSPropertyOp4
 70
     0
102
RTVSPropertyOp5
 70
     0
102
RTVSPropertyOp6
 70
     0
102
RTVSPropertyOp7
 70
     0
102
RTVSPropertyOp8
 70
     0
102
RTVSPropertyOp9
 70
     0
102
RTVSPropertyOp10
 70
     0
102
RTVSPropertyOp11
 70
     0
102
RTVSPropertyOp12
 70
     0
102
RTVSPropertyOp13
 70
     0
102
RTVSPropertyOp14
 70
     2
102
RTVSPropertyOp15
 70
     0
102
RTVSPropertyOp16
 70
     0
102
RTVSPropertyOp17
 70
     0
102
RTVSPropertyOp18
 70
     0
102
RTVSPropertyOp19
 70
     0
102
RTVSPropertyOp20
 70
     0
102
RTVSPropertyOp21
 70
     0
102
RTVSPropertyOp22
 70
     0
102
RTVSPropertyOp23
 70
     0
102
RTVSPropertyOp24
 70
     0
102
RTVSPropertyOp25
 70
     0
102
RTVSPropertyOp26
 70
     0
102
RTVSPropertyOp27
 70
     0
  0
XRECORD
  5
32BC
102
{ACAD_REACTORS
330
32BB
102
}
330
32BB
100
AcDbXrecord
280
     1
102
RTVSPropertyOp0
 70
     1
102
RTVSPropertyOp1
 70
     1
102
RTVSPropertyOp2
 70
     1
102
RTVSPropertyOp3
 70
     1
102
RTVSPropertyOp4
 70
     1
102
RTVSPropertyOp5
 70
     1
102
RTVSPropertyOp6
 70
     1
102
RTVSPropertyOp7
 70
     1
102
RTVSPropertyOp8
 70
     1
102
RTVSPropertyOp9
 70
     1
102
RTVSPropertyOp10
 70
     1
102
RTVSPropertyOp11
 70
     1
102
RTVSPropertyOp12
 70
     1
102
RTVSPropertyOp13
 70
     1
102
RTVSPropertyOp14
 70
     1
102
RTVSPropertyOp15
 70
     1
102
RTVSPropertyOp16
 70
     1
102
RTVSPropertyOp17
 70
     1
102
RTVSPropertyOp18
 70
     1
102
RTVSPropertyOp19
 70
     1
102
RTVSPropertyOp20
 70
     1
102
RTVSPropertyOp21
 70
     1
102
RTVSPropertyOp22
 70
     1
102
RTVSPropertyOp23
 70
     1
102
RTVSPropertyOp24
 70
     1
102
RTVSPropertyOp25
 70
     1
102
RTVSPropertyOp26
 70
     1
102
RTVSPropertyOp27
 70
     1
  0
XRECORD
  5
32C4
102
{ACAD_REACTORS
330
32C3
102
}
330
32C3
100
AcDbXrecord
280
     1
102
RTVSPropertyOp0
 70
     0
102
RTVSPropertyOp1
 70
     0
102
RTVSPropertyOp2
 70
     0
102
RTVSPropertyOp3
 70
     0
102
RTVSPropertyOp4
 70
     0
102
RTVSPropertyOp5
 70
     0
102
RTVSPropertyOp6
 70
     0
102
RTVSPropertyOp7
 70
     0
102
RTVSPropertyOp8
 70
     0
102
RTVSPropertyOp9
 70
     0
102
RTVSPropertyOp10
 70
     0
102
RTVSPropertyOp11
 70
     0
102
RTVSPropertyOp12
 70
     0
102
RTVSPropertyOp13
 70
     0
102
RTVSPropertyOp14
 70
     2
102
RTVSPropertyOp15
 70
     0
102
RTVSPropertyOp16
 70
     0
102
RTVSPropertyOp17
 70
     0
102
RTVSPropertyOp18
 70
     0
102
RTVSPropertyOp19
 70
     0
102
RTVSPropertyOp20
 70
     0
102
RTVSPropertyOp21
 70
     0
102
RTVSPropertyOp22
 70
     0
102
RTVSPropertyOp23
 70
     0
102
RTVSPropertyOp24
 70
     0
102
RTVSPropertyOp25
 70
     0
102
RTVSPropertyOp26
 70
     0
102
RTVSPropertyOp27
 70
     0
  0
XRECORD
  5
32B4
102
{ACAD_REACTORS
330
32B3
102
}
330
32B3
100
AcDbXrecord
280
     1
102
RTVSPropertyOp0
 70
     1
102
RTVSPropertyOp1
 70
     1
102
RTVSPropertyOp2
 70
     1
102
RTVSPropertyOp3
 70
     1
102
RTVSPropertyOp4
 70
     1
102
RTVSPropertyOp5
 70
     1
102
RTVSPropertyOp6
 70
     1
102
RTVSPropertyOp7
 70
     1
102
RTVSPropertyOp8
 70
     1
102
RTVSPropertyOp9
 70
     1
102
RTVSPropertyOp10
 70
     1
102
RTVSPropertyOp11
 70
     1
102
RTVSPropertyOp12
 70
     1
102
RTVSPropertyOp13
 70
     1
102
RTVSPropertyOp14
 70
     1
102
RTVSPropertyOp15
 70
     1
102
RTVSPropertyOp16
 70
     1
102
RTVSPropertyOp17
 70
     1
102
RTVSPropertyOp18
 70
     1
102
RTVSPropertyOp19
 70
     1
102
RTVSPropertyOp20
 70
     1
102
RTVSPropertyOp21
 70
     1
102
RTVSPropertyOp22
 70
     1
102
RTVSPropertyOp23
 70
     1
102
RTVSPropertyOp24
 70
     1
102
RTVSPropertyOp25
 70
     1
102
RTVSPropertyOp26
 70
     1
102
RTVSPropertyOp27
 70
     1
  0
XRECORD
  5
32BA
102
{ACAD_REACTORS
330
32B9
102
}
330
32B9
100
AcDbXrecord
280
     1
102
RTVSPropertyOp0
 70
     1
102
RTVSPropertyOp1
 70
     1
102
RTVSPropertyOp2
 70
     1
102
RTVSPropertyOp3
 70
     1
102
RTVSPropertyOp4
 70
     1
102
RTVSPropertyOp5
 70
     1
102
RTVSPropertyOp6
 70
     1
102
RTVSPropertyOp7
 70
     1
102
RTVSPropertyOp8
 70
     1
102
RTVSPropertyOp9
 70
     1
102
RTVSPropertyOp10
 70
     1
102
RTVSPropertyOp11
 70
     1
102
RTVSPropertyOp12
 70
     1
102
RTVSPropertyOp13
 70
     1
102
RTVSPropertyOp14
 70
     1
102
RTVSPropertyOp15
 70
     1
102
RTVSPropertyOp16
 70
     1
102
RTVSPropertyOp17
 70
     1
102
RTVSPropertyOp18
 70
     1
102
RTVSPropertyOp19
 70
     1
102
RTVSPropertyOp20
 70
     1
102
RTVSPropertyOp21
 70
     1
102
RTVSPropertyOp22
 70
     1
102
RTVSPropertyOp23
 70
     1
102
RTVSPropertyOp24
 70
     1
102
RTVSPropertyOp25
 70
     1
102
RTVSPropertyOp26
 70
     1
102
RTVSPropertyOp27
 70
     1
  0
ENDSEC
  0
EOF
