  0
SECTION
  2
HEADER
  9
$ACADVER
  1
AC1021
  9
$ACADMAINTVER
 70
     1
  9
$DWGCODEPAGE
  3
ANSI_1252
  9
$LASTSAVEDBY
  1
user
  9
$INSBASE
 10
0.0
 20
0.0
 30
0.0
  9
$EXTMIN
 10
1162.833778631235
 20
1243.747942896062
 30
0.0
  9
$EXTMAX
 10
1298.854376740751
 20
1272.293185048001
 30
0.0
  9
$LIMMIN
 10
0.0
 20
0.0
  9
$LIMMAX
 10
420.0
 20
297.0
  9
$ORTHOMODE
 70
     1
  9
$REGENMODE
 70
     1
  9
$FILLMODE
 70
     1
  9
$QTEXTMODE
 70
     0
  9
$MIRRTEXT
 70
     0
  9
$LTSCALE
 40
1.0
  9
$ATTMODE
 70
     1
  9
$TEXTSIZE
 40
0.3937
  9
$TRACEWID
 40
1.0
  9
$TEXTSTYLE
  7
스타일2
  9
$CLAYER
  8
0
  9
$CELTYPE
  6
ByLayer
  9
$CECOLOR
 62
   256
  9
$CELTSCALE
 40
1.0
  9
$DISPSILH
 70
     0
  9
$DIMSCALE
 40
1.0
  9
$DIMASZ
 40
0.2
  9
$DIMEXO
 40
0.1
  9
$DIMDLI
 40
0.039
  9
$DIMRND
 40
0.0
  9
$DIMDLE
 40
0.0
  9
$DIMEXE
 40
0.2
  9
$DIMTP
 40
0.0
  9
$DIMTM
 40
0.0
  9
$DIMTXT
 40
2.5
  9
$DIMCEN
 40
0.039
  9
$DIMTSZ
 40
0.0
  9
$DIMTOL
 70
     0
  9
$DIMLIM
 70
     0
  9
$DIMTIH
 70
     0
  9
$DIMTOH
 70
     0
  9
$DIMSE1
 70
     0
  9
$DIMSE2
 70
     0
  9
$DIMTAD
 70
     1
  9
$DIMZIN
 70
     8
  9
$DIMBLK
  1

  9
$DIMASO
 70
     1
  9
$DIMSHO
 70
     1
  9
$DIMPOST
  1

  9
$DIMAPOST
  1

  9
$DIMALT
 70
     0
  9
$DIMALTD
 70
     2
  9
$DIMALTF
 40
0.0394
  9
$DIMLFAC
 40
1.0
  9
$DIMTOFL
 70
     1
  9
$DIMTVP
 40
1.0
  9
$DIMTIX
 70
     0
  9
$DIMSOXD
 70
     0
  9
$DIMSAH
 70
     0
  9
$DIMBLK1
  1

  9
$DIMBLK2
  1

  9
$DIMSTYLE
  2
DIN
  9
$DIMCLRD
 70
     0
  9
$DIMCLRE
 70
     0
  9
$DIMCLRT
 70
     0
  9
$DIMTFAC
 40
1.0
  9
$DIMGAP
 40
0.05
  9
$DIMJUST
 70
     0
  9
$DIMSD1
 70
     0
  9
$DIMSD2
 70
     0
  9
$DIMTOLJ
 70
     1
  9
$DIMTZIN
 70
     0
  9
$DIMALTZ
 70
     0
  9
$DIMALTTZ
 70
     0
  9
$DIMUPT
 70
     0
  9
$DIMDEC
 70
     4
  9
$DIMTDEC
 70
     4
  9
$DIMALTU
 70
     8
  9
$DIMALTTD
 70
     2
  9
$DIMTXSTY
  7
스타일2
  9
$DIMAUNIT
 70
     0
  9
$DIMADEC
 70
     0
  9
$DIMALTRND
 40
0.0
  9
$DIMAZIN
 70
     0
  9
$DIMDSEP
 70
    46
  9
$DIMATFIT
 70
     3
  9
$DIMFRAC
 70
     0
  9
$DIMLDRBLK
  1

  9
$DIMLUNIT
 70
     6
  9
$DIMLWD
 70
    -2
  9
$DIMLWE
 70
    -2
  9
$DIMTMOVE
 70
     0
  9
$DIMFXL
 40
1.0
  9
$DIMFXLON
 70
     0
  9
$DIMJOGANG
 40
1.570796326794896
  9
$DIMTFILL
 70
     0
  9
$DIMTFILLCLR
 70
     0
  9
$DIMARCSYM
 70
     0
  9
$DIMLTYPE
  6

  9
$DIMLTEX1
  6

  9
$DIMLTEX2
  6

  9
$LUNITS
 70
     3
  9
$LUPREC
 70
     4
  9
$SKETCHINC
 40
1.0
  9
$FILLETRAD
 40
3.0
  9
$AUNITS
 70
     0
  9
$AUPREC
 70
     0
  9
$MENU
  1
.
  9
$ELEVATION
 40
0.0
  9
$PELEVATION
 40
0.0
  9
$THICKNESS
 40
0.0
  9
$LIMCHECK
 70
     0
  9
$CHAMFERA
 40
0.0
  9
$CHAMFERB
 40
0.0
  9
$CHAMFERC
 40
0.0
  9
$CHAMFERD
 40
0.0
  9
$SKPOLY
 70
     0
  9
$TDCREATE
 40
2454393.179354919
  9
$TDUCREATE
 40
2454393.346021586
  9
$TDUPDATE
 40
2459796.395294016
  9
$TDUUPDATE
 40
2459796.561960683
  9
$TDINDWG
 40
1.9457051505
  9
$TDUSRTIMER
 40
1.9457029745
  9
$USRTIMER
 70
     1
  9
$ANGBASE
 50
0.0
  9
$ANGDIR
 70
     0
  9
$PDMODE
 70
     0
  9
$PDSIZE
 40
0.0
  9
$PLINEWID
 40
0.0
  9
$SPLFRAME
 70
     0
  9
$SPLINETYPE
 70
     6
  9
$SPLINESEGS
 70
     8
  9
$HANDSEED
  5
3EFE
  9
$SURFTAB1
 70
     6
  9
$SURFTAB2
 70
     6
  9
$SURFTYPE
 70
     6
  9
$SURFU
 70
     6
  9
$SURFV
 70
     6
  9
$UCSBASE
  2

  9
$UCSNAME
  2

  9
$UCSORG
 10
0.0
 20
0.0
 30
0.0
  9
$UCSXDIR
 10
1.0
 20
0.0
 30
0.0
  9
$UCSYDIR
 10
0.0
 20
1.0
 30
0.0
  9
$UCSORTHOREF
  2

  9
$UCSORTHOVIEW
 70
     0
  9
$UCSORGTOP
 10
0.0
 20
0.0
 30
0.0
  9
$UCSORGBOTTOM
 10
0.0
 20
0.0
 30
0.0
  9
$UCSORGLEFT
 10
0.0
 20
0.0
 30
0.0
  9
$UCSORGRIGHT
 10
0.0
 20
0.0
 30
0.0
  9
$UCSORGFRONT
 10
0.0
 20
0.0
 30
0.0
  9
$UCSORGBACK
 10
0.0
 20
0.0
 30
0.0
  9
$PUCSBASE
  2

  9
$PUCSNAME
  2

  9
$PUCSORG
 10
0.0
 20
0.0
 30
0.0
  9
$PUCSXDIR
 10
1.0
 20
0.0
 30
0.0
  9
$PUCSYDIR
 10
0.0
 20
1.0
 30
0.0
  9
$PUCSORTHOREF
  2

  9
$PUCSORTHOVIEW
 70
     0
  9
$PUCSORGTOP
 10
0.0
 20
0.0
 30
0.0
  9
$PUCSORGBOTTOM
 10
0.0
 20
0.0
 30
0.0
  9
$PUCSORGLEFT
 10
0.0
 20
0.0
 30
0.0
  9
$PUCSORGRIGHT
 10
0.0
 20
0.0
 30
0.0
  9
$PUCSORGFRONT
 10
0.0
 20
0.0
 30
0.0
  9
$PUCSORGBACK
 10
0.0
 20
0.0
 30
0.0
  9
$USERI1
 70
     0
  9
$USERI2
 70
     0
  9
$USERI3
 70
     0
  9
$USERI4
 70
     0
  9
$USERI5
 70
     0
  9
$USERR1
 40
0.0
  9
$USERR2
 40
0.0
  9
$USERR3
 40
0.0
  9
$USERR4
 40
0.0
  9
$USERR5
 40
0.0
  9
$WORLDVIEW
 70
     1
  9
$SHADEDGE
 70
     3
  9
$SHADEDIF
 70
    70
  9
$TILEMODE
 70
     1
  9
$MAXACTVP
 70
    64
  9
$PINSBASE
 10
0.0
 20
0.0
 30
0.0
  9
$PLIMCHECK
 70
     0
  9
$PEXTMIN
 10
1.000000000000000E+20
 20
1.000000000000000E+20
 30
1.000000000000000E+20
  9
$PEXTMAX
 10
-1.000000000000000E+20
 20
-1.000000000000000E+20
 30
-1.000000000000000E+20
  9
$PLIMMIN
 10
0.0071835950613108
 20
0.0009369707933118
  9
$PLIMMAX
 10
841.0071835950612
 20
594.0009369707931
  9
$UNITMODE
 70
     0
  9
$VISRETAIN
 70
     1
  9
$PLINEGEN
 70
     0
  9
$PSLTSCALE
 70
     1
  9
$TREEDEPTH
 70
  3020
  9
$CMLSTYLE
  2
Standard
  9
$CMLJUST
 70
     0
  9
$CMLSCALE
 40
20.0
  9
$PROXYGRAPHICS
 70
     1
  9
$MEASUREMENT
 70
     1
  9
$CELWEIGHT
370
    -1
  9
$ENDCAPS
280
     0
  9
$JOINSTYLE
280
     0
  9
$LWDISPLAY
290
     0
  9
$INSUNITS
 70
     1
  9
$HYPERLINKBASE
  1

  9
$STYLESHEET
  1

  9
$XEDIT
290
     1
  9
$CEPSNTYPE
380
     0
  9
$PSTYLEMODE
290
     1
  9
$FINGERPRINTGUID
  2
{AC2FA5CB-6F18-4BC2-9C5F-F25C10372E5B}
  9
$VERSIONGUID
  2
{42B40EB4-4EA7-4726-BDEC-5C435130E15F}
  9
$EXTNAMES
290
     1
  9
$PSVPSCALE
 40
0.0
  9
$OLESTARTUP
290
     0
  9
$SORTENTS
280
   127
  9
$INDEXCTL
280
     0
  9
$HIDETEXT
280
     0
  9
$XCLIPFRAME
290
     0
  9
$HALOGAP
280
     0
  9
$OBSCOLOR
 70
   257
  9
$OBSLTYPE
280
     0
  9
$INTERSECTIONDISPLAY
280
     0
  9
$INTERSECTIONCOLOR
 70
   257
  9
$DIMASSOC
280
     1
  9
$PROJECTNAME
  1

  9
$CAMERADISPLAY
290
     0
  9
$LENSLENGTH
 40
50.0
  9
$CAMERAHEIGHT
 40
0.0
  9
$STEPSPERSEC
 40
2.0
  9
$STEPSIZE
 40
6.0
  9
$3DDWFPREC
 40
2.0
  9
$PSOLWIDTH
 40
0.25
  9
$PSOLHEIGHT
 40
4.0
  9
$LOFTANG1
 40
1.570796326794896
  9
$LOFTANG2
 40
1.570796326794896
  9
$LOFTMAG1
 40
0.0
  9
$LOFTMAG2
 40
0.0
  9
$LOFTPARAM
 70
     7
  9
$LOFTNORMALS
280
     1
  9
$LATITUDE
 40
37.795
  9
$LONGITUDE
 40
-122.394
  9
$NORTHDIRECTION
 40
0.0
  9
$TIMEZONE
 70
 -8000
  9
$LIGHTGLYPHDISPLAY
280
     1
  9
$TILEMODELIGHTSYNCH
280
     1
  9
$CMATERIAL
347
315E
  9
$SOLIDHIST
280
     1
  9
$SHOWHIST
280
     1
  9
$DWFFRAME
280
     2
  9
$DGNFRAME
280
     0
  9
$REALWORLDSCALE
290
     1
  9
$INTERFERECOLOR
 62
     1
  9
$INTERFEREOBJVS
345
3180
  9
$INTERFEREVPVS
346
317D
  9
$CSHADOW
280
     0
  9
$SHADOWPLANELOCATION
 40
0.0
  0
ENDSEC
  0
SECTION
  2
CLASSES
  0
CLASS
  1
ACDBDICTIONARYWDFLT
  2
AcDbDictionaryWithDefault
  3
ObjectDBX Classes
 90
        0
 91
        1
280
     0
281
     0
  0
CLASS
  1
PLOTSETTINGS
  2
AcDbPlotSettings
  3
ObjectDBX Classes
 90
        0
 91
        0
280
     0
281
     0
  0
CLASS
  1
DICTIONARYVAR
  2
AcDbDictionaryVar
  3
ObjectDBX Classes
 90
        0
 91
        5
280
     0
281
     0
  0
CLASS
  1
TABLESTYLE
  2
AcDbTableStyle
  3
ObjectDBX Classes
 90
     4095
 91
        1
280
     0
281
     0
  0
CLASS
  1
DIMASSOC
  2
AcDbDimAssoc
  3
"AcDbDimAssoc|Product Desc:     AcDim ARX App For Dimension|Company:          Autodesk, Inc.|WEB Address:      www.autodesk.com"
 90
        0
 91
        1
280
     0
281
     0
  0
CLASS
  1
SORTENTSTABLE
  2
AcDbSortentsTable
  3
ObjectDBX Classes
 90
        0
 91
       10
280
     0
281
     0
  0
CLASS
  1
MATERIAL
  2
AcDbMaterial
  3
ObjectDBX Classes
 90
     1024
 91
        3
280
     0
281
     0
  0
CLASS
  1
VISUALSTYLE
  2
AcDbVisualStyle
  3
ObjectDBX Classes
 90
     4095
 91
       20
280
     0
281
     0
  0
CLASS
  1
SCALE
  2
AcDbScale
  3
ObjectDBX Classes
 90
     1153
 91
       17
280
     0
281
     0
  0
CLASS
  1
MLEADERSTYLE
  2
AcDbMLeaderStyle
  3
ACDB_MLEADERSTYLE_CLASS
 90
     4095
 91
        1
280
     0
281
     0
  0
CLASS
  1
CELLSTYLEMAP
  2
AcDbCellStyleMap
  3
ObjectDBX Classes
 90
     1152
 91
        1
280
     0
281
     0
  0
ENDSEC
  0
SECTION
  2
TABLES
  0
TABLE
  2
VPORT
  5
19
330
0
100
AcDbSymbolTable
 70
     1
  0
VPORT
  5
3158
330
19
100
AcDbSymbolTableRecord
100
AcDbViewportTableRecord
  2
*Active
 70
     0
 10
0.0
 20
0.0
 11
1.0
 21
1.0
 12
1201.454462669825
 22
1257.287215536051
 13
0.0
 23
0.0
 14
10.0
 24
10.0
 15
10.0
 25
10.0
 16
0.0
 26
0.0
 36
1.0
 17
0.0
 27
0.0
 37
0.0
 40
16.82395857360075
 41
2.537401574803149
 42
50.0
 43
0.0
 44
0.0
 50
0.0
 51
0.0
 71
     0
 72
  1000
 73
     1
 74
     3
 75
     0
 76
     0
 77
     0
 78
     0
281
     0
 65
     1
110
0.0
120
0.0
130
0.0
111
1.0
121
0.0
131
0.0
112
0.0
122
1.0
132
0.0
 79
     0
146
0.0
348
317C
 60
     3
 61
     5
292
     1
282
     1
141
0.0
142
0.0
 63
   250
421
  3355443
  0
ENDTAB
  0
TABLE
  2
LTYPE
  5
14
330
0
100
AcDbSymbolTable
 70
     4
  0
LTYPE
  5
15
330
14
100
AcDbSymbolTableRecord
100
AcDbLinetypeTableRecord
  2
ByBlock
 70
     0
  3

 72
    65
 73
     0
 40
0.0
  0
LTYPE
  5
16
330
14
100
AcDbSymbolTableRecord
100
AcDbLinetypeTableRecord
  2
ByLayer
 70
     0
  3

 72
    65
 73
     0
 40
0.0
  0
LTYPE
  5
8
330
14
100
AcDbSymbolTableRecord
100
AcDbLinetypeTableRecord
  2
Continuous
 70
     0
  3
Solid line
 72
    65
 73
     0
 40
0.0
  0
LTYPE
  5
1811
330
14
100
AcDbSymbolTableRecord
100
AcDbLinetypeTableRecord
  2
ACAD_ISO04W100
 70
     0
  3
ISO long-dash dot ____ . ____ . ____ . ____ . _
 72
    65
 73
     4
 40
30.0
 49
24.0
 74
     0
 49
-3.0
 74
     0
 49
0.0
 74
     0
 49
-3.0
 74
     0
  0
LTYPE
  5
357E
330
14
100
AcDbSymbolTableRecord
100
AcDbLinetypeTableRecord
  2
HIDDEN
 70
     0
  3
Hidden __ __ __ __ __ __ __ __ __ __ __ __ __ __
 72
    65
 73
     2
 40
0.075
 49
0.05
 74
     0
 49
-0.025
 74
     0
  0
ENDTAB
  0
TABLE
  2
LAYER
  5
10
102
{ACAD_XDICTIONARY
360
1CC0
102
}
330
0
100
AcDbSymbolTable
 70
    24
  0
LAYER
  5
4
102
{ACAD_XDICTIONARY
360
323C
102
}
330
10
100
AcDbSymbolTableRecord
100
AcDbLayerTableRecord
  2
0
 70
     0
 62
     7
  6
Continuous
370
    -3
390
5
347
316E
  0
LAYER
  5
8E
102
{ACAD_XDICTIONARY
360
323E
102
}
330
10
100
AcDbSymbolTableRecord
100
AcDbLayerTableRecord
  2
07
 70
     0
 62
     7
  6
Continuous
370
    -3
390
5
347
316E
  0
LAYER
  5
8F
102
{ACAD_XDICTIONARY
360
3240
102
}
330
10
100
AcDbSymbolTableRecord
100
AcDbLayerTableRecord
  2
035
 70
     0
 62
     5
  6
Continuous
370
    -3
390
5
347
316E
  0
LAYER
  5
90
102
{ACAD_XDICTIONARY
360
3242
102
}
330
10
100
AcDbSymbolTableRecord
100
AcDbLayerTableRecord
  2
05
 70
     0
 62
     6
  6
Continuous
370
    -3
390
5
347
316E
  0
LAYER
  5
91
102
{ACAD_XDICTIONARY
360
3244
102
}
330
10
100
AcDbSymbolTableRecord
100
AcDbLayerTableRecord
  2
025
 70
     0
 62
     1
  6
Continuous
370
    -3
390
5
347
316E
  0
LAYER
  5
5CE
330
10
100
AcDbSymbolTableRecord
100
AcDbLayerTableRecord
  2
Defpoints
 70
     0
 62
     7
  6
Continuous
290
     0
370
    -3
390
5
347
316E
  0
LAYER
  5
62B
102
{ACAD_XDICTIONARY
360
3246
102
}
330
10
100
AcDbSymbolTableRecord
100
AcDbLayerTableRecord
  2
粗实线
 70
     0
 62
     7
  6
Continuous
370
    30
390
5
347
316E
  0
LAYER
  5
62C
102
{ACAD_XDICTIONARY
360
3248
102
}
330
10
100
AcDbSymbolTableRecord
100
AcDbLayerTableRecord
  2
标注线
 70
     0
 62
     7
  6
Continuous
370
    13
390
5
347
316E
  0
LAYER
  5
1812
102
{ACAD_XDICTIONARY
360
324A
102
}
330
10
100
AcDbSymbolTableRecord
100
AcDbLayerTableRecord
  2
中心线
 70
     0
 62
     7
  6
ACAD_ISO04W100
370
    18
390
5
347
316E
  0
LAYER
  5
26BA
102
{ACAD_XDICTIONARY
360
324C
102
}
330
10
100
AcDbSymbolTableRecord
100
AcDbLayerTableRecord
  2
LC-001-002-----0
 70
     0
 62
     1
  6
ByBlock
370
    -3
390
5
347
316E
  0
LAYER
  5
26BB
102
{ACAD_XDICTIONARY
360
324E
102
}
330
10
100
AcDbSymbolTableRecord
100
AcDbLayerTableRecord
  2
LC-002-002-RND-0
 70
     0
 62
     1
  6
ByBlock
370
    -3
390
5
347
316E
  0
LAYER
  5
26BC
102
{ACAD_XDICTIONARY
360
3250
102
}
330
10
100
AcDbSymbolTableRecord
100
AcDbLayerTableRecord
  2
LC-003-001-RND-0
 70
     0
 62
     1
  6
ByBlock
370
    -3
390
5
347
316E
  0
LAYER
  5
26BD
102
{ACAD_XDICTIONARY
360
3252
102
}
330
10
100
AcDbSymbolTableRecord
100
AcDbLayerTableRecord
  2
LC-004-001-----0
 70
     0
 62
     1
  6
ByBlock
370
    -3
390
5
347
316E
  0
LAYER
  5
26BE
102
{ACAD_XDICTIONARY
360
3254
102
}
330
10
100
AcDbSymbolTableRecord
100
AcDbLayerTableRecord
  2
LC-005-005-----0
 70
     0
 62
     2
  6
ByBlock
370
    -3
390
5
347
316E
  0
LAYER
  5
2762
102
{ACAD_XDICTIONARY
360
3256
102
}
330
10
100
AcDbSymbolTableRecord
100
AcDbLayerTableRecord
  2
LC-002-001-RND-0
 70
     0
 62
     1
  6
ByBlock
370
    -3
390
5
347
316E
  0
LAYER
  5
2763
102
{ACAD_XDICTIONARY
360
3258
102
}
330
10
100
AcDbSymbolTableRecord
100
AcDbLayerTableRecord
  2
LC-003-001-----0
 70
     0
 62
     1
  6
ByBlock
370
    -3
390
5
347
316E
  0
LAYER
  5
2764
102
{ACAD_XDICTIONARY
360
325A
102
}
330
10
100
AcDbSymbolTableRecord
100
AcDbLayerTableRecord
  2
LC-004-005-----0
 70
     0
 62
     2
  6
ByBlock
370
    -3
390
5
347
316E
  0
LAYER
  5
29AA
102
{ACAD_XDICTIONARY
360
325C
102
}
330
10
100
AcDbSymbolTableRecord
100
AcDbLayerTableRecord
  2
LC-002-020-----0
 70
     0
 62
     1
  6
ByBlock
370
    -3
390
5
347
316E
  0
LAYER
  5
29AB
102
{ACAD_XDICTIONARY
360
325E
102
}
330
10
100
AcDbSymbolTableRecord
100
AcDbLayerTableRecord
  2
LC-003-005-----0
 70
     0
 62
     2
  6
ByBlock
370
    -3
390
5
347
316E
  0
LAYER
  5
2A31
102
{ACAD_XDICTIONARY
360
3260
102
}
330
10
100
AcDbSymbolTableRecord
100
AcDbLayerTableRecord
  2
LC-004-003-MTG-0
 70
     0
 62
     2
  6
ByBlock
370
    -3
390
5
347
316E
  0
LAYER
  5
2A32
102
{ACAD_XDICTIONARY
360
3262
102
}
330
10
100
AcDbSymbolTableRecord
100
AcDbLayerTableRecord
  2
LC-005-003-----0
 70
     0
 62
     2
  6
ByBlock
370
    -3
390
5
347
316E
  0
LAYER
  5
2AD2
102
{ACAD_XDICTIONARY
360
3264
102
}
330
10
100
AcDbSymbolTableRecord
100
AcDbLayerTableRecord
  2
LC-004-003-----0
 70
     0
 62
     2
  6
ByBlock
370
    -3
390
5
347
316E
  0
LAYER
  5
2DCD
102
{ACAD_XDICTIONARY
360
3266
102
}
330
10
100
AcDbSymbolTableRecord
100
AcDbLayerTableRecord
  2
LC-001-002-RND-0
 70
     0
 62
     1
  6
ByBlock
370
    -3
390
5
347
316E
  0
LAYER
  5
2DCE
102
{ACAD_XDICTIONARY
360
3268
102
}
330
10
100
AcDbSymbolTableRecord
100
AcDbLayerTableRecord
  2
LC-002-002-----0
 70
     0
 62
     1
  6
ByBlock
370
    -3
390
5
347
316E
  0
ENDTAB
  0
TABLE
  2
STYLE
  5
11
330
0
100
AcDbSymbolTable
 70
     6
  0
STYLE
  5
12
330
11
100
AcDbSymbolTableRecord
100
AcDbTextStyleTableRecord
  2
Standard
 70
     0
 40
0.0
 41
1.0
 50
0.0
 71
     0
 42
2.5
  3
txt
  4

  0
STYLE
  5
31
330
11
100
AcDbSymbolTableRecord
100
AcDbTextStyleTableRecord
  2
ISO Proportional
 70
     0
 40
0.0
 41
1.0
 50
0.0
 71
     0
 42
2.5
  3
isocp.shx
  4

  0
STYLE
  5
B96
330
11
100
AcDbSymbolTableRecord
100
AcDbTextStyleTableRecord
  2
스타일1
 70
     0
 40
0.1968
 41
1.0
 50
0.0
 71
     0
 42
2.5
  3
txt.shx
  4

  0
STYLE
  5
B97
330
11
100
AcDbSymbolTableRecord
100
AcDbTextStyleTableRecord
  2
스타일2
 70
     0
 40
0.3937
 41
1.0
 50
0.0
 71
     0
 42
0.3937
  3
txt.shx
  4

  0
STYLE
  5
2A33
330
11
100
AcDbSymbolTableRecord
100
AcDbTextStyleTableRecord
  2
LCTX0-400-0-0pDIN-Schrift
 70
     0
 40
0.0
 41
0.7
 50
0.0
 71
     0
 42
3.5
  3
TXT
  4

  0
STYLE
  5
357F
330
11
100
AcDbSymbolTableRecord
100
AcDbTextStyleTableRecord
  2
SLDTEXTSTYLE0
 70
     0
 40
0.0
 41
0.75
 50
0.0
 71
     0
 42
0.1377952756
  3
TXT
  4

  0
ENDTAB
  0
TABLE
  2
VIEW
  5
17
330
0
100
AcDbSymbolTable
 70
     0
  0
ENDTAB
  0
TABLE
  2
UCS
  5
18
330
0
100
AcDbSymbolTable
 70
     0
  0
ENDTAB
  0
TABLE
  2
APPID
  5
1B
330
0
100
AcDbSymbolTable
 70
    20
  0
APPID
  5
1C
330
1B
100
AcDbSymbolTableRecord
100
AcDbRegAppTableRecord
  2
ACAD
 70
     0
  0
APPID
  5
346
330
1B
100
AcDbSymbolTableRecord
100
AcDbRegAppTableRecord
  2
GENIUS_GENTRA_14
 70
     0
  0
APPID
  5
347
330
1B
100
AcDbSymbolTableRecord
100
AcDbRegAppTableRecord
  2
GENIUS_GENODEF_13
 70
     0
  0
APPID
  5
348
330
1B
100
AcDbSymbolTableRecord
100
AcDbRegAppTableRecord
  2
GENIUS_GENOBJ-N-TIT_13
 70
     0
  0
APPID
  5
349
330
1B
100
AcDbSymbolTableRecord
100
AcDbRegAppTableRecord
  2
GENIUS_GENTITLE_13
 70
     0
  0
APPID
  5
34A
330
1B
100
AcDbSymbolTableRecord
100
AcDbRegAppTableRecord
  2
GENIUS_GENOENT_13
 70
     0
  0
APPID
  5
34B
330
1B
100
AcDbSymbolTableRecord
100
AcDbRegAppTableRecord
  2
GENIUS_GENOREF_13
 70
     0
  0
APPID
  5
34C
330
1B
100
AcDbSymbolTableRecord
100
AcDbRegAppTableRecord
  2
GENIUS_GENOLIS_13
 70
     0
  0
APPID
  5
34D
330
1B
100
AcDbSymbolTableRecord
100
AcDbRegAppTableRecord
  2
GENIUS_GENOBJ-N-SDF_13
 70
     0
  0
APPID
  5
34E
330
1B
100
AcDbSymbolTableRecord
100
AcDbRegAppTableRecord
  2
GENIUS_GENSCREG_13
 70
     0
  0
APPID
  5
886
330
1B
100
AcDbSymbolTableRecord
100
AcDbRegAppTableRecord
  2
ACAD_DSTYLE_DIMTEXT_FILL
 70
     0
  0
APPID
  5
B8B
330
1B
100
AcDbSymbolTableRecord
100
AcDbRegAppTableRecord
  2
ACAD_PSEXT
 70
     0
  0
APPID
  5
321C
330
1B
100
AcDbSymbolTableRecord
100
AcDbRegAppTableRecord
  2
ACAD_EXEMPT_FROM_CAD_STANDARDS
 70
     0
  0
APPID
  5
32C7
330
1B
100
AcDbSymbolTableRecord
100
AcDbRegAppTableRecord
  2
ACAD_MLEADERVER
 70
     0
  0
APPID
  5
334C
330
1B
100
AcDbSymbolTableRecord
100
AcDbRegAppTableRecord
  2
ACAD_DSTYLE_DIMJAG
 70
     0
  0
APPID
  5
334D
330
1B
100
AcDbSymbolTableRecord
100
AcDbRegAppTableRecord
  2
ACAD_DSTYLE_DIMTALN
 70
     0
  0
APPID
  5
334E
330
1B
100
AcDbSymbolTableRecord
100
AcDbRegAppTableRecord
  2
ACAD_DSTYLE_DIMBREAK
 70
     0
  0
APPID
  5
334F
330
1B
100
AcDbSymbolTableRecord
100
AcDbRegAppTableRecord
  2
ACAD_NAV_VCDISPLAY
 70
     0
  0
APPID
  5
339E
330
1B
100
AcDbSymbolTableRecord
100
AcDbRegAppTableRecord
  2
ACAD_DSTYLE_DIMJOGGED_JOGANGLE_SYMBOL
 70
     0
  0
APPID
  5
33DA
330
1B
100
AcDbSymbolTableRecord
100
AcDbRegAppTableRecord
  2
ACAD_DSTYLE_DIMRADIAL_EXTENSION
 70
     0
  0
ENDTAB
  0
TABLE
  2
DIMSTYLE
  5
1D
330
0
100
AcDbSymbolTable
 70
    13
100
AcDbDimStyleTable
 71
     1
340
1E
  0
DIMSTYLE
105
1E
102
{ACAD_REACTORS
330
3E02
330
3E06
330
3E0A
102
}
330
1D
100
AcDbSymbolTableRecord
100
AcDbDimStyleTableRecord
  2
DIN
 70
     0
 41
2.5
 42
0.625
 43
3.75
 44
1.25
 74
     0
 77
     1
 78
     8
140
2.5
141
2.5
143
0.0394
145
1.0
147
0.625
172
     1
273
     8
277
     6
340
12
  0
DIMSTYLE
105
62D
330
1D
100
AcDbSymbolTableRecord
100
AcDbDimStyleTableRecord
  2
ISO-25
 70
     0
 41
10.0
 42
0.625
 43
3.75
 44
10.0
 73
     0
 74
     0
 77
     1
 78
     8
140
20.0
141
2.5
143
0.03937007874016
147
10.0
171
     3
172
     1
271
     2
272
     2
274
     3
278
    44
279
     1
283
     0
284
     8
340
12
  0
DIMSTYLE
105
62E
330
1D
100
AcDbSymbolTableRecord
100
AcDbDimStyleTableRecord
  2
副本ISO-25
 70
     0
 41
15.0
 42
0.625
 43
3.75
 44
2.0
 73
     0
 74
     0
 77
     1
 78
     8
140
22.0
141
2.5
143
0.03937007874016
147
10.0
171
     3
179
     1
271
     1
272
     1
274
     3
278
    44
279
     1
283
     0
284
     8
340
12
  0
DIMSTYLE
105
62F
330
1D
100
AcDbSymbolTableRecord
100
AcDbDimStyleTableRecord
  2
副本 (2)ISO-25
 70
     0
 41
10.0
 42
0.625
 43
3.75
 44
10.0
 73
     0
 74
     0
 77
     1
 78
     8
140
10.0
141
2.5
143
0.03937007874016
147
10.0
171
     3
172
     1
271
     2
272
     2
274
     3
278
    44
283
     0
284
     8
340
12
  0
DIMSTYLE
105
1FA0
330
1D
100
AcDbSymbolTableRecord
100
AcDbDimStyleTableRecord
  2
Standard
 70
     0
 41
25.0
 42
5.0
 43
2.0
 44
5.0
 73
     0
 74
     0
 77
     1
 78
    12
 79
     3
140
30.0
141
4.0
147
4.0
179
     2
340
12
  0
DIMSTYLE
105
2AD3
330
1D
100
AcDbSymbolTableRecord
100
AcDbDimStyleTableRecord
  2
LC-DIM-L-0025-02-02
 70
     0
 41
2.5
 42
0.0
 43
7.5
 44
1.8
 73
     0
 74
     0
 77
     1
 78
     8
 79
     2
140
2.5
141
0.0
146
0.71
147
1.5
172
     1
176
     2
177
     2
178
     2
179
     2
271
     2
278
    44
289
     1
340
2A33
  0
DIMSTYLE
105
2AD4
330
1D
100
AcDbSymbolTableRecord
100
AcDbDimStyleTableRecord
  2
LC-DIM-R-0025-02-02
 70
     0
 41
2.5
 42
0.0
 43
7.5
 44
1.8
 73
     0
 74
     0
 77
     1
 78
     8
 79
     2
140
2.5
141
0.0
146
0.71
147
1.5
176
     2
177
     2
178
     2
179
     2
271
     2
278
    44
289
     1
340
2A33
  0
DIMSTYLE
105
334B
330
1D
100
AcDbSymbolTableRecord
100
AcDbDimStyleTableRecord
  2
我的样式
 70
     0
 41
10.0
 42
6.0
 43
3.75
 44
1.25
 50
89.99999999999998
 73
     0
 74
     0
 77
     1
 78
     8
140
17.0
141
2.5
143
0.03937007874016
147
0.625
172
     1
271
     2
272
     2
283
     0
284
     8
340
12
342
332D
1001
ACAD_DSTYLE_DIMBREAK
1070
   391
1040
3.75
1001
ACAD_DSTYLE_DIMJAG
1070
   388
1040
1.5
1001
ACAD_DSTYLE_DIMTALN
1070
   392
1070
     0
1001
ACAD_DSTYLE_DIMJOGGED_JOGANGLE_SYMBOL
1070
   384
1040
1.570796326794896
  0
DIMSTYLE
105
3580
102
{ACAD_REACTORS
330
358E
330
3590
102
}
330
1D
100
AcDbSymbolTableRecord
100
AcDbDimStyleTableRecord
  2
SLDDIMSTYLE0
 70
     0
 41
0.13
 44
0.0
 45
0.000000001
 73
     0
 74
     0
 77
     1
 78
    12
 79
     3
140
0.375
147
0.09375
173
     1
271
     1
272
     1
276
     2
284
    12
340
357F
  0
DIMSTYLE
105
3581
102
{ACAD_REACTORS
330
358F
102
}
330
1D
100
AcDbSymbolTableRecord
100
AcDbDimStyleTableRecord
  2
SLDDIMSTYLE1
 70
     0
 41
0.13
 44
0.0
 45
0.000000001
 78
    12
 79
     3
140
0.375
141
0.0
147
0.09375
173
     1
271
     1
272
     1
276
     2
279
     1
284
    12
340
357F
  0
DIMSTYLE
105
3582
330
1D
100
AcDbSymbolTableRecord
100
AcDbDimStyleTableRecord
  2
SLDDIMSTYLE2
 70
     0
 41
0.13
 44
0.0
 45
0.000000001
146
0.13
147
0.0
173
     1
271
     0
272
     0
276
     2
340
12
  0
DIMSTYLE
105
3762
330
1D
100
AcDbSymbolTableRecord
100
AcDbDimStyleTableRecord
  2
SLDDIMSTYLE4
 70
     0
 41
0.13
 44
0.0
 45
0.000000001
146
0.13
147
0.0
173
     1
271
     0
272
     0
276
     2
340
12
  0
ENDTAB
  0
TABLE
  2
BLOCK_RECORD
  5
1
330
0
100
AcDbSymbolTable
 70
   126
  0
BLOCK_RECORD
  5
2
102
{ACAD_XDICTIONARY
360
95E
102
}
330
1
100
AcDbSymbolTableRecord
100
AcDbBlockTableRecord
  2
*Model_Space
340
A
 70
     0
280
     1
281
     0
  0
BLOCK_RECORD
  5
C
330
1
100
AcDbSymbolTableRecord
100
AcDbBlockTableRecord
  2
*Paper_Space
340
F
 70
     0
280
     1
281
     0
  0
BLOCK_RECORD
  5
2A1A
330
1
100
AcDbSymbolTableRecord
100
AcDbBlockTableRecord
  2
LCDIM1
340
0
 70
     0
280
     1
281
     0
  0
BLOCK_RECORD
  5
3062
330
1
100
AcDbSymbolTableRecord
100
AcDbBlockTableRecord
  2
*X1
340
0
 70
     0
280
     1
281
     0
  0
BLOCK_RECORD
  5
307C
330
1
100
AcDbSymbolTableRecord
100
AcDbBlockTableRecord
  2
*X2
340
0
 70
     0
280
     1
281
     0
  0
BLOCK_RECORD
  5
30F5
330
1
100
AcDbSymbolTableRecord
100
AcDbBlockTableRecord
  2
*D3
340
0
 70
     0
280
     1
281
     0
  0
BLOCK_RECORD
  5
3102
330
1
100
AcDbSymbolTableRecord
100
AcDbBlockTableRecord
  2
*D4
340
0
 70
     0
280
     1
281
     0
  0
BLOCK_RECORD
  5
310F
330
1
100
AcDbSymbolTableRecord
100
AcDbBlockTableRecord
  2
*D5
340
0
 70
     0
280
     1
281
     0
  0
BLOCK_RECORD
  5
3118
330
1
100
AcDbSymbolTableRecord
100
AcDbBlockTableRecord
  2
*D6
340
0
 70
     0
280
     1
281
     0
  0
BLOCK_RECORD
  5
31A1
102
{ACAD_XDICTIONARY
360
31AA
102
}
330
1
100
AcDbSymbolTableRecord
100
AcDbBlockTableRecord
  2
A$C5E5C7AF6
340
0
 70
     1
280
     1
281
     0
  0
BLOCK_RECORD
  5
31AE
330
1
100
AcDbSymbolTableRecord
100
AcDbBlockTableRecord
  2
*D8
340
0
 70
     0
280
     1
281
     0
  0
BLOCK_RECORD
  5
31BA
330
1
100
AcDbSymbolTableRecord
100
AcDbBlockTableRecord
  2
*D9
340
0
 70
     0
280
     1
281
     0
  0
BLOCK_RECORD
  5
31E0
330
1
100
AcDbSymbolTableRecord
100
AcDbBlockTableRecord
  2
*D10
340
0
 70
     0
280
     1
281
     0
  0
BLOCK_RECORD
  5
31EC
330
1
100
AcDbSymbolTableRecord
100
AcDbBlockTableRecord
  2
*D11
340
0
 70
     0
280
     1
281
     0
  0
BLOCK_RECORD
  5
332D
330
1
100
AcDbSymbolTableRecord
100
AcDbBlockTableRecord
  2
_ClosedBlank
340
0
102
{BLKREFS
331
3338
331
3339
331
3344
331
3345
331
33A7
331
33A8
331
33B0
331
33B1
331
33C7
331
33C8
331
33D3
331
33D4
331
33BE
331
3442
331
3443
331
344B
331
344C
331
3454
331
345F
331
3460
331
346B
331
346C
331
3477
331
3542
331
3543
331
354B
331
354C
331
3554
331
35E7
331
35E8
331
38E8
331
38E9
331
38F3
331
38F4
331
3939
331
393A
102
}
 70
     0
280
     1
281
     0
  0
BLOCK_RECORD
  5
3333
330
1
100
AcDbSymbolTableRecord
100
AcDbBlockTableRecord
  2
*D13
340
0
 70
     0
280
     1
281
     0
  0
BLOCK_RECORD
  5
333F
330
1
100
AcDbSymbolTableRecord
100
AcDbBlockTableRecord
  2
*D14
340
0
 70
     0
280
     1
281
     0
  0
BLOCK_RECORD
  5
3372
330
1
100
AcDbSymbolTableRecord
100
AcDbBlockTableRecord
  2
*D15
340
0
 70
     0
280
     1
281
     0
  0
BLOCK_RECORD
  5
337E
330
1
100
AcDbSymbolTableRecord
100
AcDbBlockTableRecord
  2
*D16
340
0
 70
     0
280
     1
281
     0
  0
BLOCK_RECORD
  5
33B9
330
1
100
AcDbSymbolTableRecord
100
AcDbBlockTableRecord
  2
*D17
340
0
 70
     0
280
     1
281
     0
  0
BLOCK_RECORD
  5
33C2
330
1
100
AcDbSymbolTableRecord
100
AcDbBlockTableRecord
  2
*D18
340
0
 70
     0
280
     1
281
     0
  0
BLOCK_RECORD
  5
33CE
330
1
100
AcDbSymbolTableRecord
100
AcDbBlockTableRecord
  2
*D19
340
0
 70
     0
280
     1
281
     0
  0
BLOCK_RECORD
  5
340F
330
1
100
AcDbSymbolTableRecord
100
AcDbBlockTableRecord
  2
*D20
340
0
 70
     0
280
     1
281
     0
  0
BLOCK_RECORD
  5
3418
330
1
100
AcDbSymbolTableRecord
100
AcDbBlockTableRecord
  2
*D21
340
0
 70
     0
280
     1
281
     0
  0
BLOCK_RECORD
  5
3424
330
1
100
AcDbSymbolTableRecord
100
AcDbBlockTableRecord
  2
*D22
340
0
 70
     0
280
     1
281
     0
  0
BLOCK_RECORD
  5
345A
330
1
100
AcDbSymbolTableRecord
100
AcDbBlockTableRecord
  2
*D23
340
0
 70
     0
280
     1
281
     0
  0
BLOCK_RECORD
  5
3466
330
1
100
AcDbSymbolTableRecord
100
AcDbBlockTableRecord
  2
*D24
340
0
 70
     0
280
     1
281
     0
  0
BLOCK_RECORD
  5
3472
330
1
100
AcDbSymbolTableRecord
100
AcDbBlockTableRecord
  2
*D25
340
0
 70
     0
280
     1
281
     0
  0
BLOCK_RECORD
  5
34A9
330
1
100
AcDbSymbolTableRecord
100
AcDbBlockTableRecord
  2
*D26
340
0
 70
     0
280
     1
281
     0
  0
BLOCK_RECORD
  5
34B5
330
1
100
AcDbSymbolTableRecord
100
AcDbBlockTableRecord
  2
*D27
340
0
 70
     0
280
     1
281
     0
  0
BLOCK_RECORD
  5
34C7
330
1
100
AcDbSymbolTableRecord
100
AcDbBlockTableRecord
  2
*D28
340
0
 70
     0
280
     1
281
     0
  0
BLOCK_RECORD
  5
355A
330
1
100
AcDbSymbolTableRecord
100
AcDbBlockTableRecord
  2
_D
340
0
 70
     0
280
     1
281
     0
  0
BLOCK_RECORD
  5
3561
330
1
100
AcDbSymbolTableRecord
100
AcDbBlockTableRecord
  2
_D_2
340
0
 70
     0
280
     1
281
     0
  0
BLOCK_RECORD
  5
3568
330
1
100
AcDbSymbolTableRecord
100
AcDbBlockTableRecord
  2
_D_4
340
0
 70
     0
280
     1
281
     0
  0
BLOCK_RECORD
  5
356F
330
1
100
AcDbSymbolTableRecord
100
AcDbBlockTableRecord
  2
SW_NOTE_0
340
0
102
{BLKREFS
331
3591
331
36DE
331
3771
102
}
 70
     0
280
     1
281
     0
  0
BLOCK_RECORD
  5
3574
330
1
100
AcDbSymbolTableRecord
100
AcDbBlockTableRecord
  2
SW_NOTE_1
340
0
102
{BLKREFS
331
3592
331
36DF
331
3772
102
}
 70
     0
280
     1
281
     0
  0
BLOCK_RECORD
  5
3579
330
1
100
AcDbSymbolTableRecord
100
AcDbBlockTableRecord
  2
SW_NOTE_2
340
0
102
{BLKREFS
331
3593
331
36E0
331
3773
102
}
 70
     0
280
     1
281
     0
  0
BLOCK_RECORD
  5
35A9
330
1
100
AcDbSymbolTableRecord
100
AcDbBlockTableRecord
  2
*D36
340
0
 70
     0
280
     1
281
     0
  0
BLOCK_RECORD
  5
35B5
330
1
100
AcDbSymbolTableRecord
100
AcDbBlockTableRecord
  2
*D37
340
0
 70
     0
280
     1
281
     0
  0
BLOCK_RECORD
  5
35C1
330
1
100
AcDbSymbolTableRecord
100
AcDbBlockTableRecord
  2
*D38
340
0
 70
     0
280
     1
281
     0
  0
BLOCK_RECORD
  5
35E2
330
1
100
AcDbSymbolTableRecord
100
AcDbBlockTableRecord
  2
*D39
340
0
 70
     0
280
     1
281
     0
  0
BLOCK_RECORD
  5
35EE
102
{ACAD_XDICTIONARY
360
35F0
102
}
330
1
100
AcDbSymbolTableRecord
100
AcDbBlockTableRecord
  2
A$C00294823
340
0
 70
     1
280
     1
281
     0
  0
BLOCK_RECORD
  5
36F6
330
1
100
AcDbSymbolTableRecord
100
AcDbBlockTableRecord
  2
*D43
340
0
 70
     0
280
     1
281
     0
  0
BLOCK_RECORD
  5
3702
330
1
100
AcDbSymbolTableRecord
100
AcDbBlockTableRecord
  2
*D44
340
0
 70
     0
280
     1
281
     0
  0
BLOCK_RECORD
  5
370B
330
1
100
AcDbSymbolTableRecord
100
AcDbBlockTableRecord
  2
*D45
340
0
 70
     0
280
     1
281
     0
  0
BLOCK_RECORD
  5
375B
330
1
100
AcDbSymbolTableRecord
100
AcDbBlockTableRecord
  2
_D_1
340
0
 70
     0
280
     1
281
     0
  0
BLOCK_RECORD
  5
3789
330
1
100
AcDbSymbolTableRecord
100
AcDbBlockTableRecord
  2
*D48
340
0
 70
     0
280
     1
281
     0
  0
BLOCK_RECORD
  5
3791
330
1
100
AcDbSymbolTableRecord
100
AcDbBlockTableRecord
  2
*D49
340
0
 70
     0
280
     1
281
     0
  0
BLOCK_RECORD
  5
379E
330
1
100
AcDbSymbolTableRecord
100
AcDbBlockTableRecord
  2
*D50
340
0
 70
     0
280
     1
281
     0
  0
BLOCK_RECORD
  5
381B
330
1
100
AcDbSymbolTableRecord
100
AcDbBlockTableRecord
  2
*D51
340
0
 70
     0
280
     1
281
     0
  0
BLOCK_RECORD
  5
382F
330
1
100
AcDbSymbolTableRecord
100
AcDbBlockTableRecord
  2
*D53
340
0
 70
     0
280
     1
281
     0
  0
BLOCK_RECORD
  5
389A
330
1
100
AcDbSymbolTableRecord
100
AcDbBlockTableRecord
  2
*D54
340
0
 70
     0
280
     1
281
     0
  0
BLOCK_RECORD
  5
38EE
330
1
100
AcDbSymbolTableRecord
100
AcDbBlockTableRecord
  2
*D55
340
0
 70
     0
280
     1
281
     0
  0
BLOCK_RECORD
  5
3902
330
1
100
AcDbSymbolTableRecord
100
AcDbBlockTableRecord
  2
*D57
340
0
 70
     0
280
     1
281
     0
  0
BLOCK_RECORD
  5
3956
330
1
100
AcDbSymbolTableRecord
100
AcDbBlockTableRecord
  2
*D58
340
0
 70
     0
280
     1
281
     0
  0
BLOCK_RECORD
  5
3962
330
1
100
AcDbSymbolTableRecord
100
AcDbBlockTableRecord
  2
*D59
340
0
 70
     0
280
     1
281
     0
  0
BLOCK_RECORD
  5
396E
330
1
100
AcDbSymbolTableRecord
100
AcDbBlockTableRecord
  2
*D60
340
0
 70
     0
280
     1
281
     0
  0
BLOCK_RECORD
  5
397A
330
1
100
AcDbSymbolTableRecord
100
AcDbBlockTableRecord
  2
*D61
340
0
 70
     0
280
     1
281
     0
  0
BLOCK_RECORD
  5
3987
330
1
100
AcDbSymbolTableRecord
100
AcDbBlockTableRecord
  2
*D62
340
0
 70
     0
280
     1
281
     0
  0
BLOCK_RECORD
  5
3991
330
1
100
AcDbSymbolTableRecord
100
AcDbBlockTableRecord
  2
*D63
340
0
 70
     0
280
     1
281
     0
  0
BLOCK_RECORD
  5
399C
330
1
100
AcDbSymbolTableRecord
100
AcDbBlockTableRecord
  2
*D64
340
0
 70
     0
280
     1
281
     0
  0
BLOCK_RECORD
  5
39A7
330
1
100
AcDbSymbolTableRecord
100
AcDbBlockTableRecord
  2
*D65
340
0
 70
     0
280
     1
281
     0
  0
BLOCK_RECORD
  5
39B3
330
1
100
AcDbSymbolTableRecord
100
AcDbBlockTableRecord
  2
*D66
340
0
 70
     0
280
     1
281
     0
  0
BLOCK_RECORD
  5
39FE
330
1
100
AcDbSymbolTableRecord
100
AcDbBlockTableRecord
  2
*D68
340
0
 70
     0
280
     1
281
     0
  0
BLOCK_RECORD
  5
3A0A
330
1
100
AcDbSymbolTableRecord
100
AcDbBlockTableRecord
  2
*D69
340
0
 70
     0
280
     1
281
     0
  0
BLOCK_RECORD
  5
3A16
330
1
100
AcDbSymbolTableRecord
100
AcDbBlockTableRecord
  2
*D70
340
0
 70
     0
280
     1
281
     0
  0
BLOCK_RECORD
  5
3A22
330
1
100
AcDbSymbolTableRecord
100
AcDbBlockTableRecord
  2
*D71
340
0
 70
     0
280
     1
281
     0
  0
BLOCK_RECORD
  5
3A2F
330
1
100
AcDbSymbolTableRecord
100
AcDbBlockTableRecord
  2
*D72
340
0
 70
     0
280
     1
281
     0
  0
BLOCK_RECORD
  5
3A38
330
1
100
AcDbSymbolTableRecord
100
AcDbBlockTableRecord
  2
*D73
340
0
 70
     0
280
     1
281
     0
  0
BLOCK_RECORD
  5
3A43
330
1
100
AcDbSymbolTableRecord
100
AcDbBlockTableRecord
  2
*D74
340
0
 70
     0
280
     1
281
     0
  0
BLOCK_RECORD
  5
3A4E
330
1
100
AcDbSymbolTableRecord
100
AcDbBlockTableRecord
  2
*D75
340
0
 70
     0
280
     1
281
     0
  0
BLOCK_RECORD
  5
3A5A
330
1
100
AcDbSymbolTableRecord
100
AcDbBlockTableRecord
  2
*D76
340
0
 70
     0
280
     1
281
     0
  0
BLOCK_RECORD
  5
3B39
330
1
100
AcDbSymbolTableRecord
100
AcDbBlockTableRecord
  2
*D77
340
0
 70
     0
280
     1
281
     0
  0
BLOCK_RECORD
  5
3B45
330
1
100
AcDbSymbolTableRecord
100
AcDbBlockTableRecord
  2
*D78
340
0
 70
     0
280
     1
281
     0
  0
BLOCK_RECORD
  5
3B51
330
1
100
AcDbSymbolTableRecord
100
AcDbBlockTableRecord
  2
*D79
340
0
 70
     0
280
     1
281
     0
  0
BLOCK_RECORD
  5
3B5D
330
1
100
AcDbSymbolTableRecord
100
AcDbBlockTableRecord
  2
*D80
340
0
 70
     0
280
     1
281
     0
  0
BLOCK_RECORD
  5
3B69
330
1
100
AcDbSymbolTableRecord
100
AcDbBlockTableRecord
  2
*D81
340
0
 70
     0
280
     1
281
     0
  0
BLOCK_RECORD
  5
3B75
330
1
100
AcDbSymbolTableRecord
100
AcDbBlockTableRecord
  2
*D82
340
0
 70
     0
280
     1
281
     0
  0
BLOCK_RECORD
  5
3B7F
330
1
100
AcDbSymbolTableRecord
100
AcDbBlockTableRecord
  2
*D83
340
0
 70
     0
280
     1
281
     0
  0
BLOCK_RECORD
  5
3B89
330
1
100
AcDbSymbolTableRecord
100
AcDbBlockTableRecord
  2
*D84
340
0
 70
     0
280
     1
281
     0
  0
BLOCK_RECORD
  5
3B93
330
1
100
AcDbSymbolTableRecord
100
AcDbBlockTableRecord
  2
*D85
340
0
 70
     0
280
     1
281
     0
  0
BLOCK_RECORD
  5
3B9E
330
1
100
AcDbSymbolTableRecord
100
AcDbBlockTableRecord
  2
*D86
340
0
 70
     0
280
     1
281
     0
  0
BLOCK_RECORD
  5
3BA9
330
1
100
AcDbSymbolTableRecord
100
AcDbBlockTableRecord
  2
*D87
340
0
 70
     0
280
     1
281
     0
  0
BLOCK_RECORD
  5
3BB5
330
1
100
AcDbSymbolTableRecord
100
AcDbBlockTableRecord
  2
*D88
340
0
 70
     0
280
     1
281
     0
  0
BLOCK_RECORD
  5
3C1B
330
1
100
AcDbSymbolTableRecord
100
AcDbBlockTableRecord
  2
*D90
340
0
 70
     0
280
     1
281
     0
  0
BLOCK_RECORD
  5
3C27
330
1
100
AcDbSymbolTableRecord
100
AcDbBlockTableRecord
  2
*D91
340
0
 70
     0
280
     1
281
     0
  0
BLOCK_RECORD
  5
3C33
330
1
100
AcDbSymbolTableRecord
100
AcDbBlockTableRecord
  2
*D92
340
0
 70
     0
280
     1
281
     0
  0
BLOCK_RECORD
  5
3C3F
330
1
100
AcDbSymbolTableRecord
100
AcDbBlockTableRecord
  2
*D93
340
0
 70
     0
280
     1
281
     0
  0
BLOCK_RECORD
  5
3C4B
330
1
100
AcDbSymbolTableRecord
100
AcDbBlockTableRecord
  2
*D94
340
0
 70
     0
280
     1
281
     0
  0
BLOCK_RECORD
  5
3C57
330
1
100
AcDbSymbolTableRecord
100
AcDbBlockTableRecord
  2
*D95
340
0
 70
     0
280
     1
281
     0
  0
BLOCK_RECORD
  5
3C60
330
1
100
AcDbSymbolTableRecord
100
AcDbBlockTableRecord
  2
*D96
340
0
 70
     0
280
     1
281
     0
  0
BLOCK_RECORD
  5
3C69
330
1
100
AcDbSymbolTableRecord
100
AcDbBlockTableRecord
  2
*D97
340
0
 70
     0
280
     1
281
     0
  0
BLOCK_RECORD
  5
3C72
330
1
100
AcDbSymbolTableRecord
100
AcDbBlockTableRecord
  2
*D98
340
0
 70
     0
280
     1
281
     0
  0
BLOCK_RECORD
  5
3C7D
330
1
100
AcDbSymbolTableRecord
100
AcDbBlockTableRecord
  2
*D99
340
0
 70
     0
280
     1
281
     0
  0
BLOCK_RECORD
  5
3C88
330
1
100
AcDbSymbolTableRecord
100
AcDbBlockTableRecord
  2
*D100
340
0
 70
     0
280
     1
281
     0
  0
BLOCK_RECORD
  5
3C94
330
1
100
AcDbSymbolTableRecord
100
AcDbBlockTableRecord
  2
*D101
340
0
 70
     0
280
     1
281
     0
  0
BLOCK_RECORD
  5
3D42
330
1
100
AcDbSymbolTableRecord
100
AcDbBlockTableRecord
  2
*D103
340
0
 70
     0
280
     1
281
     0
  0
BLOCK_RECORD
  5
3D4E
330
1
100
AcDbSymbolTableRecord
100
AcDbBlockTableRecord
  2
*D104
340
0
 70
     0
280
     1
281
     0
  0
BLOCK_RECORD
  5
3D5A
330
1
100
AcDbSymbolTableRecord
100
AcDbBlockTableRecord
  2
*D105
340
0
 70
     0
280
     1
281
     0
  0
BLOCK_RECORD
  5
3D66
330
1
100
AcDbSymbolTableRecord
100
AcDbBlockTableRecord
  2
*D106
340
0
 70
     0
280
     1
281
     0
  0
BLOCK_RECORD
  5
3D72
330
1
100
AcDbSymbolTableRecord
100
AcDbBlockTableRecord
  2
*D107
340
0
 70
     0
280
     1
281
     0
  0
BLOCK_RECORD
  5
3D7E
330
1
100
AcDbSymbolTableRecord
100
AcDbBlockTableRecord
  2
*D108
340
0
 70
     0
280
     1
281
     0
  0
BLOCK_RECORD
  5
3D8A
330
1
100
AcDbSymbolTableRecord
100
AcDbBlockTableRecord
  2
*D109
340
0
 70
     0
280
     1
281
     0
  0
BLOCK_RECORD
  5
3D97
330
1
100
AcDbSymbolTableRecord
100
AcDbBlockTableRecord
  2
*D110
340
0
 70
     0
280
     1
281
     0
  0
BLOCK_RECORD
  5
3DA1
330
1
100
AcDbSymbolTableRecord
100
AcDbBlockTableRecord
  2
*D111
340
0
 70
     0
280
     1
281
     0
  0
BLOCK_RECORD
  5
3DAB
330
1
100
AcDbSymbolTableRecord
100
AcDbBlockTableRecord
  2
*D112
340
0
 70
     0
280
     1
281
     0
  0
BLOCK_RECORD
  5
3DB6
330
1
100
AcDbSymbolTableRecord
100
AcDbBlockTableRecord
  2
*D113
340
0
 70
     0
280
     1
281
     0
  0
BLOCK_RECORD
  5
3E0D
330
1
100
AcDbSymbolTableRecord
100
AcDbBlockTableRecord
  2
*D115
340
0
 70
     0
280
     1
281
     0
  0
BLOCK_RECORD
  5
3E19
330
1
100
AcDbSymbolTableRecord
100
AcDbBlockTableRecord
  2
*D116
340
0
 70
     0
280
     1
281
     0
  0
BLOCK_RECORD
  5
3E25
330
1
100
AcDbSymbolTableRecord
100
AcDbBlockTableRecord
  2
*D117
340
0
 70
     0
280
     1
281
     0
  0
BLOCK_RECORD
  5
3E31
330
1
100
AcDbSymbolTableRecord
100
AcDbBlockTableRecord
  2
*D118
340
0
 70
     0
280
     1
281
     0
  0
BLOCK_RECORD
  5
3E3D
330
1
100
AcDbSymbolTableRecord
100
AcDbBlockTableRecord
  2
*D119
340
0
 70
     0
280
     1
281
     0
  0
BLOCK_RECORD
  5
3E49
330
1
100
AcDbSymbolTableRecord
100
AcDbBlockTableRecord
  2
*D120
340
0
 70
     0
280
     1
281
     0
  0
BLOCK_RECORD
  5
3E55
330
1
100
AcDbSymbolTableRecord
100
AcDbBlockTableRecord
  2
*D121
340
0
 70
     0
280
     1
281
     0
  0
BLOCK_RECORD
  5
3E62
330
1
100
AcDbSymbolTableRecord
100
AcDbBlockTableRecord
  2
*D122
340
0
 70
     0
280
     1
281
     0
  0
BLOCK_RECORD
  5
3E6B
330
1
100
AcDbSymbolTableRecord
100
AcDbBlockTableRecord
  2
*D123
340
0
 70
     0
280
     1
281
     0
  0
BLOCK_RECORD
  5
3E74
330
1
100
AcDbSymbolTableRecord
100
AcDbBlockTableRecord
  2
*D124
340
0
 70
     0
280
     1
281
     0
  0
BLOCK_RECORD
  5
3E7F
330
1
100
AcDbSymbolTableRecord
100
AcDbBlockTableRecord
  2
*D125
340
0
 70
     0
280
     1
281
     0
  0
ENDTAB
  0
ENDSEC
  0
SECTION
  2
BLOCKS
  0
BLOCK
  5
3
330
2
100
AcDbEntity
  8
0
100
AcDbBlockBegin
  2
*Model_Space
 70
     2
 10
0.0
 20
0.0
 30
0.0
  3
*Model_Space
  1

  0
ENDBLK
  5
9
330
2
100
AcDbEntity
  8
0
100
AcDbBlockEnd
  0
BLOCK
  5
D
330
C
100
AcDbEntity
 67
     1
  8
0
100
AcDbBlockBegin
  2
*Paper_Space
 70
     0
 10
0.0
 20
0.0
 30
0.0
  3
*Paper_Space
  1

  0
ENDBLK
  5
E
330
C
100
AcDbEntity
 67
     1
  8
0
100
AcDbBlockEnd
  0
BLOCK
  5
2A1B
330
2A1A
100
AcDbEntity
  8
0
100
AcDbBlockBegin
  2
LCDIM1
 70
     0
 10
0.0
 20
0.0
 30
0.0
  3
LCDIM1
  1

  4
LCDIM1
  0
LINE
  5
2A1C
330
2A1A
100
AcDbEntity
  8
LC-004-003-MTG-0
 62
     7
370
    25
100
AcDbLine
 10
530.6772829999998
 20
541.813267
 30
0.0
 11
572.0219369999997
 21
549.203774
 31
0.0
  0
LINE
  5
2A1D
330
2A1A
100
AcDbEntity
  8
LC-005-003-----0
 62
     7
370
    25
100
AcDbLine
 10
533.0598
 20
542.5706389999998
 30
0.0
 11
530.6772829999998
 21
541.813267
 31
0.0
  0
LINE
  5
2A1E
330
2A1A
100
AcDbEntity
  8
LC-005-003-----0
 62
     7
370
    25
100
AcDbLine
 10
530.6772829999998
 20
541.813267
 30
0.0
 11
533.17464
 21
541.9281909999998
 31
0.0
  0
LINE
  5
2A1F
330
2A1A
100
AcDbEntity
  8
LC-005-003-----0
 62
     7
370
    25
100
AcDbLine
 10
533.17464
 20
541.9281909999998
 30
0.0
 11
533.0598
 21
542.5706389999998
 31
0.0
  0
LINE
  5
2A20
330
2A1A
100
AcDbEntity
  8
LC-005-003-----0
 62
     7
370
    25
100
AcDbLine
 10
533.080204
 20
542.488099
 30
0.0
 11
531.3171409999998
 21
541.9276439999999
 31
0.0
  0
LINE
  5
2A21
330
2A1A
100
AcDbEntity
  8
LC-005-003-----0
 62
     7
370
    25
100
AcDbLine
 10
531.3171409999998
 20
541.9276439999999
 30
0.0
 11
533.1651849999998
 21
542.012688
 31
0.0
  0
LINE
  5
2A22
330
2A1A
100
AcDbEntity
  8
LC-005-003-----0
 62
     7
370
    25
100
AcDbLine
 10
533.100607
 20
542.405559
 30
0.0
 11
531.9569979999998
 21
542.0420209999998
 31
0.0
  0
LINE
  5
2A23
330
2A1A
100
AcDbEntity
  8
LC-005-003-----0
 62
     7
370
    25
100
AcDbLine
 10
531.9569979999998
 20
542.0420209999998
 30
0.0
 11
533.1557299999998
 21
542.0971839999999
 31
0.0
  0
LINE
  5
2A24
330
2A1A
100
AcDbEntity
  8
LC-005-003-----0
 62
     7
370
    25
100
AcDbLine
 10
533.1210099999998
 20
542.32302
 30
0.0
 11
532.5968559999998
 21
542.1563980000001
 31
0.0
  0
LINE
  5
2A25
330
2A1A
100
AcDbEntity
  8
LC-005-003-----0
 62
     7
370
    25
100
AcDbLine
 10
532.5968559999998
 20
542.1563980000001
 30
0.0
 11
533.1462749999998
 21
542.1816809999998
 31
0.0
  0
LINE
  5
2A26
330
2A1A
100
AcDbEntity
  8
LC-005-003-----0
 62
     7
370
    25
100
AcDbLine
 10
569.6394199999997
 20
548.4464019999998
 30
0.0
 11
572.0219369999997
 21
549.203774
 31
0.0
  0
LINE
  5
2A27
330
2A1A
100
AcDbEntity
  8
LC-005-003-----0
 62
     7
370
    25
100
AcDbLine
 10
572.0219369999997
 20
549.203774
 30
0.0
 11
569.52458
 21
549.0888499999998
 31
0.0
  0
LINE
  5
2A28
330
2A1A
100
AcDbEntity
  8
LC-005-003-----0
 62
     7
370
    25
100
AcDbLine
 10
569.52458
 20
549.0888499999998
 30
0.0
 11
569.6394199999997
 21
548.4464019999998
 31
0.0
  0
LINE
  5
2A29
330
2A1A
100
AcDbEntity
  8
LC-005-003-----0
 62
     7
370
    25
100
AcDbLine
 10
569.6190159999997
 20
548.5289419999998
 30
0.0
 11
571.3820789999997
 21
549.089397
 31
0.0
  0
LINE
  5
2A2A
330
2A1A
100
AcDbEntity
  8
LC-005-003-----0
 62
     7
370
    25
100
AcDbLine
 10
571.3820789999997
 20
549.089397
 30
0.0
 11
569.534035
 21
549.004353
 31
0.0
  0
LINE
  5
2A2B
330
2A1A
100
AcDbEntity
  8
LC-005-003-----0
 62
     7
370
    25
100
AcDbLine
 10
569.598613
 20
548.611482
 30
0.0
 11
570.7422209999997
 21
548.9750199999998
 31
0.0
  0
LINE
  5
2A2C
330
2A1A
100
AcDbEntity
  8
LC-005-003-----0
 62
     7
370
    25
100
AcDbLine
 10
570.7422209999997
 20
548.9750199999998
 30
0.0
 11
569.54349
 21
548.919856
 31
0.0
  0
LINE
  5
2A2D
330
2A1A
100
AcDbEntity
  8
LC-005-003-----0
 62
     7
370
    25
100
AcDbLine
 10
569.57821
 20
548.694021
 30
0.0
 11
570.1023639999997
 21
548.8606429999999
 31
0.0
  0
LINE
  5
2A2E
330
2A1A
100
AcDbEntity
  8
LC-005-003-----0
 62
     7
370
    25
100
AcDbLine
 10
570.1023639999997
 20
548.8606429999999
 30
0.0
 11
569.552945
 21
548.8353599999998
 31
0.0
  0
TEXT
  5
2A2F
330
2A1A
100
AcDbEntity
  8
LC-005-003-----0
 62
     7
370
    25
100
AcDbText
 10
540.1123619545855
 20
545.0235976179942
 30
0.0
 40
2.5
  1
%%c420 (16.54")
 50
10.134788
 41
0.7
  7
LCTX0-400-0-0pDIN-Schrift
 72
     1
 11
549.1565049999998
 21
546.6402709999998
 31
0.0
100
AcDbText
  0
ENDBLK
  5
2A30
330
2A1A
100
AcDbEntity
  8
0
100
AcDbBlockEnd
  0
BLOCK
  5
3063
330
3062
100
AcDbEntity
  8
0
100
AcDbBlockBegin
  2
*X1
 70
     1
 10
0.0
 20
0.0
 30
0.0
  3
*X1
  1

  4
*X1
  0
LINE
  5
3064
330
3062
100
AcDbEntity
  8
LC-003-005-----0
 62
     7
370
    25
100
AcDbLine
 10
703.080211
 20
411.7522169999999
 30
0.0
 11
704.1397809999997
 21
412.811787
 31
0.0
  0
LINE
  5
3065
330
3062
100
AcDbEntity
  8
LC-003-005-----0
 62
     7
370
    25
100
AcDbLine
 10
700.8973089999997
 20
412.397742
 30
0.0
 11
704.410961
 21
415.911394
 31
0.0
  0
LINE
  5
3066
330
3062
100
AcDbEntity
  8
LC-003-005-----0
 62
     7
370
    25
100
AcDbLine
 10
732.696777
 20
444.197211
 30
0.0
 11
733.498909
 21
444.9993429999998
 31
0.0
  0
LINE
  5
3067
330
3062
100
AcDbEntity
  8
LC-003-005-----0
 62
     7
370
    25
100
AcDbLine
 10
698.7144059999997
 20
413.043267
 30
0.0
 11
704.682142
 21
419.011002
 31
0.0
  0
LINE
  5
3068
330
3062
100
AcDbEntity
  8
LC-003-005-----0
 62
     7
370
    25
100
AcDbLine
 10
729.86835
 20
444.197211
 30
0.0
 11
733.314053
 21
447.6429129999998
 31
0.0
  0
LINE
  5
3069
330
3062
100
AcDbEntity
  8
LC-003-005-----0
 62
     7
370
    25
100
AcDbLine
 10
696.531504
 20
413.688791
 30
0.0
 11
704.9533219999997
 21
422.1106099999998
 31
0.0
  0
LINE
  5
306A
330
3062
100
AcDbEntity
  8
LC-003-005-----0
 62
     7
370
    25
100
AcDbLine
 10
727.039923
 20
444.197211
 30
0.0
 11
732.8384039999997
 21
449.995692
 31
0.0
  0
LINE
  5
306B
330
3062
100
AcDbEntity
  8
LC-003-005-----0
 62
     7
370
    25
100
AcDbLine
 10
696.424
 20
416.4097139999998
 30
0.0
 11
705.224503
 21
425.2102169999998
 31
0.0
  0
LINE
  5
306C
330
3062
100
AcDbEntity
  8
LC-003-005-----0
 62
     7
370
    25
100
AcDbLine
 10
724.211496
 20
444.197211
 30
0.0
 11
731.5174049999996
 21
451.50312
 31
0.0
  0
LINE
  5
306D
330
3062
100
AcDbEntity
  8
LC-003-005-----0
 62
     7
370
    25
100
AcDbLine
 10
696.6951799999996
 20
419.509322
 30
0.0
 11
705.495683
 21
428.309825
 31
0.0
  0
LINE
  5
306E
330
3062
100
AcDbEntity
  8
LC-003-005-----0
 62
     7
370
    25
100
AcDbLine
 10
721.383069
 20
444.197211
 30
0.0
 11
729.3813899999999
 21
452.195532
 31
0.0
  0
LINE
  5
306F
330
3062
100
AcDbEntity
  8
LC-003-005-----0
 62
     7
370
    25
100
AcDbLine
 10
696.966361
 20
422.6089299999999
 30
0.0
 11
705.7668639999997
 21
431.409433
 31
0.0
  0
LINE
  5
3070
330
3062
100
AcDbEntity
  8
LC-003-005-----0
 62
     7
370
    25
100
AcDbLine
 10
717.0546419999997
 20
442.697211
 30
0.0
 11
726.5546419999997
 21
452.197211
 31
0.0
  0
LINE
  5
3071
330
3062
100
AcDbEntity
  8
LC-003-005-----0
 62
     7
370
    25
100
AcDbLine
 10
697.2375409999997
 20
425.708537
 30
0.0
 11
706.038044
 21
434.50904
 31
0.0
  0
LINE
  5
3072
330
3062
100
AcDbEntity
  8
LC-003-005-----0
 62
     7
370
    25
100
AcDbLine
 10
714.226215
 20
442.697211
 30
0.0
 11
723.726215
 21
452.197211
 31
0.0
  0
LINE
  5
3073
330
3062
100
AcDbEntity
  8
LC-003-005-----0
 62
     7
370
    25
100
AcDbLine
 10
697.5087219999997
 20
428.8081449999999
 30
0.0
 11
706.3092249999997
 21
437.608648
 31
0.0
  0
LINE
  5
3074
330
3062
100
AcDbEntity
  8
LC-003-005-----0
 62
     7
370
    25
100
AcDbLine
 10
711.397699
 20
442.6971219999998
 30
0.0
 11
720.897787
 21
452.197211
 31
0.0
  0
LINE
  5
3075
330
3062
100
AcDbEntity
  8
LC-003-005-----0
 62
     7
370
    25
100
AcDbLine
 10
697.7799019999999
 20
431.907753
 30
0.0
 11
718.0693599999997
 21
452.197211
 31
0.0
  0
LINE
  5
3076
330
3062
100
AcDbEntity
  8
LC-003-005-----0
 62
     7
370
    25
100
AcDbLine
 10
698.051083
 20
435.0073599999998
 30
0.0
 11
715.240933
 21
452.197211
 31
0.0
  0
LINE
  5
3077
330
3062
100
AcDbEntity
  8
LC-003-005-----0
 62
     7
370
    25
100
AcDbLine
 10
698.322264
 20
438.106968
 30
0.0
 11
712.4125059999999
 21
452.197211
 31
0.0
  0
LINE
  5
3078
330
3062
100
AcDbEntity
  8
LC-003-005-----0
 62
     7
370
    25
100
AcDbLine
 10
698.5934440000002
 20
441.2065759999999
 30
0.0
 11
709.5840789999997
 21
452.197211
 31
0.0
  0
LINE
  5
3079
330
3062
100
AcDbEntity
  8
LC-003-005-----0
 62
     7
370
    25
100
AcDbLine
 10
698.864625
 20
444.306183
 30
0.0
 11
706.7556519999997
 21
452.197211
 31
0.0
  0
LINE
  5
307A
330
3062
100
AcDbEntity
  8
LC-003-005-----0
 62
     7
370
    25
100
AcDbLine
 10
699.135805
 20
447.4057909999998
 30
0.0
 11
703.922642
 21
452.192628
 31
0.0
  0
ENDBLK
  5
307B
330
3062
100
AcDbEntity
  8
0
100
AcDbBlockEnd
  0
BLOCK
  5
307D
330
307C
100
AcDbEntity
  8
0
100
AcDbBlockBegin
  2
*X2
 70
     1
 10
0.0
 20
0.0
 30
0.0
  3
*X2
  1

  4
*X2
  0
LINE
  5
307E
330
307C
100
AcDbEntity
  8
LC-003-005-----0
 62
     7
370
    25
100
AcDbLine
 10
745.455
 20
402.886413
 30
0.0
 11
747.602259
 21
400.7391539999998
 31
0.0
  0
LINE
  5
307F
330
307C
100
AcDbEntity
  8
LC-003-005-----0
 62
     7
370
    25
100
AcDbLine
 10
745.455
 20
405.7148399999999
 30
0.0
 11
750.6721309999996
 21
400.4977089999998
 31
0.0
  0
LINE
  5
3080
330
307C
100
AcDbEntity
  8
LC-003-005-----0
 62
     7
370
    25
100
AcDbLine
 10
745.455
 20
408.543267
 30
0.0
 11
753.742003
 21
400.2562639999998
 31
0.0
  0
LINE
  5
3081
330
307C
100
AcDbEntity
  8
LC-003-005-----0
 62
     7
370
    25
100
AcDbLine
 10
745.455
 20
411.3716939999997
 30
0.0
 11
756.811875
 21
400.0148189999999
 31
0.0
  0
LINE
  5
3082
330
307C
100
AcDbEntity
  8
LC-003-005-----0
 62
     7
370
    25
100
AcDbLine
 10
707.455
 20
452.2001209999998
 30
0.0
 11
707.4579110000001
 21
452.197211
 31
0.0
  0
LINE
  5
3083
330
307C
100
AcDbEntity
  8
LC-003-005-----0
 62
     7
370
    25
100
AcDbLine
 10
745.455
 20
414.200121
 30
0.0
 11
759.881747
 21
399.7733740000001
 31
0.0
  0
LINE
  5
3084
330
307C
100
AcDbEntity
  8
LC-003-005-----0
 62
     7
370
    25
100
AcDbLine
 10
707.455
 20
455.028548
 30
0.0
 11
710.286338
 21
452.197211
 31
0.0
  0
LINE
  5
3085
330
307C
100
AcDbEntity
  8
LC-003-005-----0
 62
     7
370
    25
100
AcDbLine
 10
745.455
 20
417.028548
 30
0.0
 11
762.951619
 21
399.531929
 31
0.0
  0
LINE
  5
3086
330
307C
100
AcDbEntity
  8
LC-003-005-----0
 62
     7
370
    25
100
AcDbLine
 10
707.455
 20
457.8569749999998
 30
0.0
 11
713.114765
 21
452.197211
 31
0.0
  0
LINE
  5
3087
330
307C
100
AcDbEntity
  8
LC-003-005-----0
 62
     7
370
    25
100
AcDbLine
 10
745.455
 20
419.8569749999998
 30
0.0
 11
764.455
 21
400.8569749999998
 31
0.0
  0
LINE
  5
3088
330
307C
100
AcDbEntity
  8
LC-003-005-----0
 62
     7
370
    25
100
AcDbLine
 10
707.455
 20
460.685403
 30
0.0
 11
715.9431919999997
 21
452.197211
 31
0.0
  0
LINE
  5
3089
330
307C
100
AcDbEntity
  8
LC-003-005-----0
 62
     7
370
    25
100
AcDbLine
 10
745.455
 20
422.685403
 30
0.0
 11
764.455
 21
403.6854029999998
 31
0.0
  0
LINE
  5
308A
330
307C
100
AcDbEntity
  8
LC-003-005-----0
 62
     7
370
    25
100
AcDbLine
 10
707.455
 20
463.51383
 30
0.0
 11
718.7716189999996
 21
452.197211
 31
0.0
  0
LINE
  5
308B
330
307C
100
AcDbEntity
  8
LC-003-005-----0
 62
     7
370
    25
100
AcDbLine
 10
745.455
 20
425.5138299999998
 30
0.0
 11
764.455
 21
406.51383
 31
0.0
  0
LINE
  5
308C
330
307C
100
AcDbEntity
  8
LC-003-005-----0
 62
     7
370
    25
100
AcDbLine
 10
707.455
 20
466.342257
 30
0.0
 11
721.600046
 21
452.197211
 31
0.0
  0
LINE
  5
308D
330
307C
100
AcDbEntity
  8
LC-003-005-----0
 62
     7
370
    25
100
AcDbLine
 10
745.455
 20
428.3422569999998
 30
0.0
 11
764.455
 21
409.3422569999998
 31
0.0
  0
LINE
  5
308E
330
307C
100
AcDbEntity
  8
LC-003-005-----0
 62
     7
370
    25
100
AcDbLine
 10
707.455
 20
469.170684
 30
0.0
 11
724.428473
 21
452.197211
 31
0.0
  0
LINE
  5
308F
330
307C
100
AcDbEntity
  8
LC-003-005-----0
 62
     7
370
    25
100
AcDbLine
 10
745.455
 20
431.170684
 30
0.0
 11
764.455
 21
412.1706839999998
 31
0.0
  0
LINE
  5
3090
330
307C
100
AcDbEntity
  8
LC-003-005-----0
 62
     7
370
    25
100
AcDbLine
 10
707.455
 20
471.999111
 30
0.0
 11
727.2568999999997
 21
452.197211
 31
0.0
  0
LINE
  5
3091
330
307C
100
AcDbEntity
  8
LC-003-005-----0
 62
     7
370
    25
100
AcDbLine
 10
745.455
 20
433.999111
 30
0.0
 11
764.455
 21
414.999111
 31
0.0
  0
LINE
  5
3092
330
307C
100
AcDbEntity
  8
LC-003-005-----0
 62
     7
370
    25
100
AcDbLine
 10
707.455
 20
474.8275379999998
 30
0.0
 11
730.085328
 21
452.197211
 31
0.0
  0
LINE
  5
3093
330
307C
100
AcDbEntity
  8
LC-003-005-----0
 62
     7
370
    25
100
AcDbLine
 10
745.455
 20
436.827538
 30
0.0
 11
764.455
 21
417.827538
 31
0.0
  0
LINE
  5
3094
330
307C
100
AcDbEntity
  8
LC-003-005-----0
 62
     7
370
    25
100
AcDbLine
 10
707.455
 20
477.655965
 30
0.0
 11
732.913755
 21
452.197211
 31
0.0
  0
LINE
  5
3095
330
307C
100
AcDbEntity
  8
LC-003-005-----0
 62
     7
370
    25
100
AcDbLine
 10
745.455
 20
439.655965
 30
0.0
 11
764.455
 21
420.655965
 31
0.0
  0
LINE
  5
3096
330
307C
100
AcDbEntity
  8
LC-003-005-----0
 62
     7
370
    25
100
AcDbLine
 10
707.455
 20
480.484392
 30
0.0
 11
735.742182
 21
452.197211
 31
0.0
  0
LINE
  5
3097
330
307C
100
AcDbEntity
  8
LC-003-005-----0
 62
     7
370
    25
100
AcDbLine
 10
745.455
 20
442.4843919999998
 30
0.0
 11
764.455
 21
423.484392
 31
0.0
  0
LINE
  5
3098
330
307C
100
AcDbEntity
  8
LC-003-005-----0
 62
     7
370
    25
100
AcDbLine
 10
707.455
 20
483.31282
 30
0.0
 11
738.570609
 21
452.197211
 31
0.0
  0
LINE
  5
3099
330
307C
100
AcDbEntity
  8
LC-003-005-----0
 62
     7
370
    25
100
AcDbLine
 10
745.455
 20
445.31282
 30
0.0
 11
764.455
 21
426.31282
 31
0.0
  0
LINE
  5
309A
330
307C
100
AcDbEntity
  8
LC-003-005-----0
 62
     7
370
    25
100
AcDbLine
 10
707.455
 20
486.1412469999998
 30
0.0
 11
741.399036
 21
452.197211
 31
0.0
  0
LINE
  5
309B
330
307C
100
AcDbEntity
  8
LC-003-005-----0
 62
     7
370
    25
100
AcDbLine
 10
745.455
 20
448.1412469999998
 30
0.0
 11
764.455
 21
429.141247
 31
0.0
  0
LINE
  5
309C
330
307C
100
AcDbEntity
  8
LC-003-005-----0
 62
     7
370
    25
100
AcDbLine
 10
707.455
 20
488.9696739999997
 30
0.0
 11
744.227463
 21
452.197211
 31
0.0
  0
LINE
  5
309D
330
307C
100
AcDbEntity
  8
LC-003-005-----0
 62
     7
370
    25
100
AcDbLine
 10
745.455
 20
450.9696739999998
 30
0.0
 11
764.455
 21
431.969674
 31
0.0
  0
LINE
  5
309E
330
307C
100
AcDbEntity
  8
LC-003-005-----0
 62
     7
370
    25
100
AcDbLine
 10
709.0558900000003
 20
490.197211
 30
0.0
 11
764.455
 21
434.7981009999998
 31
0.0
  0
LINE
  5
309F
330
307C
100
AcDbEntity
  8
LC-003-005-----0
 62
     7
370
    25
100
AcDbLine
 10
711.8843169999997
 20
490.197211
 30
0.0
 11
764.455
 21
437.626528
 31
0.0
  0
LINE
  5
30A0
330
307C
100
AcDbEntity
  8
LC-003-005-----0
 62
     7
370
    25
100
AcDbLine
 10
714.712745
 20
490.197211
 30
0.0
 11
764.455
 21
440.4549549999998
 31
0.0
  0
LINE
  5
30A1
330
307C
100
AcDbEntity
  8
LC-003-005-----0
 62
     7
370
    25
100
AcDbLine
 10
717.5411719999997
 20
490.197211
 30
0.0
 11
764.455
 21
443.2833819999998
 31
0.0
  0
LINE
  5
30A2
330
307C
100
AcDbEntity
  8
LC-003-005-----0
 62
     7
370
    25
100
AcDbLine
 10
720.3695989999999
 20
490.197211
 30
0.0
 11
764.455
 21
446.111809
 31
0.0
  0
LINE
  5
30A3
330
307C
100
AcDbEntity
  8
LC-003-005-----0
 62
     7
370
    25
100
AcDbLine
 10
723.198026
 20
490.197211
 30
0.0
 11
764.455
 21
448.940237
 31
0.0
  0
LINE
  5
30A4
330
307C
100
AcDbEntity
  8
LC-003-005-----0
 62
     7
370
    25
100
AcDbLine
 10
726.026453
 20
490.197211
 30
0.0
 11
764.455
 21
451.7686639999998
 31
0.0
  0
LINE
  5
30A5
330
307C
100
AcDbEntity
  8
LC-003-005-----0
 62
     7
370
    25
100
AcDbLine
 10
728.85488
 20
490.197211
 30
0.0
 11
766.8548799999999
 21
452.197211
 31
0.0
  0
LINE
  5
30A6
330
307C
100
AcDbEntity
  8
LC-003-005-----0
 62
     7
370
    25
100
AcDbLine
 10
731.683307
 20
490.197211
 30
0.0
 11
769.683307
 21
452.197211
 31
0.0
  0
LINE
  5
30A7
330
307C
100
AcDbEntity
  8
LC-003-005-----0
 62
     7
370
    25
100
AcDbLine
 10
734.5117339999997
 20
490.197211
 30
0.0
 11
772.5117339999997
 21
452.197211
 31
0.0
  0
LINE
  5
30A8
330
307C
100
AcDbEntity
  8
LC-003-005-----0
 62
     7
370
    25
100
AcDbLine
 10
737.340162
 20
490.197211
 30
0.0
 11
775.3401619999999
 21
452.197211
 31
0.0
  0
LINE
  5
30A9
330
307C
100
AcDbEntity
  8
LC-003-005-----0
 62
     7
370
    25
100
AcDbLine
 10
740.168589
 20
490.197211
 30
0.0
 11
777.693341
 21
452.6724579999998
 31
0.0
  0
LINE
  5
30AA
330
307C
100
AcDbEntity
  8
LC-003-005-----0
 62
     7
370
    25
100
AcDbLine
 10
742.997016
 20
490.197211
 30
0.0
 11
777.693341
 21
455.500885
 31
0.0
  0
LINE
  5
30AB
330
307C
100
AcDbEntity
  8
LC-003-005-----0
 62
     7
370
    25
100
AcDbLine
 10
745.8254429999997
 20
490.197211
 30
0.0
 11
777.693341
 21
458.329312
 31
0.0
  0
LINE
  5
30AC
330
307C
100
AcDbEntity
  8
LC-003-005-----0
 62
     7
370
    25
100
AcDbLine
 10
748.6538699999996
 20
490.197211
 30
0.0
 11
777.693341
 21
461.1577389999998
 31
0.0
  0
LINE
  5
30AD
330
307C
100
AcDbEntity
  8
LC-003-005-----0
 62
     7
370
    25
100
AcDbLine
 10
751.4822969999999
 20
490.197211
 30
0.0
 11
777.693341
 21
463.986166
 31
0.0
  0
LINE
  5
30AE
330
307C
100
AcDbEntity
  8
LC-003-005-----0
 62
     7
370
    25
100
AcDbLine
 10
754.310724
 20
490.197211
 30
0.0
 11
777.693341
 21
466.814594
 31
0.0
  0
LINE
  5
30AF
330
307C
100
AcDbEntity
  8
LC-003-005-----0
 62
     7
370
    25
100
AcDbLine
 10
757.1391509999997
 20
490.197211
 30
0.0
 11
777.693341
 21
469.6430209999999
 31
0.0
  0
LINE
  5
30B0
330
307C
100
AcDbEntity
  8
LC-003-005-----0
 62
     7
370
    25
100
AcDbLine
 10
759.967579
 20
490.197211
 30
0.0
 11
777.693341
 21
472.4714480000002
 31
0.0
  0
LINE
  5
30B1
330
307C
100
AcDbEntity
  8
LC-003-005-----0
 62
     7
370
    25
100
AcDbLine
 10
762.7960059999996
 20
490.197211
 30
0.0
 11
777.693341
 21
475.2998749999998
 31
0.0
  0
LINE
  5
30B2
330
307C
100
AcDbEntity
  8
LC-003-005-----0
 62
     7
370
    25
100
AcDbLine
 10
765.6244329999997
 20
490.197211
 30
0.0
 11
777.693341
 21
478.128302
 31
0.0
  0
LINE
  5
30B3
330
307C
100
AcDbEntity
  8
LC-003-005-----0
 62
     7
370
    25
100
AcDbLine
 10
768.45286
 20
490.197211
 30
0.0
 11
777.693341
 21
480.956729
 31
0.0
  0
LINE
  5
30B4
330
307C
100
AcDbEntity
  8
LC-003-005-----0
 62
     7
370
    25
100
AcDbLine
 10
771.281287
 20
490.197211
 30
0.0
 11
777.693341
 21
483.7851559999998
 31
0.0
  0
LINE
  5
30B5
330
307C
100
AcDbEntity
  8
LC-003-005-----0
 62
     7
370
    25
100
AcDbLine
 10
774.1097139999997
 20
490.197211
 30
0.0
 11
777.693341
 21
486.613583
 31
0.0
  0
LINE
  5
30B6
330
307C
100
AcDbEntity
  8
LC-003-005-----0
 62
     7
370
    25
100
AcDbLine
 10
776.938141
 20
490.197211
 30
0.0
 11
777.693341
 21
489.442011
 31
0.0
  0
ENDBLK
  5
30B7
330
307C
100
AcDbEntity
  8
0
100
AcDbBlockEnd
  0
BLOCK
  5
30FF
330
30F5
100
AcDbEntity
  8
0
100
AcDbBlockBegin
  2
*D3
 70
     1
 10
0.0
 20
0.0
 30
0.0
  3
*D3
  1

  0
LINE
  5
30F6
330
30F5
100
AcDbEntity
  8
0
 62
     0
370
    -2
100
AcDbLine
 10
1279.26169097301
 20
1280.51736308066
 30
0.0
 11
1281.544120119735
 21
1280.51736308066
 31
0.0
  0
LINE
  5
30F7
330
30F5
100
AcDbEntity
  8
0
 62
     0
370
    -2
100
AcDbLine
 10
1279.26169097301
 20
1297.52520308066
 30
0.0
 11
1281.544120119735
 21
1297.52520308066
 31
0.0
  0
LINE
  5
30F8
330
30F5
100
AcDbEntity
  8
0
 62
     0
370
    -2
100
AcDbLine
 10
1281.344120119735
 20
1280.71736308066
 30
0.0
 11
1281.344120119735
 21
1297.32520308066
 31
0.0
  0
SOLID
  5
30F9
330
30F5
100
AcDbEntity
  8
0
 62
     0
100
AcDbTrace
 10
1281.310786786401
 20
1280.71736308066
 30
0.0
 11
1281.377453453068
 21
1280.71736308066
 31
0.0
 12
1281.344120119735
 22
1280.51736308066
 32
0.0
 13
1281.344120119735
 23
1280.51736308066
 33
0.0
  0
SOLID
  5
30FA
330
30F5
100
AcDbEntity
  8
0
 62
     0
100
AcDbTrace
 10
1281.310786786401
 20
1297.32520308066
 30
0.0
 11
1281.377453453068
 21
1297.32520308066
 31
0.0
 12
1281.344120119735
 22
1297.52520308066
 32
0.0
 13
1281.344120119735
 23
1297.52520308066
 33
0.0
  0
MTEXT
  5
30FB
330
30F5
100
AcDbEntity
  8
0
 62
     0
100
AcDbMText
 10
1281.097270119734
 20
1289.02128308066
 30
0.0
 40
0.3937
 41
0.0
 46
0.0
 71
     5
 72
     1
  1
\A1;17.0078
  7
스타일2
 11
0.0000000000000001
 21
1.0
 31
0.0
 73
     1
 44
1.0
  0
POINT
  5
30FC
330
30F5
100
AcDbEntity
  8
Defpoints
 62
     0
100
AcDbPoint
 10
1279.16169097301
 20
1280.51736308066
 30
0.0
  0
POINT
  5
30FD
330
30F5
100
AcDbEntity
  8
Defpoints
 62
     0
100
AcDbPoint
 10
1279.16169097301
 20
1297.52520308066
 30
0.0
  0
POINT
  5
30FE
330
30F5
100
AcDbEntity
  8
Defpoints
 62
     0
100
AcDbPoint
 10
1281.344120119735
 20
1297.52520308066
 30
0.0
  0
ENDBLK
  5
3100
330
30F5
100
AcDbEntity
  8
0
100
AcDbBlockEnd
  0
BLOCK
  5
310C
330
3102
100
AcDbEntity
  8
0
100
AcDbBlockBegin
  2
*D4
 70
     1
 10
0.0
 20
0.0
 30
0.0
  3
*D4
  1

  0
LINE
  5
3103
330
3102
100
AcDbEntity
  8
0
 62
     0
370
    -2
100
AcDbLine
 10
1249.31923097301
 20
1281.51972308066
 30
0.0
 11
1249.31923097301
 21
1279.300385811046
 31
0.0
  0
LINE
  5
3104
330
3102
100
AcDbEntity
  8
0
 62
     0
370
    -2
100
AcDbLine
 10
1280.26405097301
 20
1281.51972308066
 30
0.0
 11
1280.26405097301
 21
1279.300385811046
 31
0.0
  0
LINE
  5
3105
330
3102
100
AcDbEntity
  8
0
 62
     0
370
    -2
100
AcDbLine
 10
1249.51923097301
 20
1279.500385811046
 30
0.0
 11
1280.064050973011
 21
1279.500385811046
 31
0.0
  0
SOLID
  5
3106
330
3102
100
AcDbEntity
  8
0
 62
     0
100
AcDbTrace
 10
1249.51923097301
 20
1279.533719144379
 30
0.0
 11
1249.51923097301
 21
1279.467052477713
 31
0.0
 12
1249.31923097301
 22
1279.500385811046
 32
0.0
 13
1249.31923097301
 23
1279.500385811046
 33
0.0
  0
SOLID
  5
3107
330
3102
100
AcDbEntity
  8
0
 62
     0
100
AcDbTrace
 10
1280.064050973011
 20
1279.533719144379
 30
0.0
 11
1280.064050973011
 21
1279.467052477713
 31
0.0
 12
1280.26405097301
 22
1279.500385811046
 32
0.0
 13
1280.26405097301
 23
1279.500385811046
 33
0.0
  0
MTEXT
  5
3108
330
3102
100
AcDbEntity
  8
0
 62
     0
100
AcDbMText
 10
1264.79164097301
 20
1279.747235811046
 30
0.0
 40
0.3937
 41
0.0
 46
0.0
 71
     5
 72
     1
  1
\A1;30.9448
  7
스타일2
 73
     1
 44
1.0
  0
POINT
  5
3109
330
3102
100
AcDbEntity
  8
Defpoints
 62
     0
100
AcDbPoint
 10
1249.31923097301
 20
1281.61972308066
 30
0.0
  0
POINT
  5
310A
330
3102
100
AcDbEntity
  8
Defpoints
 62
     0
100
AcDbPoint
 10
1280.26405097301
 20
1281.61972308066
 30
0.0
  0
POINT
  5
310B
330
3102
100
AcDbEntity
  8
Defpoints
 62
     0
100
AcDbPoint
 10
1280.26405097301
 20
1279.500385811046
 30
0.0
  0
ENDBLK
  5
310D
330
3102
100
AcDbEntity
  8
0
100
AcDbBlockEnd
  0
BLOCK
  5
3115
330
310F
100
AcDbEntity
  8
0
100
AcDbBlockBegin
  2
*D5
 70
     1
 10
0.0
 20
0.0
 30
0.0
  3
*D5
  1

  0
LINE
  5
3110
330
310F
100
AcDbEntity
  8
0
 62
     0
370
    -2
100
AcDbLine
 10
1251.677353684342
 20
1295.063737244321
 30
0.0
 11
1249.809221335469
 21
1297.085607742223
 31
0.0
  0
MTEXT
  5
3111
330
310F
100
AcDbEntity
  8
0
 62
     0
100
AcDbMText
 10
1251.134520814853
 20
1296.014989516349
 30
0.0
 40
0.3937
 41
0.0
 46
0.0
 71
     5
 72
     1
  1
\A1;R1.1024
  7
스타일2
 11
0.6786311866014314
 21
-0.7344792118038014
 31
0.0
 73
     1
 44
1.0
  0
SOLID
  5
3112
330
310F
100
AcDbEntity
  8
0
 62
     0
100
AcDbTrace
 10
1249.833703975862
 20
1297.108228781777
 30
0.0
 11
1249.784738695075
 21
1297.06298670267
 31
0.0
 12
1249.673495098148
 22
1297.232503584584
 32
0.0
 13
1249.673495098148
 23
1297.232503584584
 33
0.0
  0
POINT
  5
3113
330
310F
100
AcDbEntity
  8
Defpoints
 62
     0
100
AcDbPoint
 10
1249.673495098148
 20
1297.232503584584
 30
0.0
  0
POINT
  5
3114
330
310F
100
AcDbEntity
  8
Defpoints
 62
     0
100
AcDbPoint
 10
1250.42159097301
 20
1296.42284308066
 30
0.0
  0
ENDBLK
  5
3116
330
310F
100
AcDbEntity
  8
0
100
AcDbBlockEnd
  0
BLOCK
  5
3124
330
3118
100
AcDbEntity
  8
0
100
AcDbBlockBegin
  2
*D6
 70
     1
 10
0.0
 20
0.0
 30
0.0
  3
*D6
  1

  0
LINE
  5
3119
330
3118
100
AcDbEntity
  8
0
 62
     0
370
    -2
100
AcDbLine
 10
1267.93776286973
 20
1290.28873676937
 30
0.0
 11
1267.93776286973
 21
1292.138233373838
 31
0.0
  0
LINE
  5
311A
330
3118
100
AcDbEntity
  8
0
 62
     0
370
    -2
100
AcDbLine
 10
1268.06840607301
 20
1291.78479676937
 30
0.0
 11
1268.06840607301
 21
1292.138233373838
 31
0.0
  0
LINE
  5
311B
330
3118
100
AcDbEntity
  8
0
 62
     0
370
    -2
100
AcDbLine
 10
1267.73776286973
 20
1291.938233373838
 30
0.0
 11
1267.53776286973
 21
1291.938233373838
 31
0.0
  0
LINE
  5
311C
330
3118
100
AcDbEntity
  8
0
 62
     0
370
    -2
100
AcDbLine
 10
1268.26840607301
 20
1291.938233373838
 30
0.0
 11
1270.274439406344
 21
1291.938233373838
 31
0.0
  0
LINE
  5
311D
330
3118
100
AcDbEntity
  8
0
 62
     0
370
    -2
100
AcDbLine
 10
1267.93776286973
 20
1291.938233373838
 30
0.0
 11
1268.06840607301
 21
1291.938233373838
 31
0.0
  0
SOLID
  5
311E
330
3118
100
AcDbEntity
  8
0
 62
     0
100
AcDbTrace
 10
1267.73776286973
 20
1291.971566707172
 30
0.0
 11
1267.73776286973
 21
1291.904900040505
 31
0.0
 12
1267.93776286973
 22
1291.938233373838
 32
0.0
 13
1267.93776286973
 23
1291.938233373838
 33
0.0
  0
SOLID
  5
311F
330
3118
100
AcDbEntity
  8
0
 62
     0
100
AcDbTrace
 10
1268.26840607301
 20
1291.971566707172
 30
0.0
 11
1268.26840607301
 21
1291.904900040505
 31
0.0
 12
1268.06840607301
 22
1291.938233373838
 32
0.0
 13
1268.06840607301
 23
1291.938233373838
 33
0.0
  0
MTEXT
  5
3120
330
3118
100
AcDbEntity
  8
0
 62
     0
100
AcDbMText
 10
1269.371422739677
 20
1292.185083373838
 30
0.0
 40
0.3937
 41
0.0
 46
0.0
 71
     5
 72
     1
  1
\A1;0.1306
  7
스타일2
 73
     1
 44
1.0
  0
POINT
  5
3121
330
3118
100
AcDbEntity
  8
Defpoints
 62
     0
100
AcDbPoint
 10
1267.93776286973
 20
1290.18873676937
 30
0.0
  0
POINT
  5
3122
330
3118
100
AcDbEntity
  8
Defpoints
 62
     0
100
AcDbPoint
 10
1268.06840607301
 20
1291.68479676937
 30
0.0
  0
POINT
  5
3123
330
3118
100
AcDbEntity
  8
Defpoints
 62
     0
100
AcDbPoint
 10
1268.06840607301
 20
1291.938233373838
 30
0.0
  0
ENDBLK
  5
3125
330
3118
100
AcDbEntity
  8
0
100
AcDbBlockEnd
  0
BLOCK
  5
31AC
330
31A1
100
AcDbEntity
  8
0
100
AcDbBlockBegin
  2
A$C5E5C7AF6
 70
     0
 10
0.0
 20
0.0
 30
0.0
  3
A$C5E5C7AF6
  1

  0
ARC
  5
31A2
330
31A1
100
AcDbEntity
  8
0
 48
3.0
100
AcDbCircle
 10
10.49604200699707
 20
-181.1019999442684
 30
0.0
 40
196.8499999992126
100
AcDbArc
 50
90.0
 51
92.19298310358579
  0
ARC
  5
31A3
330
31A1
100
AcDbEntity
  8
0
 48
3.0
100
AcDbCircle
 10
133.8580000065035
 20
7.87400005497534
 30
0.0
 40
133.8579999994645
100
AcDbArc
 50
177.9243198827217
 51
180.0
  0
ARC
  5
31A4
330
31A1
100
AcDbEntity
  8
0
 48
3.0
100
AcDbCircle
 10
3.077986657287281
 20
12.61390051984494
 30
0.0
 40
2.992119999988031
100
AcDbArc
 50
92.19298310358579
 51
177.9243198827217
  0
ARC
  5
31A5
330
31A1
100
AcDbEntity
  8
0
 48
3.0
100
AcDbCircle
 10
-112.8659159925112
 20
7.87400005497534
 30
0.0
 40
133.8579999994645
100
AcDbArc
 50
0.0
 51
2.075680117278249
  0
ARC
  5
31A6
330
31A1
100
AcDbEntity
  8
0
 48
3.0
100
AcDbCircle
 10
17.91409735670322
 20
12.61390051984494
 30
0.0
 40
2.992119999988031
100
AcDbArc
 50
2.075680117278249
 51
87.8070168964142
  0
ARC
  5
31A7
330
31A1
100
AcDbEntity
  8
0
 48
3.0
100
AcDbCircle
 10
10.49604200699707
 20
196.8500000542199
 30
0.0
 40
196.8499999992126
100
AcDbArc
 50
267.8070168964142
 51
270.0
  0
ARC
  5
31A8
330
31A1
100
AcDbEntity
  8
0
 48
3.0
100
AcDbCircle
 10
3.077986657287281
 20
3.134099590105734
 30
0.0
 40
2.992119999988031
100
AcDbArc
 50
182.0756801172782
 51
267.8070168964142
  0
ARC
  5
31A9
330
31A1
100
AcDbEntity
  8
0
 48
3.0
100
AcDbCircle
 10
17.91409735670322
 20
3.134099590105734
 30
0.0
 40
2.992119999988031
100
AcDbArc
 50
272.1929831035858
 51
357.9243198827218
  0
ENDBLK
  5
31AD
330
31A1
100
AcDbEntity
  8
0
100
AcDbBlockEnd
  0
BLOCK
  5
31AF
330
31AE
100
AcDbEntity
  8
0
 62
     5
100
AcDbBlockBegin
  2
*D8
 70
     1
 10
0.0
 20
0.0
 30
0.0
  3
*D8
  1

  0
LINE
  5
31B0
330
31AE
100
AcDbEntity
  8
0
 62
     0
370
    -2
100
AcDbLine
 10
546.3235598921303
 20
610.3827218287356
 30
0.0
 11
559.1911998360236
 21
610.3827218287356
 31
0.0
  0
LINE
  5
31B1
330
31AE
100
AcDbEntity
  8
0
 62
     0
370
    -2
100
AcDbLine
 10
546.3235598921303
 20
626.1307218286717
 30
0.0
 11
559.1911998360236
 21
626.1307218286717
 31
0.0
  0
LINE
  5
31B2
330
31AE
100
AcDbEntity
  8
0
 62
     0
370
    -2
100
AcDbLine
 10
558.9911998360236
 20
610.582721828736
 30
0.0
 11
558.9911998360236
 21
625.9307218286717
 31
0.0
  0
SOLID
  5
31B3
330
31AE
100
AcDbEntity
  8
0
 62
     0
100
AcDbTrace
 10
558.9578665026903
 20
610.582721828736
 30
0.0
 11
559.024533169357
 21
610.582721828736
 31
0.0
 12
558.9911998360236
 22
610.3827218287356
 32
0.0
 13
558.9911998360236
 23
610.3827218287356
 33
0.0
  0
SOLID
  5
31B4
330
31AE
100
AcDbEntity
  8
0
 62
     0
100
AcDbTrace
 10
558.9578665026903
 20
625.9307218286717
 30
0.0
 11
559.024533169357
 21
625.9307218286717
 31
0.0
 12
558.9911998360236
 22
626.1307218286717
 32
0.0
 13
558.9911998360236
 23
626.1307218286717
 33
0.0
  0
MTEXT
  5
31B5
330
31AE
100
AcDbEntity
  8
0
 62
     0
100
AcDbMText
 10
558.7443498360236
 20
618.256721828704
 30
0.0
 40
0.3937
 41
0.0
 46
0.0
 71
     5
 72
     1
  1
\A1;15.748
  7
스타일2
 11
0.0000000000000001
 21
1.0
 31
0.0
 73
     1
 44
1.0
  0
POINT
  5
31B6
330
31AE
100
AcDbEntity
  8
Defpoints
 62
     0
100
AcDbPoint
 10
546.2235598921303
 20
610.3827218287356
 30
0.0
  0
POINT
  5
31B7
330
31AE
100
AcDbEntity
  8
Defpoints
 62
     0
100
AcDbPoint
 10
546.2235598921303
 20
626.1307218286717
 30
0.0
  0
POINT
  5
31B8
330
31AE
100
AcDbEntity
  8
Defpoints
 62
     0
100
AcDbPoint
 10
558.9911998360236
 20
626.1307218286717
 30
0.0
  0
ENDBLK
  5
31B9
330
31AE
100
AcDbEntity
  8
0
 62
     5
100
AcDbBlockEnd
  0
BLOCK
  5
31BB
330
31BA
100
AcDbEntity
  8
0
 62
     5
100
AcDbBlockBegin
  2
*D9
 70
     1
 10
0.0
 20
0.0
 30
0.0
  3
*D9
  1

  0
LINE
  5
31BC
330
31BA
100
AcDbEntity
  8
0
 62
     0
370
    -2
100
AcDbLine
 10
535.7275178921716
 20
618.1567218287048
 30
0.0
 11
535.7275178921716
 21
607.8420296293367
 31
0.0
  0
LINE
  5
31BD
330
31BA
100
AcDbEntity
  8
0
 62
     0
370
    -2
100
AcDbLine
 10
556.7196018920856
 20
618.1567218287027
 30
0.0
 11
556.7196018920856
 21
607.8420296293367
 31
0.0
  0
LINE
  5
31BE
330
31BA
100
AcDbEntity
  8
0
 62
     0
370
    -2
100
AcDbLine
 10
535.9275178921716
 20
608.0420296293367
 30
0.0
 11
556.5196018920857
 21
608.0420296293367
 31
0.0
  0
SOLID
  5
31BF
330
31BA
100
AcDbEntity
  8
0
 62
     0
100
AcDbTrace
 10
535.9275178921716
 20
608.0753629626699
 30
0.0
 11
535.9275178921716
 21
608.0086962960032
 31
0.0
 12
535.7275178921716
 22
608.0420296293367
 32
0.0
 13
535.7275178921716
 23
608.0420296293367
 33
0.0
  0
SOLID
  5
31C0
330
31BA
100
AcDbEntity
  8
0
 62
     0
100
AcDbTrace
 10
556.5196018920857
 20
608.0753629626699
 30
0.0
 11
556.5196018920857
 21
608.0086962960032
 31
0.0
 12
556.7196018920856
 22
608.0420296293367
 32
0.0
 13
556.7196018920856
 23
608.0420296293367
 33
0.0
  0
MTEXT
  5
31C1
330
31BA
100
AcDbEntity
  8
0
 62
     0
100
AcDbMText
 10
546.2235598921286
 20
608.2888796293367
 30
0.0
 40
0.3937
 41
0.0
 46
0.0
 71
     5
 72
     1
  1
\A1;20.9921
  7
스타일2
 73
     1
 44
1.0
  0
POINT
  5
31C2
330
31BA
100
AcDbEntity
  8
Defpoints
 62
     0
100
AcDbPoint
 10
535.7275178921716
 20
618.2567218287047
 30
0.0
  0
POINT
  5
31C3
330
31BA
100
AcDbEntity
  8
Defpoints
 62
     0
100
AcDbPoint
 10
556.7196018920856
 20
618.2567218287029
 30
0.0
  0
POINT
  5
31C4
330
31BA
100
AcDbEntity
  8
Defpoints
 62
     0
100
AcDbPoint
 10
556.7196018920856
 20
608.0420296293367
 30
0.0
  0
ENDBLK
  5
31C5
330
31BA
100
AcDbEntity
  8
0
 62
     5
100
AcDbBlockEnd
  0
BLOCK
  5
31E1
330
31E0
100
AcDbEntity
  8
0
100
AcDbBlockBegin
  2
*D10
 70
     1
 10
0.0
 20
0.0
 30
0.0
  3
*D10
  1

  0
LINE
  5
320A
330
31E0
100
AcDbEntity
  8
0
 62
     0
370
    -2
100
AcDbLine
 10
1260.51137911771
 20
1279.382206235255
 30
0.0
 11
1273.379019061603
 21
1279.382206235255
 31
0.0
  0
LINE
  5
320B
330
31E0
100
AcDbEntity
  8
0
 62
     0
370
    -2
100
AcDbLine
 10
1260.51137911771
 20
1295.130206235191
 30
0.0
 11
1273.379019061603
 21
1295.130206235191
 31
0.0
  0
LINE
  5
320C
330
31E0
100
AcDbEntity
  8
0
 62
     0
370
    -2
100
AcDbLine
 10
1273.179019061603
 20
1279.582206235255
 30
0.0
 11
1273.179019061603
 21
1294.930206235191
 31
0.0
  0
SOLID
  5
320D
330
31E0
100
AcDbEntity
  8
0
 62
     0
100
AcDbTrace
 10
1273.145685728269
 20
1279.582206235255
 30
0.0
 11
1273.212352394936
 21
1279.582206235255
 31
0.0
 12
1273.179019061603
 22
1279.382206235255
 32
0.0
 13
1273.179019061603
 23
1279.382206235255
 33
0.0
  0
SOLID
  5
320E
330
31E0
100
AcDbEntity
  8
0
 62
     0
100
AcDbTrace
 10
1273.145685728269
 20
1294.930206235191
 30
0.0
 11
1273.212352394936
 21
1294.930206235191
 31
0.0
 12
1273.179019061603
 22
1295.130206235191
 32
0.0
 13
1273.179019061603
 23
1295.130206235191
 33
0.0
  0
MTEXT
  5
320F
330
31E0
100
AcDbEntity
  8
0
 62
     0
100
AcDbMText
 10
1272.932169061603
 20
1287.256206235223
 30
0.0
 40
0.3937
 41
0.0
 46
0.0
 71
     5
 72
     1
  1
\A1;15.748
  7
스타일2
 11
0.0000000000000001
 21
1.0
 31
0.0
 73
     1
 44
1.0
  0
POINT
  5
3210
330
31E0
100
AcDbEntity
  8
Defpoints
 62
     0
100
AcDbPoint
 10
1260.41137911771
 20
1279.382206235255
 30
0.0
  0
POINT
  5
3211
330
31E0
100
AcDbEntity
  8
Defpoints
 62
     0
100
AcDbPoint
 10
1260.41137911771
 20
1295.130206235191
 30
0.0
  0
POINT
  5
3212
330
31E0
100
AcDbEntity
  8
Defpoints
 62
     0
100
AcDbPoint
 10
1273.179019061603
 20
1295.130206235191
 30
0.0
  0
ENDBLK
  5
31E2
330
31E0
100
AcDbEntity
  8
0
100
AcDbBlockEnd
  0
BLOCK
  5
31ED
330
31EC
100
AcDbEntity
  8
0
100
AcDbBlockBegin
  2
*D11
 70
     1
 10
0.0
 20
0.0
 30
0.0
  3
*D11
  1

  0
LINE
  5
3213
330
31EC
100
AcDbEntity
  8
0
 62
     0
370
    -2
100
AcDbLine
 10
1249.915337117751
 20
1287.156206235224
 30
0.0
 11
1249.915337117751
 21
1276.841514035856
 31
0.0
  0
LINE
  5
3214
330
31EC
100
AcDbEntity
  8
0
 62
     0
370
    -2
100
AcDbLine
 10
1270.907421117665
 20
1287.156206235222
 30
0.0
 11
1270.907421117665
 21
1276.841514035856
 31
0.0
  0
LINE
  5
3215
330
31EC
100
AcDbEntity
  8
0
 62
     0
370
    -2
100
AcDbLine
 10
1250.115337117751
 20
1277.041514035856
 30
0.0
 11
1270.707421117665
 21
1277.041514035856
 31
0.0
  0
SOLID
  5
3216
330
31EC
100
AcDbEntity
  8
0
 62
     0
100
AcDbTrace
 10
1250.115337117751
 20
1277.074847369189
 30
0.0
 11
1250.115337117751
 21
1277.008180702523
 31
0.0
 12
1249.915337117751
 22
1277.041514035856
 32
0.0
 13
1249.915337117751
 23
1277.041514035856
 33
0.0
  0
SOLID
  5
3217
330
31EC
100
AcDbEntity
  8
0
 62
     0
100
AcDbTrace
 10
1270.707421117665
 20
1277.074847369189
 30
0.0
 11
1270.707421117665
 21
1277.008180702523
 31
0.0
 12
1270.907421117665
 22
1277.041514035856
 32
0.0
 13
1270.907421117665
 23
1277.041514035856
 33
0.0
  0
MTEXT
  5
3218
330
31EC
100
AcDbEntity
  8
0
 62
     0
100
AcDbMText
 10
1260.411379117708
 20
1277.288364035856
 30
0.0
 40
0.3937
 41
0.0
 46
0.0
 71
     5
 72
     1
  1
\A1;20.9921
  7
스타일2
 73
     1
 44
1.0
  0
POINT
  5
3219
330
31EC
100
AcDbEntity
  8
Defpoints
 62
     0
100
AcDbPoint
 10
1249.915337117751
 20
1287.256206235224
 30
0.0
  0
POINT
  5
321A
330
31EC
100
AcDbEntity
  8
Defpoints
 62
     0
100
AcDbPoint
 10
1270.907421117665
 20
1287.256206235222
 30
0.0
  0
POINT
  5
321B
330
31EC
100
AcDbEntity
  8
Defpoints
 62
     0
100
AcDbPoint
 10
1270.907421117665
 20
1277.041514035856
 30
0.0
  0
ENDBLK
  5
31EE
330
31EC
100
AcDbEntity
  8
0
100
AcDbBlockEnd
  0
BLOCK
  5
332E
330
332D
100
AcDbEntity
  8
0
100
AcDbBlockBegin
  2
_ClosedBlank
 70
     0
 10
0.0
 20
0.0
 30
0.0
  3
_ClosedBlank
  1

  0
LINE
  5
332F
330
332D
100
AcDbEntity
  8
0
  6
ByBlock
 62
     0
370
    -2
100
AcDbLine
 10
-1.0
 20
0.1666666666666666
 30
0.0
 11
0.0
 21
0.0
 31
0.0
  0
LINE
  5
3330
330
332D
100
AcDbEntity
  8
0
  6
ByBlock
 62
     0
370
    -2
100
AcDbLine
 10
0.0
 20
0.0
 30
0.0
 11
-1.0
 21
-0.1666666666666666
 31
0.0
  0
LINE
  5
3331
330
332D
100
AcDbEntity
  8
0
  6
ByBlock
 62
     0
370
    -2
100
AcDbLine
 10
-1.0
 20
0.1666666666666666
 30
0.0
 11
-1.0
 21
-0.1666666666666666
 31
0.0
  0
ENDBLK
  5
3332
330
332D
100
AcDbEntity
  8
0
100
AcDbBlockEnd
  0
BLOCK
  5
3334
330
3333
100
AcDbEntity
  8
0
100
AcDbBlockBegin
  2
*D13
 70
     1
 10
0.0
 20
0.0
 30
0.0
  3
*D13
  1

  0
LINE
  5
3335
330
3333
100
AcDbEntity
  8
0
 62
     0
370
    -2
100
AcDbLine
 10
8963.530670702192
 20
2215.296727894825
 30
0.0
 11
8967.738769699741
 21
2215.296727894825
 31
0.0
  0
LINE
  5
3336
330
3333
100
AcDbEntity
  8
0
 62
     0
370
    -2
100
AcDbLine
 10
8963.530670702192
 20
2231.296736534825
 30
0.0
 11
8967.738769699741
 21
2231.296736534825
 31
0.0
  0
LINE
  5
3337
330
3333
100
AcDbEntity
  8
0
 62
     0
370
    -2
100
AcDbLine
 10
8966.488769699742
 20
2216.296727894825
 30
0.0
 11
8966.488769699742
 21
2230.296736534825
 31
0.0
  0
INSERT
  5
3338
330
3333
100
AcDbEntity
  8
0
 62
     0
370
    -2
100
AcDbBlockReference
  2
_ClosedBlank
 10
8966.488769699742
 20
2215.296727894825
 30
0.0
 50
270.0
  0
INSERT
  5
3339
330
3333
100
AcDbEntity
  8
0
 62
     0
370
    -2
100
AcDbBlockReference
  2
_ClosedBlank
 10
8966.488769699742
 20
2231.296736534825
 30
0.0
 50
90.0
  0
MTEXT
  5
333A
330
3333
100
AcDbEntity
  8
0
 62
     0
100
AcDbMText
 10
8965.36376969974
 20
2223.296732214826
 30
0.0
 40
1.0
 41
0.0
 46
0.0
 71
     5
 72
     1
  1
16
 11
0.0000000000000001
 21
1.0
 31
0.0
 73
     1
 44
1.0
  0
POINT
  5
333B
330
3333
100
AcDbEntity
  8
Defpoints
 62
     0
100
AcDbPoint
 10
8963.030670702192
 20
2215.296727894825
 30
0.0
  0
POINT
  5
333C
330
3333
100
AcDbEntity
  8
Defpoints
 62
     0
100
AcDbPoint
 10
8963.030670702192
 20
2231.296736534825
 30
0.0
  0
POINT
  5
333D
330
3333
100
AcDbEntity
  8
Defpoints
 62
     0
100
AcDbPoint
 10
8966.488769699742
 20
2231.296736534825
 30
0.0
  0
ENDBLK
  5
333E
330
3333
100
AcDbEntity
  8
0
100
AcDbBlockEnd
  0
BLOCK
  5
3340
330
333F
100
AcDbEntity
  8
0
100
AcDbBlockBegin
  2
*D14
 70
     1
 10
0.0
 20
0.0
 30
0.0
  3
*D14
  1

  0
LINE
  5
3341
330
333F
100
AcDbEntity
  8
0
 62
     0
370
    -2
100
AcDbLine
 10
8948.424363602191
 20
2215.190428894826
 30
0.0
 11
8948.424363602191
 21
2211.479958729194
 31
0.0
  0
LINE
  5
3342
330
333F
100
AcDbEntity
  8
0
 62
     0
370
    -2
100
AcDbLine
 10
8963.424371702194
 20
2215.190428894826
 30
0.0
 11
8963.424371702194
 21
2211.479958729194
 31
0.0
  0
LINE
  5
3343
330
333F
100
AcDbEntity
  8
0
 62
     0
370
    -2
100
AcDbLine
 10
8949.42436360219
 20
2212.729958729193
 30
0.0
 11
8962.424371702191
 21
2212.729958729193
 31
0.0
  0
INSERT
  5
3344
330
333F
100
AcDbEntity
  8
0
 62
     0
370
    -2
100
AcDbBlockReference
  2
_ClosedBlank
 10
8948.424363602191
 20
2212.729958729193
 30
0.0
 50
180.0
  0
INSERT
  5
3345
330
333F
100
AcDbEntity
  8
0
 62
     0
370
    -2
100
AcDbBlockReference
  2
_ClosedBlank
 10
8963.424371702194
 20
2212.729958729193
 30
0.0
  0
MTEXT
  5
3346
330
333F
100
AcDbEntity
  8
0
 62
     0
100
AcDbMText
 10
8955.924367652192
 20
2213.854958729193
 30
0.0
 40
1.0
 41
0.0
 46
0.0
 71
     5
 72
     1
  1
15
 73
     1
 44
1.0
  0
POINT
  5
3347
330
333F
100
AcDbEntity
  8
Defpoints
 62
     0
100
AcDbPoint
 10
8948.424363602191
 20
2215.690428894824
 30
0.0
  0
POINT
  5
3348
330
333F
100
AcDbEntity
  8
Defpoints
 62
     0
100
AcDbPoint
 10
8963.424371702194
 20
2215.690428894824
 30
0.0
  0
POINT
  5
3349
330
333F
100
AcDbEntity
  8
Defpoints
 62
     0
100
AcDbPoint
 10
8963.424371702194
 20
2212.729958729193
 30
0.0
  0
ENDBLK
  5
334A
330
333F
100
AcDbEntity
  8
0
100
AcDbBlockEnd
  0
BLOCK
  5
337C
330
3372
100
AcDbEntity
  8
0
100
AcDbBlockBegin
  2
*D15
 70
     1
 10
0.0
 20
0.0
 30
0.0
  3
*D15
  1

  0
LINE
  5
33A4
330
3372
100
AcDbEntity
  8
0
 62
     0
370
    -2
100
AcDbLine
 10
1289.209899697158
 20
1282.531028327383
 30
0.0
 11
1293.417998694705
 21
1282.531028327383
 31
0.0
  0
LINE
  5
33A5
330
3372
100
AcDbEntity
  8
0
 62
     0
370
    -2
100
AcDbLine
 10
1289.209899697158
 20
1298.531036967383
 30
0.0
 11
1293.417998694705
 21
1298.531036967383
 31
0.0
  0
LINE
  5
33A6
330
3372
100
AcDbEntity
  8
0
 62
     0
370
    -2
100
AcDbLine
 10
1292.167998694705
 20
1283.531028327383
 30
0.0
 11
1292.167998694705
 21
1297.531036967383
 31
0.0
  0
INSERT
  5
33A7
330
3372
100
AcDbEntity
  8
0
 62
     0
370
    -2
100
AcDbBlockReference
  2
_ClosedBlank
 10
1292.167998694705
 20
1282.531028327383
 30
0.0
 50
270.0
  0
INSERT
  5
33A8
330
3372
100
AcDbEntity
  8
0
 62
     0
370
    -2
100
AcDbBlockReference
  2
_ClosedBlank
 10
1292.167998694705
 20
1298.531036967383
 30
0.0
 50
90.0
  0
MTEXT
  5
33A9
330
3372
100
AcDbEntity
  8
0
 62
     0
100
AcDbMText
 10
1291.042998694705
 20
1290.531032647383
 30
0.0
 40
1.0
 41
0.0
 46
0.0
 71
     5
 72
     1
  1
16
 11
0.0000000000000001
 21
1.0
 31
0.0
 73
     1
 44
1.0
  0
POINT
  5
33AA
330
3372
100
AcDbEntity
  8
Defpoints
 62
     0
100
AcDbPoint
 10
1288.709899697158
 20
1282.531028327383
 30
0.0
  0
POINT
  5
33AB
330
3372
100
AcDbEntity
  8
Defpoints
 62
     0
100
AcDbPoint
 10
1288.709899697158
 20
1298.531036967383
 30
0.0
  0
POINT
  5
33AC
330
3372
100
AcDbEntity
  8
Defpoints
 62
     0
100
AcDbPoint
 10
1292.167998694705
 20
1298.531036967383
 30
0.0
  0
ENDBLK
  5
337D
330
3372
100
AcDbEntity
  8
0
100
AcDbBlockEnd
  0
BLOCK
  5
3388
330
337E
100
AcDbEntity
  8
0
100
AcDbBlockBegin
  2
*D16
 70
     1
 10
0.0
 20
0.0
 30
0.0
  3
*D16
  1

  0
LINE
  5
33AD
330
337E
100
AcDbEntity
  8
0
 62
     0
370
    -2
100
AcDbLine
 10
1274.103592597158
 20
1282.424729327383
 30
0.0
 11
1274.103592597158
 21
1278.714259161752
 31
0.0
  0
LINE
  5
33AE
330
337E
100
AcDbEntity
  8
0
 62
     0
370
    -2
100
AcDbLine
 10
1289.103600697158
 20
1282.424729327383
 30
0.0
 11
1289.103600697158
 21
1278.714259161752
 31
0.0
  0
LINE
  5
33AF
330
337E
100
AcDbEntity
  8
0
 62
     0
370
    -2
100
AcDbLine
 10
1275.103592597158
 20
1279.964259161752
 30
0.0
 11
1288.103600697158
 21
1279.964259161752
 31
0.0
  0
INSERT
  5
33B0
330
337E
100
AcDbEntity
  8
0
 62
     0
370
    -2
100
AcDbBlockReference
  2
_ClosedBlank
 10
1274.103592597158
 20
1279.964259161752
 30
0.0
 50
180.0
  0
INSERT
  5
33B1
330
337E
100
AcDbEntity
  8
0
 62
     0
370
    -2
100
AcDbBlockReference
  2
_ClosedBlank
 10
1289.103600697158
 20
1279.964259161752
 30
0.0
  0
MTEXT
  5
33B2
330
337E
100
AcDbEntity
  8
0
 62
     0
100
AcDbMText
 10
1281.603596647158
 20
1281.089259161752
 30
0.0
 40
1.0
 41
0.0
 46
0.0
 71
     5
 72
     1
  1
15
 73
     1
 44
1.0
  0
POINT
  5
33B3
330
337E
100
AcDbEntity
  8
Defpoints
 62
     0
100
AcDbPoint
 10
1274.103592597158
 20
1282.924729327383
 30
0.0
  0
POINT
  5
33B4
330
337E
100
AcDbEntity
  8
Defpoints
 62
     0
100
AcDbPoint
 10
1289.103600697158
 20
1282.924729327383
 30
0.0
  0
POINT
  5
33B5
330
337E
100
AcDbEntity
  8
Defpoints
 62
     0
100
AcDbPoint
 10
1289.103600697158
 20
1279.964259161752
 30
0.0
  0
ENDBLK
  5
3389
330
337E
100
AcDbEntity
  8
0
100
AcDbBlockEnd
  0
BLOCK
  5
33BA
330
33B9
100
AcDbEntity
  8
0
100
AcDbBlockBegin
  2
*D17
 70
     1
 10
0.0
 20
0.0
 30
0.0
  3
*D17
  1

  0
LINE
  5
33BB
330
33B9
100
AcDbEntity
  8
0
 62
     0
370
    -2
100
AcDbLine
 10
11678.72380037799
 20
5527.731731448582
 30
0.0
 11
11684.01615530354
 21
5524.732077504143
 31
0.0
  0
MTEXT
  5
33BC
330
33B9
100
AcDbEntity
  8
0
 62
     0
100
AcDbMText
 10
11681.48972028867
 20
5527.457174547071
 30
0.0
 40
1.0
 41
0.0
 46
0.0
 71
     5
 72
     1
  1
R0.39
 11
0.869976152146107
 21
-0.4930937990859889
 31
0.0
 73
     1
 44
1.0
  0
LINE
  5
33BD
330
33B9
100
AcDbEntity
  8
0
 62
     0
370
    -2
100
AcDbLine
 10
11685.22864193676
 20
5524.044852183264
 30
0.0
 11
11684.88613145569
 21
5524.238983705059
 31
0.0
  0
INSERT
  5
33BE
330
33B9
100
AcDbEntity
  8
0
 62
     0
370
    -2
100
AcDbBlockReference
  2
_ClosedBlank
 10
11684.88613145569
 20
5524.238983705059
 30
0.0
 50
330.4558683441813
  0
POINT
  5
33BF
330
33B9
100
AcDbEntity
  8
Defpoints
 62
     0
100
AcDbPoint
 10
11684.88613145569
 20
5524.238983705059
 30
0.0
  0
POINT
  5
33C0
330
33B9
100
AcDbEntity
  8
Defpoints
 62
     0
100
AcDbPoint
 10
11685.22864193676
 20
5524.044852183264
 30
0.0
  0
ENDBLK
  5
33C1
330
33B9
100
AcDbEntity
  8
0
100
AcDbBlockEnd
  0
BLOCK
  5
33C3
330
33C2
100
AcDbEntity
  8
0
100
AcDbBlockBegin
  2
*D18
 70
     1
 10
0.0
 20
0.0
 30
0.0
  3
*D18
  1

  0
LINE
  5
33C4
330
33C2
100
AcDbEntity
  8
0
 62
     0
370
    -2
100
AcDbLine
 10
11654.62232673676
 20
5523.651151183265
 30
0.0
 11
11649.88537109858
 21
5523.651151183265
 31
0.0
  0
LINE
  5
33C5
330
33C2
100
AcDbEntity
  8
0
 62
     0
370
    -2
100
AcDbLine
 10
11654.62232673676
 20
5539.901159958265
 30
0.0
 11
11649.88537109858
 21
5539.901159958265
 31
0.0
  0
LINE
  5
33C6
330
33C2
100
AcDbEntity
  8
0
 62
     0
370
    -2
100
AcDbLine
 10
11651.13537109857
 20
5524.651151183267
 30
0.0
 11
11651.13537109857
 21
5538.901159958267
 31
0.0
  0
INSERT
  5
33C7
330
33C2
100
AcDbEntity
  8
0
 62
     0
370
    -2
100
AcDbBlockReference
  2
_ClosedBlank
 10
11651.13537109857
 20
5523.651151183265
 30
0.0
 50
270.0
  0
INSERT
  5
33C8
330
33C2
100
AcDbEntity
  8
0
 62
     0
370
    -2
100
AcDbBlockReference
  2
_ClosedBlank
 10
11651.13537109857
 20
5539.901159958265
 30
0.0
 50
90.0
  0
MTEXT
  5
33C9
330
33C2
100
AcDbEntity
  8
0
 62
     0
100
AcDbMText
 10
11650.01037109857
 20
5531.776155570767
 30
0.0
 40
1.0
 41
0.0
 46
0.0
 71
     5
 72
     1
  1
16.25
 11
0.0000000000000001
 21
1.0
 31
0.0
 73
     1
 44
1.0
  0
POINT
  5
33CA
330
33C2
100
AcDbEntity
  8
Defpoints
 62
     0
100
AcDbPoint
 10
11655.62232673676
 20
5523.651151183265
 30
0.0
  0
POINT
  5
33CB
330
33C2
100
AcDbEntity
  8
Defpoints
 62
     0
100
AcDbPoint
 10
11655.62232673676
 20
5539.901159958265
 30
0.0
  0
POINT
  5
33CC
330
33C2
100
AcDbEntity
  8
Defpoints
 62
     0
100
AcDbPoint
 10
11651.13537109857
 20
5539.901159958265
 30
0.0
  0
ENDBLK
  5
33CD
330
33C2
100
AcDbEntity
  8
0
100
AcDbBlockEnd
  0
BLOCK
  5
33CF
330
33CE
100
AcDbEntity
  8
0
100
AcDbBlockBegin
  2
*D19
 70
     1
 10
0.0
 20
0.0
 30
0.0
  3
*D19
  1

  0
LINE
  5
33D0
330
33CE
100
AcDbEntity
  8
0
 62
     0
370
    -2
100
AcDbLine
 10
11655.22862573676
 20
5523.044852183267
 30
0.0
 11
11655.22862573676
 21
5519.914036455357
 31
0.0
  0
LINE
  5
33D1
330
33CE
100
AcDbEntity
  8
0
 62
     0
370
    -2
100
AcDbLine
 10
11685.22864193676
 20
5523.044852183267
 30
0.0
 11
11685.22864193676
 21
5519.914036455357
 31
0.0
  0
LINE
  5
33D2
330
33CE
100
AcDbEntity
  8
0
 62
     0
370
    -2
100
AcDbLine
 10
11656.22862573676
 20
5521.164036455356
 30
0.0
 11
11684.22864193676
 21
5521.164036455356
 31
0.0
  0
INSERT
  5
33D3
330
33CE
100
AcDbEntity
  8
0
 62
     0
370
    -2
100
AcDbBlockReference
  2
_ClosedBlank
 10
11655.22862573676
 20
5521.164036455356
 30
0.0
 50
180.0
  0
INSERT
  5
33D4
330
33CE
100
AcDbEntity
  8
0
 62
     0
370
    -2
100
AcDbBlockReference
  2
_ClosedBlank
 10
11685.22864193676
 20
5521.164036455356
 30
0.0
  0
MTEXT
  5
33D5
330
33CE
100
AcDbEntity
  8
0
 62
     0
100
AcDbMText
 10
11670.22863383676
 20
5522.289036455357
 30
0.0
 40
1.0
 41
0.0
 46
0.0
 71
     5
 72
     1
  1
30
 73
     1
 44
1.0
  0
POINT
  5
33D6
330
33CE
100
AcDbEntity
  8
Defpoints
 62
     0
100
AcDbPoint
 10
11655.22862573676
 20
5524.044852183267
 30
0.0
  0
POINT
  5
33D7
330
33CE
100
AcDbEntity
  8
Defpoints
 62
     0
100
AcDbPoint
 10
11685.22864193676
 20
5524.044852183267
 30
0.0
  0
POINT
  5
33D8
330
33CE
100
AcDbEntity
  8
Defpoints
 62
     0
100
AcDbPoint
 10
11685.22864193676
 20
5521.164036455356
 30
0.0
  0
ENDBLK
  5
33D9
330
33CE
100
AcDbEntity
  8
0
100
AcDbBlockEnd
  0
BLOCK
  5
3416
330
340F
100
AcDbEntity
  8
0
100
AcDbBlockBegin
  2
*D20
 70
     1
 10
0.0
 20
0.0
 30
0.0
  3
*D20
  1

  0
LINE
  5
3451
330
340F
100
AcDbEntity
  8
0
 62
     0
370
    -2
100
AcDbLine
 10
1379.955383080069
 20
1267.974452853111
 30
0.0
 11
1385.247738005619
 21
1264.97479890866
 31
0.0
  0
MTEXT
  5
3452
330
340F
100
AcDbEntity
  8
0
 62
     0
100
AcDbMText
 10
1382.721302990745
 20
1267.699895951593
 30
0.0
 40
1.0
 41
0.0
 46
0.0
 71
     5
 72
     1
  1
R0.39
 11
0.869976152145116
 21
-0.4930937990877374
 31
0.0
 73
     1
 44
1.0
  0
LINE
  5
3453
330
340F
100
AcDbEntity
  8
0
 62
     0
370
    -2
100
AcDbLine
 10
1386.460224638838
 20
1264.287573587779
 30
0.0
 11
1386.117714157764
 21
1264.481705109573
 31
0.0
  0
INSERT
  5
3454
330
340F
100
AcDbEntity
  8
0
 62
     0
370
    -2
100
AcDbBlockReference
  2
_ClosedBlank
 10
1386.117714157764
 20
1264.481705109573
 30
0.0
 50
330.4558683440661
  0
POINT
  5
3455
330
340F
100
AcDbEntity
  8
Defpoints
 62
     0
100
AcDbPoint
 10
1386.117714157764
 20
1264.481705109573
 30
0.0
  0
POINT
  5
3456
330
340F
100
AcDbEntity
  8
Defpoints
 62
     0
100
AcDbPoint
 10
1386.460224638838
 20
1264.287573587779
 30
0.0
  0
ENDBLK
  5
3417
330
340F
100
AcDbEntity
  8
0
100
AcDbBlockEnd
  0
BLOCK
  5
3422
330
3418
100
AcDbEntity
  8
0
100
AcDbBlockBegin
  2
*D21
 70
     1
 10
0.0
 20
0.0
 30
0.0
  3
*D21
  1

  0
LINE
  5
343F
330
3418
100
AcDbEntity
  8
0
 62
     0
370
    -2
100
AcDbLine
 10
1355.853909438837
 20
1263.893872587781
 30
0.0
 11
1351.116953800648
 21
1263.893872587781
 31
0.0
  0
LINE
  5
3440
330
3418
100
AcDbEntity
  8
0
 62
     0
370
    -2
100
AcDbLine
 10
1355.853909438837
 20
1280.143881362781
 30
0.0
 11
1351.116953800648
 21
1280.143881362781
 31
0.0
  0
LINE
  5
3441
330
3418
100
AcDbEntity
  8
0
 62
     0
370
    -2
100
AcDbLine
 10
1352.366953800648
 20
1264.893872587781
 30
0.0
 11
1352.366953800648
 21
1279.14388136278
 31
0.0
  0
INSERT
  5
3442
330
3418
100
AcDbEntity
  8
0
 62
     0
370
    -2
100
AcDbBlockReference
  2
_ClosedBlank
 10
1352.366953800648
 20
1263.893872587781
 30
0.0
 50
270.0
  0
INSERT
  5
3443
330
3418
100
AcDbEntity
  8
0
 62
     0
370
    -2
100
AcDbBlockReference
  2
_ClosedBlank
 10
1352.366953800648
 20
1280.143881362781
 30
0.0
 50
90.0
  0
MTEXT
  5
3444
330
3418
100
AcDbEntity
  8
0
 62
     0
100
AcDbMText
 10
1351.241953800648
 20
1272.018876975281
 30
0.0
 40
1.0
 41
0.0
 46
0.0
 71
     5
 72
     1
  1
16.25
 11
0.0000000000000001
 21
1.0
 31
0.0
 73
     1
 44
1.0
  0
POINT
  5
3445
330
3418
100
AcDbEntity
  8
Defpoints
 62
     0
100
AcDbPoint
 10
1356.853909438837
 20
1263.893872587781
 30
0.0
  0
POINT
  5
3446
330
3418
100
AcDbEntity
  8
Defpoints
 62
     0
100
AcDbPoint
 10
1356.853909438837
 20
1280.143881362781
 30
0.0
  0
POINT
  5
3447
330
3418
100
AcDbEntity
  8
Defpoints
 62
     0
100
AcDbPoint
 10
1352.366953800648
 20
1280.143881362781
 30
0.0
  0
ENDBLK
  5
3423
330
3418
100
AcDbEntity
  8
0
100
AcDbBlockEnd
  0
BLOCK
  5
342E
330
3424
100
AcDbEntity
  8
0
100
AcDbBlockBegin
  2
*D22
 70
     1
 10
0.0
 20
0.0
 30
0.0
  3
*D22
  1

  0
LINE
  5
3448
330
3424
100
AcDbEntity
  8
0
 62
     0
370
    -2
100
AcDbLine
 10
1356.460208438837
 20
1263.287573587781
 30
0.0
 11
1356.460208438837
 21
1260.156757859871
 31
0.0
  0
LINE
  5
3449
330
3424
100
AcDbEntity
  8
0
 62
     0
370
    -2
100
AcDbLine
 10
1386.460224638837
 20
1263.287573587781
 30
0.0
 11
1386.460224638837
 21
1260.156757859871
 31
0.0
  0
LINE
  5
344A
330
3424
100
AcDbEntity
  8
0
 62
     0
370
    -2
100
AcDbLine
 10
1357.460208438837
 20
1261.406757859871
 30
0.0
 11
1385.460224638837
 21
1261.406757859871
 31
0.0
  0
INSERT
  5
344B
330
3424
100
AcDbEntity
  8
0
 62
     0
370
    -2
100
AcDbBlockReference
  2
_ClosedBlank
 10
1356.460208438837
 20
1261.406757859871
 30
0.0
 50
180.0
  0
INSERT
  5
344C
330
3424
100
AcDbEntity
  8
0
 62
     0
370
    -2
100
AcDbBlockReference
  2
_ClosedBlank
 10
1386.460224638837
 20
1261.406757859871
 30
0.0
  0
MTEXT
  5
344D
330
3424
100
AcDbEntity
  8
0
 62
     0
100
AcDbMText
 10
1371.460216538837
 20
1262.531757859871
 30
0.0
 40
1.0
 41
0.0
 46
0.0
 71
     5
 72
     1
  1
30
 73
     1
 44
1.0
  0
POINT
  5
344E
330
3424
100
AcDbEntity
  8
Defpoints
 62
     0
100
AcDbPoint
 10
1356.460208438837
 20
1264.287573587781
 30
0.0
  0
POINT
  5
344F
330
3424
100
AcDbEntity
  8
Defpoints
 62
     0
100
AcDbPoint
 10
1386.460224638837
 20
1264.287573587781
 30
0.0
  0
POINT
  5
3450
330
3424
100
AcDbEntity
  8
Defpoints
 62
     0
100
AcDbPoint
 10
1386.460224638837
 20
1261.406757859871
 30
0.0
  0
ENDBLK
  5
342F
330
3424
100
AcDbEntity
  8
0
100
AcDbBlockEnd
  0
BLOCK
  5
345B
330
345A
100
AcDbEntity
  8
0
100
AcDbBlockBegin
  2
*D23
 70
     1
 10
0.0
 20
0.0
 30
0.0
  3
*D23
  1

  0
LINE
  5
345C
330
345A
100
AcDbEntity
  8
0
 62
     0
370
    -2
100
AcDbLine
 10
5953.009829652327
 20
5080.004463159013
 30
0.0
 11
5946.886508496612
 21
5080.004463159013
 31
0.0
  0
LINE
  5
345D
330
345A
100
AcDbEntity
  8
0
 62
     0
370
    -2
100
AcDbLine
 10
5953.009829652327
 20
5096.254471934012
 30
0.0
 11
5946.886508496612
 21
5096.254471934012
 31
0.0
  0
LINE
  5
345E
330
345A
100
AcDbEntity
  8
0
 62
     0
370
    -2
100
AcDbLine
 10
5948.136508496613
 20
5081.004463159013
 30
0.0
 11
5948.136508496613
 21
5095.254471934012
 31
0.0
  0
INSERT
  5
345F
330
345A
100
AcDbEntity
  8
0
 62
     0
370
    -2
100
AcDbBlockReference
  2
_ClosedBlank
 10
5948.136508496613
 20
5080.004463159013
 30
0.0
 50
270.0
  0
INSERT
  5
3460
330
345A
100
AcDbEntity
  8
0
 62
     0
370
    -2
100
AcDbBlockReference
  2
_ClosedBlank
 10
5948.136508496613
 20
5096.254471934012
 30
0.0
 50
90.0
  0
MTEXT
  5
3461
330
345A
100
AcDbEntity
  8
0
 62
     0
100
AcDbMText
 10
5947.011508496611
 20
5088.129467546513
 30
0.0
 40
1.0
 41
0.0
 46
0.0
 71
     5
 72
     1
  1
16.25
 11
0.0000000000000001
 21
1.0
 31
0.0
 73
     1
 44
1.0
  0
POINT
  5
3462
330
345A
100
AcDbEntity
  8
Defpoints
 62
     0
100
AcDbPoint
 10
5953.509829652325
 20
5080.004463159013
 30
0.0
  0
POINT
  5
3463
330
345A
100
AcDbEntity
  8
Defpoints
 62
     0
100
AcDbPoint
 10
5953.509829652325
 20
5096.254471934012
 30
0.0
  0
POINT
  5
3464
330
345A
100
AcDbEntity
  8
Defpoints
 62
     0
100
AcDbPoint
 10
5948.136508496613
 20
5096.254471934012
 30
0.0
  0
ENDBLK
  5
3465
330
345A
100
AcDbEntity
  8
0
100
AcDbBlockEnd
  0
BLOCK
  5
3467
330
3466
100
AcDbEntity
  8
0
100
AcDbBlockBegin
  2
*D24
 70
     1
 10
0.0
 20
0.0
 30
0.0
  3
*D24
  1

  0
LINE
  5
3468
330
3466
100
AcDbEntity
  8
0
 62
     0
370
    -2
100
AcDbLine
 10
5953.509829652325
 20
5079.898164159011
 30
0.0
 11
5953.509829652325
 21
5076.25776465472
 31
0.0
  0
LINE
  5
3469
330
3466
100
AcDbEntity
  8
0
 62
     0
370
    -2
100
AcDbLine
 10
5977.950000330327
 20
5079.898164159011
 30
0.0
 11
5977.950000330327
 21
5076.25776465472
 31
0.0
  0
LINE
  5
346A
330
3466
100
AcDbEntity
  8
0
 62
     0
370
    -2
100
AcDbLine
 10
5954.509829652327
 20
5077.507764654721
 30
0.0
 11
5976.950000330326
 21
5077.507764654721
 31
0.0
  0
INSERT
  5
346B
330
3466
100
AcDbEntity
  8
0
 62
     0
370
    -2
100
AcDbBlockReference
  2
_ClosedBlank
 10
5953.509829652325
 20
5077.507764654721
 30
0.0
 50
180.0
  0
INSERT
  5
346C
330
3466
100
AcDbEntity
  8
0
 62
     0
370
    -2
100
AcDbBlockReference
  2
_ClosedBlank
 10
5977.950000330327
 20
5077.507764654721
 30
0.0
  0
MTEXT
  5
346D
330
3466
100
AcDbEntity
  8
0
 62
     0
100
AcDbMText
 10
5965.729914991327
 20
5078.63276465472
 30
0.0
 40
1.0
 41
0.0
 46
0.0
 71
     5
 72
     1
  1
24.44
 73
     1
 44
1.0
  0
POINT
  5
346E
330
3466
100
AcDbEntity
  8
Defpoints
 62
     0
100
AcDbPoint
 10
5953.509829652325
 20
5080.398164159015
 30
0.0
  0
POINT
  5
346F
330
3466
100
AcDbEntity
  8
Defpoints
 62
     0
100
AcDbPoint
 10
5977.950000330327
 20
5080.398164159015
 30
0.0
  0
POINT
  5
3470
330
3466
100
AcDbEntity
  8
Defpoints
 62
     0
100
AcDbPoint
 10
5977.950000330327
 20
5077.507764654721
 30
0.0
  0
ENDBLK
  5
3471
330
3466
100
AcDbEntity
  8
0
100
AcDbBlockEnd
  0
BLOCK
  5
3473
330
3472
100
AcDbEntity
  8
0
100
AcDbBlockBegin
  2
*D25
 70
     1
 10
0.0
 20
0.0
 30
0.0
  3
*D25
  1

  0
LINE
  5
3474
330
3472
100
AcDbEntity
  8
0
 62
     0
370
    -2
100
AcDbLine
 10
5971.772715416705
 20
5091.642447848728
 30
0.0
 11
5976.714614355549
 21
5095.189922911742
 31
0.0
  0
MTEXT
  5
3475
330
3472
100
AcDbEntity
  8
0
 62
     0
100
AcDbMText
 10
5973.181441502788
 20
5094.038524904842
 30
0.0
 40
1.0
 41
0.0
 46
0.0
 71
     5
 72
     1
  1
R0.39
 11
0.8123669488508349
 21
0.583146585701044
 31
0.0
 73
     1
 44
1.0
  0
LINE
  5
3476
330
3472
100
AcDbEntity
  8
0
 62
     0
370
    -2
100
AcDbLine
 10
5977.846810984527
 20
5096.002654891378
 30
0.0
 11
5977.5269813044
 21
5095.773069497443
 31
0.0
  0
INSERT
  5
3477
330
3472
100
AcDbEntity
  8
0
 62
     0
370
    -2
100
AcDbBlockReference
  2
_ClosedBlank
 10
5977.5269813044
 20
5095.773069497443
 30
0.0
 50
35.67216242118039
  0
POINT
  5
3478
330
3472
100
AcDbEntity
  8
Defpoints
 62
     0
100
AcDbPoint
 10
5977.5269813044
 20
5095.773069497443
 30
0.0
  0
POINT
  5
3479
330
3472
100
AcDbEntity
  8
Defpoints
 62
     0
100
AcDbPoint
 10
5977.846810984527
 20
5096.002654891378
 30
0.0
  0
ENDBLK
  5
347A
330
3472
100
AcDbEntity
  8
0
100
AcDbBlockEnd
  0
BLOCK
  5
34B3
330
34A9
100
AcDbEntity
  8
0
100
AcDbBlockBegin
  2
*D26
 70
     1
 10
0.0
 20
0.0
 30
0.0
  3
*D26
  1

  0
LINE
  5
353F
330
34A9
100
AcDbEntity
  8
0
 62
     0
370
    -2
100
AcDbLine
 10
1273.914206062751
 20
1251.635366566657
 30
0.0
 11
1267.790884907036
 21
1251.635366566657
 31
0.0
  0
LINE
  5
3540
330
34A9
100
AcDbEntity
  8
0
 62
     0
370
    -2
100
AcDbLine
 10
1273.914206062751
 20
1267.885375341657
 30
0.0
 11
1267.790884907036
 21
1267.885375341657
 31
0.0
  0
LINE
  5
3541
330
34A9
100
AcDbEntity
  8
0
 62
     0
370
    -2
100
AcDbLine
 10
1269.040884907036
 20
1252.635366566657
 30
0.0
 11
1269.040884907036
 21
1266.885375341657
 31
0.0
  0
INSERT
  5
3542
330
34A9
100
AcDbEntity
  8
0
 62
     0
370
    -2
100
AcDbBlockReference
  2
_ClosedBlank
 10
1269.040884907036
 20
1251.635366566657
 30
0.0
 50
270.0
  0
INSERT
  5
3543
330
34A9
100
AcDbEntity
  8
0
 62
     0
370
    -2
100
AcDbBlockReference
  2
_ClosedBlank
 10
1269.040884907036
 20
1267.885375341657
 30
0.0
 50
90.0
  0
MTEXT
  5
3544
330
34A9
100
AcDbEntity
  8
0
 62
     0
100
AcDbMText
 10
1267.915884907036
 20
1259.760370954158
 30
0.0
 40
1.0
 41
0.0
 46
0.0
 71
     5
 72
     1
  1
16.25
 11
0.0000000000000001
 21
1.0
 31
0.0
 73
     1
 44
1.0
  0
POINT
  5
3545
330
34A9
100
AcDbEntity
  8
Defpoints
 62
     0
100
AcDbPoint
 10
1274.414206062751
 20
1251.635366566657
 30
0.0
  0
POINT
  5
3546
330
34A9
100
AcDbEntity
  8
Defpoints
 62
     0
100
AcDbPoint
 10
1274.414206062751
 20
1267.885375341657
 30
0.0
  0
POINT
  5
3547
330
34A9
100
AcDbEntity
  8
Defpoints
 62
     0
100
AcDbPoint
 10
1269.040884907036
 20
1267.885375341657
 30
0.0
  0
ENDBLK
  5
34B4
330
34A9
100
AcDbEntity
  8
0
100
AcDbBlockEnd
  0
BLOCK
  5
34BC
330
34B5
100
AcDbEntity
  8
0
100
AcDbBlockBegin
  2
*D27
 70
     1
 10
0.0
 20
0.0
 30
0.0
  3
*D27
  1

  0
LINE
  5
3551
330
34B5
100
AcDbEntity
  8
0
 62
     0
370
    -2
100
AcDbLine
 10
1292.67709182715
 20
1263.273351256345
 30
0.0
 11
1297.618990765976
 21
1266.820826319383
 31
0.0
  0
MTEXT
  5
3552
330
34B5
100
AcDbEntity
  8
0
 62
     0
100
AcDbMText
 10
1294.085817913221
 20
1265.669428312466
 30
0.0
 40
1.0
 41
0.0
 46
0.0
 71
     5
 72
     1
  1
R0.39
 11
0.8123669488480915
 21
0.5831465857048657
 31
0.0
 73
     1
 44
1.0
  0
LINE
  5
3553
330
34B5
100
AcDbEntity
  8
0
 62
     0
370
    -2
100
AcDbLine
 10
1298.751187394949
 20
1267.633558299024
 30
0.0
 11
1298.431357714824
 21
1267.403972905088
 31
0.0
  0
INSERT
  5
3554
330
34B5
100
AcDbEntity
  8
0
 62
     0
370
    -2
100
AcDbBlockReference
  2
_ClosedBlank
 10
1298.431357714824
 20
1267.403972905088
 30
0.0
 50
35.67216242144993
  0
POINT
  5
3555
330
34B5
100
AcDbEntity
  8
Defpoints
 62
     0
100
AcDbPoint
 10
1298.431357714824
 20
1267.403972905088
 30
0.0
  0
POINT
  5
3556
330
34B5
100
AcDbEntity
  8
Defpoints
 62
     0
100
AcDbPoint
 10
1298.751187394949
 20
1267.633558299024
 30
0.0
  0
ENDBLK
  5
34BD
330
34B5
100
AcDbEntity
  8
0
100
AcDbBlockEnd
  0
BLOCK
  5
34D1
330
34C7
100
AcDbEntity
  8
0
100
AcDbBlockBegin
  2
*D28
 70
     1
 10
0.0
 20
0.0
 30
0.0
  3
*D28
  1

  0
LINE
  5
3548
330
34C7
100
AcDbEntity
  8
0
 62
     0
370
    -2
100
AcDbLine
 10
1274.414206062751
 20
1251.529067566657
 30
0.0
 11
1274.414206062751
 21
1247.888668062365
 31
0.0
  0
LINE
  5
3549
330
34C7
100
AcDbEntity
  8
0
 62
     0
370
    -2
100
AcDbLine
 10
1298.85437674075
 20
1251.529067566657
 30
0.0
 11
1298.85437674075
 21
1247.888668062365
 31
0.0
  0
LINE
  5
354A
330
34C7
100
AcDbEntity
  8
0
 62
     0
370
    -2
100
AcDbLine
 10
1275.414206062751
 20
1249.138668062365
 30
0.0
 11
1297.85437674075
 21
1249.138668062365
 31
0.0
  0
INSERT
  5
354B
330
34C7
100
AcDbEntity
  8
0
 62
     0
370
    -2
100
AcDbBlockReference
  2
_ClosedBlank
 10
1274.414206062751
 20
1249.138668062365
 30
0.0
 50
180.0
  0
INSERT
  5
354C
330
34C7
100
AcDbEntity
  8
0
 62
     0
370
    -2
100
AcDbBlockReference
  2
_ClosedBlank
 10
1298.85437674075
 20
1249.138668062365
 30
0.0
  0
MTEXT
  5
354D
330
34C7
100
AcDbEntity
  8
0
 62
     0
100
AcDbMText
 10
1286.63429140175
 20
1250.263668062365
 30
0.0
 40
1.0
 41
0.0
 46
0.0
 71
     5
 72
     1
  1
24.44
 73
     1
 44
1.0
  0
POINT
  5
354E
330
34C7
100
AcDbEntity
  8
Defpoints
 62
     0
100
AcDbPoint
 10
1274.414206062751
 20
1252.029067566657
 30
0.0
  0
POINT
  5
354F
330
34C7
100
AcDbEntity
  8
Defpoints
 62
     0
100
AcDbPoint
 10
1298.85437674075
 20
1252.029067566657
 30
0.0
  0
POINT
  5
3550
330
34C7
100
AcDbEntity
  8
Defpoints
 62
     0
100
AcDbPoint
 10
1298.85437674075
 20
1249.138668062365
 30
0.0
  0
ENDBLK
  5
34D2
330
34C7
100
AcDbEntity
  8
0
100
AcDbBlockEnd
  0
BLOCK
  5
355B
330
355A
100
AcDbEntity
  8
0
100
AcDbBlockBegin
  2
_D
 70
     0
 10
0.0
 20
0.0
 30
0.0
  3
_D
  1

  0
SOLID
  5
355C
330
355A
100
AcDbEntity
  8
0
  6
Continuous
 62
     7
370
    18
100
AcDbTrace
 10
6.742583569099999
 20
14.9295725048
 30
0.0
 11
6.872583569099999
 21
14.9095725048
 31
0.0
 12
6.872583569099999
 22
14.9495725048
 32
0.0
 13
6.872583569099999
 23
14.9495725048
 33
0.0
  0
SOLID
  5
355D
330
355A
100
AcDbEntity
  8
0
  6
Continuous
 62
     7
370
    18
100
AcDbTrace
 10
37.1362843565
 20
14.9295725048
 30
0.0
 11
37.0062843565
 21
14.9495725048
 31
0.0
 12
37.0062843565
 22
14.9095725048
 32
0.0
 13
37.0062843565
 23
14.9095725048
 33
0.0
  0
LINE
  5
355E
330
355A
100
AcDbEntity
  8
0
  6
Continuous
 62
     7
370
    18
100
AcDbLine
 10
6.742583569099999
 20
14.9295725048
 30
0.0
 11
37.1362843565
 21
14.9295725048
 31
0.0
  0
MTEXT
  5
355F
330
355A
100
AcDbEntity
  8
0
  6
Continuous
 62
     7
370
    18
100
AcDbMText
 10
21.238739564
 20
15.4129729255
 30
0.0
 40
0.375
 41
0.0
 46
0.0
 71
     1
 72
     1
  1
30.39"
  7
SLDTEXTSTYLE0
 73
     1
 44
1.0
  0
ENDBLK
  5
3560
330
355A
100
AcDbEntity
  8
0
100
AcDbBlockEnd
  0
BLOCK
  5
3562
330
3561
100
AcDbEntity
  8
0
100
AcDbBlockBegin
  2
_D_2
 70
     0
 10
0.0
 20
0.0
 30
0.0
  3
_D_2
  1

  0
SOLID
  5
3563
330
3561
100
AcDbEntity
  8
0
  6
Continuous
 62
     7
370
    18
100
AcDbTrace
 10
36.9340161604
 20
24.665668647
 30
0.0
 11
36.8310746303
 21
24.5837965432
 31
0.0
 12
36.8604438884
 22
24.5566405736
 32
0.0
 13
36.8604438884
 23
24.5566405736
 33
0.0
  0
LINE
  5
3564
330
3561
100
AcDbEntity
  8
0
  6
Continuous
 62
     7
370
    18
100
AcDbLine
 10
36.9340161604
 20
24.665668647
 30
0.0
 11
35.5806383232
 21
23.2019866797
 31
0.0
  0
LINE
  5
3565
330
3561
100
AcDbEntity
  8
0
  6
Continuous
 62
     7
370
    18
100
AcDbLine
 10
35.5806383232
 20
23.2019866797
 30
0.0
 11
34.09036053699999
 21
23.2019866797
 31
0.0
  0
MTEXT
  5
3566
330
3561
100
AcDbEntity
  8
0
  6
Continuous
 62
     7
370
    18
100
AcDbMText
 10
34.09036053699999
 20
23.6853871004
 30
0.0
 40
0.375
 41
0.0
 46
0.0
 71
     1
 72
     1
  1
R0.63"
  7
SLDTEXTSTYLE0
 73
     1
 44
1.0
  0
ENDBLK
  5
3567
330
3561
100
AcDbEntity
  8
0
100
AcDbBlockEnd
  0
BLOCK
  5
3569
330
3568
100
AcDbEntity
  8
0
100
AcDbBlockBegin
  2
_D_4
 70
     0
 10
0.0
 20
0.0
 30
0.0
  3
_D_4
  1

  0
SOLID
  5
356A
330
3568
100
AcDbEntity
  8
0
  6
Continuous
 62
     7
370
    18
100
AcDbTrace
 10
10.3038962125
 20
24.8330819062
 30
0.0
 11
10.2838962125
 21
24.7030819062
 31
0.0
 12
10.3238962125
 22
24.7030819062
 32
0.0
 13
10.3238962125
 23
24.7030819062
 33
0.0
  0
SOLID
  5
356B
330
3568
100
AcDbEntity
  8
0
  6
Continuous
 62
     7
370
    18
100
AcDbTrace
 10
10.3038962125
 20
8.2189086778
 30
0.0
 11
10.3238962125
 21
8.348908677799999
 31
0.0
 12
10.2838962125
 22
8.348908677799999
 32
0.0
 13
10.2838962125
 23
8.348908677799999
 33
0.0
  0
LINE
  5
356C
330
3568
100
AcDbEntity
  8
0
  6
Continuous
 62
     7
370
    18
100
AcDbLine
 10
10.3038962125
 20
24.8330819062
 30
0.0
 11
10.3038962125
 21
8.2189086778
 31
0.0
  0
MTEXT
  5
356D
330
3568
100
AcDbEntity
  8
0
  6
Continuous
 62
     7
370
    18
100
AcDbMText
 10
9.820495791799999
 20
15.8253008932
 30
0.0
 40
0.375
 41
0.0
 46
0.0
 71
     1
 72
     1
  1
16.61"
  7
SLDTEXTSTYLE0
 11
-0.000000000000007
 21
1.0
 31
0.0
 73
     1
 44
1.0
  0
ENDBLK
  5
356E
330
3568
100
AcDbEntity
  8
0
100
AcDbBlockEnd
  0
BLOCK
  5
3570
330
356F
100
AcDbEntity
  8
0
100
AcDbBlockBegin
  2
SW_NOTE_0
 70
     0
 10
0.0
 20
0.0
 30
0.0
  3
SW_NOTE_0
  1

  0
MTEXT
  5
3571
330
356F
100
AcDbEntity
  8
0
  6
Continuous
 62
     0
370
     0
100
AcDbMText
 10
0.0
 20
0.4296892466
 30
0.0
 40
0.3333333333
 41
0.0
 46
0.0
 71
     1
 72
     1
  1
Before beginning cut, please check actual template
  7
SLDTEXTSTYLE0
 73
     1
 44
1.0
  0
MTEXT
  5
3572
330
356F
100
AcDbEntity
  8
0
  6
Continuous
 62
     0
370
     0
100
AcDbMText
 10
0.0
 20
-0.0541252777
 30
0.0
 40
0.3333333333
 41
0.0
 46
0.0
 71
     1
 72
     1
  1
against physical sink for the most accurate cut.
  7
SLDTEXTSTYLE0
 73
     1
 44
1.0
  0
ENDBLK
  5
3573
330
356F
100
AcDbEntity
  8
0
100
AcDbBlockEnd
  0
BLOCK
  5
3575
330
3574
100
AcDbEntity
  8
0
100
AcDbBlockBegin
  2
SW_NOTE_1
 70
     0
 10
0.0
 20
0.0
 30
0.0
  3
SW_NOTE_1
  1

  0
LINE
  5
3576
330
3574
100
AcDbEntity
  8
0
  6
Continuous
 62
     0
370
     0
100
AcDbLine
 10
-2.404551395899999
 20
0.0
 30
0.0
 11
0.0
 21
0.0
 31
0.0
  0
MTEXT
  5
3577
330
3574
100
AcDbEntity
  8
0
  6
Continuous
 62
     0
370
     0
100
AcDbMText
 10
-2.422893955099999
 20
0.4862989371000001
 30
0.0
 40
0.375
 41
0.0
 46
0.0
 71
     1
 72
     1
  1
Topmount
  7
SLDTEXTSTYLE0
 73
     1
 44
1.0
  0
ENDBLK
  5
3578
330
3574
100
AcDbEntity
  8
0
100
AcDbBlockEnd
  0
BLOCK
  5
357A
330
3579
100
AcDbEntity
  8
0
100
AcDbBlockBegin
  2
SW_NOTE_2
 70
     0
 10
0.0
 20
0.0
 30
0.0
  3
SW_NOTE_2
  1

  0
LINE
  5
357B
330
3579
100
AcDbEntity
  8
0
  6
Continuous
 62
     0
370
     0
100
AcDbLine
 10
-2.9746905029
 20
0.0
 30
0.0
 11
0.0
 21
0.0
 31
0.0
  0
MTEXT
  5
357C
330
3579
100
AcDbEntity
  8
0
  6
Continuous
 62
     0
370
     0
100
AcDbMText
 10
-2.9907339226
 20
0.4851203103000001
 30
0.0
 40
0.375
 41
0.0
 46
0.0
 71
     1
 72
     1
  1
Undermount
  7
SLDTEXTSTYLE0
 73
     1
 44
1.0
  0
ENDBLK
  5
357D
330
3579
100
AcDbEntity
  8
0
100
AcDbBlockEnd
  0
BLOCK
  5
35B3
330
35A9
100
AcDbEntity
  8
0
100
AcDbBlockBegin
  2
*D36
 70
     1
 10
0.0
 20
0.0
 30
0.0
  3
*D36
  1

  0
LINE
  5
3677
330
35A9
100
AcDbEntity
  8
0
  6
Continuous
 62
     0
370
    -2
100
AcDbLine
 10
1220.532234596374
 20
1266.583015510417
 30
0.0
 11
1217.654617884621
 21
1266.583015510417
 31
0.0
  0
LINE
  5
3678
330
35A9
100
AcDbEntity
  8
0
  6
Continuous
 62
     0
370
    -2
100
AcDbLine
 10
1220.532234596374
 20
1249.968842282018
 30
0.0
 11
1217.654617884621
 21
1249.968842282018
 31
0.0
  0
LINE
  5
3679
330
35A9
100
AcDbEntity
  8
0
  6
Continuous
 62
     0
370
    -2
100
AcDbLine
 10
1217.654617884621
 20
1266.453015510417
 30
0.0
 11
1217.654617884621
 21
1250.098842282018
 31
0.0
  0
SOLID
  5
367A
330
35A9
100
AcDbEntity
  8
0
  6
Continuous
 62
     0
100
AcDbTrace
 10
1217.632951217954
 20
1266.453015510417
 30
0.0
 11
1217.676284551287
 21
1266.453015510417
 31
0.0
 12
1217.654617884621
 22
1266.583015510417
 32
0.0
 13
1217.654617884621
 23
1266.583015510417
 33
0.0
  0
SOLID
  5
367B
330
35A9
100
AcDbEntity
  8
0
  6
Continuous
 62
     0
100
AcDbTrace
 10
1217.632951217954
 20
1250.098842282018
 30
0.0
 11
1217.676284551287
 21
1250.098842282018
 31
0.0
 12
1217.654617884621
 22
1249.968842282018
 32
0.0
 13
1217.654617884621
 23
1249.968842282018
 33
0.0
  0
MTEXT
  5
367C
330
35A9
100
AcDbEntity
  8
0
  6
Continuous
 62
     0
370
    18
100
AcDbMText
 10
1217.185867884621
 20
1258.275928896218
 30
0.0
 40
0.375
 41
0.0
 46
0.0
 71
     2
 72
     1
  1
\A1;16.61"
  7
SLDTEXTSTYLE0
 11
0.0000000000000001
 21
1.0
 31
0.0
 73
     1
 44
1.0
  0
POINT
  5
367D
330
35A9
100
AcDbEntity
  8
Defpoints
  6
Continuous
 62
     0
100
AcDbPoint
 10
1220.594734596374
 20
1266.583015510417
 30
0.0
  0
POINT
  5
367E
330
35A9
100
AcDbEntity
  8
Defpoints
  6
Continuous
 62
     0
100
AcDbPoint
 10
1220.594734596374
 20
1249.968842282018
 30
0.0
  0
POINT
  5
367F
330
35A9
100
AcDbEntity
  8
Defpoints
  6
Continuous
 62
     0
100
AcDbPoint
 10
1217.654617884621
 20
1249.968842282018
 30
0.0
  0
ENDBLK
  5
35B4
330
35A9
100
AcDbEntity
  8
0
100
AcDbBlockEnd
  0
BLOCK
  5
35BF
330
35B5
100
AcDbEntity
  8
0
100
AcDbBlockBegin
  2
*D37
 70
     1
 10
0.0
 20
0.0
 30
0.0
  3
*D37
  1

  0
LINE
  5
3680
330
35B5
100
AcDbEntity
  8
0
  6
Continuous
 62
     0
370
    -2
100
AcDbLine
 10
1219.964813336474
 20
1250.536263541918
 30
0.0
 11
1219.964813336474
 21
1247.287303397235
 31
0.0
  0
LINE
  5
3681
330
35B5
100
AcDbEntity
  8
0
  6
Continuous
 62
     0
370
    -2
100
AcDbLine
 10
1250.358514123874
 20
1250.536263541918
 30
0.0
 11
1250.358514123874
 21
1247.287303397235
 31
0.0
  0
LINE
  5
3682
330
35B5
100
AcDbEntity
  8
0
  6
Continuous
 62
     0
370
    -2
100
AcDbLine
 10
1220.094813336474
 20
1247.287303397235
 30
0.0
 11
1250.228514123874
 21
1247.287303397235
 31
0.0
  0
SOLID
  5
3683
330
35B5
100
AcDbEntity
  8
0
  6
Continuous
 62
     0
100
AcDbTrace
 10
1220.094813336474
 20
1247.308970063902
 30
0.0
 11
1220.094813336474
 21
1247.265636730569
 31
0.0
 12
1219.964813336474
 22
1247.287303397235
 32
0.0
 13
1219.964813336474
 23
1247.287303397235
 33
0.0
  0
SOLID
  5
3684
330
35B5
100
AcDbEntity
  8
0
  6
Continuous
 62
     0
100
AcDbTrace
 10
1250.228514123874
 20
1247.308970063902
 30
0.0
 11
1250.228514123874
 21
1247.265636730569
 31
0.0
 12
1250.358514123874
 22
1247.287303397235
 32
0.0
 13
1250.358514123874
 23
1247.287303397235
 33
0.0
  0
MTEXT
  5
3685
330
35B5
100
AcDbEntity
  8
0
  6
Continuous
 62
     0
370
    18
100
AcDbMText
 10
1235.161663730174
 20
1247.756053397235
 30
0.0
 40
0.375
 41
0.0
 46
0.0
 71
     2
 72
     1
  1
\A1;30.39"
  7
SLDTEXTSTYLE0
 73
     1
 44
1.0
  0
POINT
  5
3686
330
35B5
100
AcDbEntity
  8
Defpoints
  6
Continuous
 62
     0
100
AcDbPoint
 10
1219.964813336474
 20
1250.598763541918
 30
0.0
  0
POINT
  5
3687
330
35B5
100
AcDbEntity
  8
Defpoints
  6
Continuous
 62
     0
100
AcDbPoint
 10
1250.358514123874
 20
1250.598763541918
 30
0.0
  0
POINT
  5
3688
330
35B5
100
AcDbEntity
  8
Defpoints
  6
Continuous
 62
     0
100
AcDbPoint
 10
1250.358514123874
 20
1247.287303397235
 30
0.0
  0
ENDBLK
  5
35C0
330
35B5
100
AcDbEntity
  8
0
100
AcDbBlockEnd
  0
BLOCK
  5
35C8
330
35C1
100
AcDbEntity
  8
0
100
AcDbBlockBegin
  2
*D38
 70
     1
 10
0.0
 20
0.0
 30
0.0
  3
*D38
  1

  0
LINE
  5
35DC
330
35C1
100
AcDbEntity
  8
0
  6
Continuous
 62
     0
370
    -2
100
AcDbLine
 10
1248.94833354697
 20
1265.249836955718
 30
0.0
 11
1249.07833354697
 21
1265.249836955718
 31
0.0
  0
LINE
  5
35DD
330
35C1
100
AcDbEntity
  8
0
  6
Continuous
 62
     0
370
    -2
100
AcDbLine
 10
1249.07833354697
 20
1265.249836955718
 30
0.0
 11
1250.067989026753
 21
1266.320152162573
 31
0.0
  0
MTEXT
  5
35DE
330
35C1
100
AcDbEntity
  8
0
  6
Continuous
 62
     0
370
    18
100
AcDbMText
 10
1247.58895854697
 20
1265.437336955717
 30
0.0
 40
0.375
 41
0.0
 46
0.0
 71
     1
 72
     1
  1
\A1;R0.63"
  7
SLDTEXTSTYLE0
 73
     1
 44
1.0
  0
SOLID
  5
35DF
330
35C1
100
AcDbEntity
  8
0
  6
Continuous
 62
     0
100
AcDbTrace
 10
1250.052080678646
 20
1266.334861646077
 30
0.0
 11
1250.083897374861
 21
1266.30544267907
 31
0.0
 12
1250.156245927774
 22
1266.415602251218
 32
0.0
 13
1250.156245927774
 23
1266.415602251218
 33
0.0
  0
POINT
  5
35E0
330
35C1
100
AcDbEntity
  8
Defpoints
  6
Continuous
 62
     0
100
AcDbPoint
 10
1250.156245927774
 20
1266.415602251218
 30
0.0
  0
POINT
  5
35E1
330
35C1
100
AcDbEntity
  8
Defpoints
  6
Continuous
 62
     0
100
AcDbPoint
 10
1249.728592864074
 20
1265.953094250518
 30
0.0
  0
ENDBLK
  5
35C9
330
35C1
100
AcDbEntity
  8
0
100
AcDbBlockEnd
  0
BLOCK
  5
35E3
330
35E2
100
AcDbEntity
  8
0
100
AcDbBlockBegin
  2
*D39
 70
     1
 10
0.0
 20
0.0
 30
0.0
  3
*D39
  1

  0
LINE
  5
35E4
330
35E2
100
AcDbEntity
  8
0
 62
     0
370
    -2
100
AcDbLine
 10
1273.914206062751
 20
1251.635366566657
 30
0.0
 11
1267.790884907036
 21
1251.635366566657
 31
0.0
  0
LINE
  5
35E5
330
35E2
100
AcDbEntity
  8
0
 62
     0
370
    -2
100
AcDbLine
 10
1273.914206062751
 20
1267.885375341657
 30
0.0
 11
1267.790884907036
 21
1267.885375341657
 31
0.0
  0
LINE
  5
35E6
330
35E2
100
AcDbEntity
  8
0
 62
     0
370
    -2
100
AcDbLine
 10
1269.040884907036
 20
1252.635366566657
 30
0.0
 11
1269.040884907036
 21
1266.885375341657
 31
0.0
  0
INSERT
  5
35E7
330
35E2
100
AcDbEntity
  8
0
 62
     0
370
    -2
100
AcDbBlockReference
  2
_ClosedBlank
 10
1269.040884907036
 20
1251.635366566657
 30
0.0
 50
270.0
  0
INSERT
  5
35E8
330
35E2
100
AcDbEntity
  8
0
 62
     0
370
    -2
100
AcDbBlockReference
  2
_ClosedBlank
 10
1269.040884907036
 20
1267.885375341657
 30
0.0
 50
90.0
  0
MTEXT
  5
35E9
330
35E2
100
AcDbEntity
  8
0
 62
     0
100
AcDbMText
 10
1267.915884907036
 20
1259.760370954158
 30
0.0
 40
1.0
 41
0.0
 46
0.0
 71
     5
 72
     1
  1
16.25
 11
0.0000000000000001
 21
1.0
 31
0.0
 73
     1
 44
1.0
  0
POINT
  5
35EA
330
35E2
100
AcDbEntity
  8
Defpoints
 62
     0
100
AcDbPoint
 10
1274.414206062751
 20
1251.635366566657
 30
0.0
  0
POINT
  5
35EB
330
35E2
100
AcDbEntity
  8
Defpoints
 62
     0
100
AcDbPoint
 10
1274.414206062751
 20
1267.885375341657
 30
0.0
  0
POINT
  5
35EC
330
35E2
100
AcDbEntity
  8
Defpoints
 62
     0
100
AcDbPoint
 10
1269.040884907036
 20
1267.885375341657
 30
0.0
  0
ENDBLK
  5
35ED
330
35E2
100
AcDbEntity
  8
0
100
AcDbBlockEnd
  0
BLOCK
  5
35F2
330
35EE
100
AcDbEntity
  8
0
100
AcDbBlockBegin
  2
A$C00294823
 70
     0
 10
0.0
 20
0.0
 30
0.0
  3
A$C00294823
  1

  0
DIMENSION
  5
35EF
330
35EE
100
AcDbEntity
  8
0
100
AcDbDimension
  2
*D39
 10
1.625000029306875
 20
16.25000879823346
 30
0.0
 11
1.625000029306647
 21
8.125004410734391
 31
0.0
 12
-1267.415884877729
 22
-1251.635366543423
 32
0.0
 70
   128
 71
     5
 42
16.25000877499997
 73
     0
 74
     0
 75
     0
  3
我的样式
100
AcDbAlignedDimension
 13
6.998321185021723
 23
0.0000000232334969
 33
0.0
 14
6.998321185021723
 24
16.25000879823346
 34
0.0
 50
90.0
100
AcDbRotatedDimension
1001
ACAD
1000
DSTYLE
1002
{
1070
    42
1040
0.5
1070
   140
1040
1.0
1070
    41
1040
1.0
1002
}
  0
ENDBLK
  5
35F3
330
35EE
100
AcDbEntity
  8
0
100
AcDbBlockEnd
  0
BLOCK
  5
3700
330
36F6
100
AcDbEntity
  8
0
100
AcDbBlockBegin
  2
*D43
 70
     1
 10
0.0
 20
0.0
 30
0.0
  3
*D43
  1

  0
LINE
  5
3738
330
36F6
100
AcDbEntity
  8
0
  6
Continuous
 62
     0
370
    -2
100
AcDbLine
 10
1220.416164683015
 20
1248.102709515792
 30
0.0
 11
1220.416164683015
 21
1245.13341509791
 31
0.0
  0
LINE
  5
3739
330
36F6
100
AcDbEntity
  8
0
  6
Continuous
 62
     0
370
    -2
100
AcDbLine
 10
1250.731125312915
 20
1248.102709515792
 30
0.0
 11
1250.731125312915
 21
1245.13341509791
 31
0.0
  0
LINE
  5
373A
330
36F6
100
AcDbEntity
  8
0
  6
Continuous
 62
     0
370
    -2
100
AcDbLine
 10
1220.546164683016
 20
1245.13341509791
 30
0.0
 11
1250.601125312915
 21
1245.13341509791
 31
0.0
  0
SOLID
  5
373B
330
36F6
100
AcDbEntity
  8
0
  6
Continuous
 62
     0
100
AcDbTrace
 10
1220.546164683016
 20
1245.155081764576
 30
0.0
 11
1220.546164683016
 21
1245.111748431243
 31
0.0
 12
1220.416164683015
 22
1245.13341509791
 32
0.0
 13
1220.416164683015
 23
1245.13341509791
 33
0.0
  0
SOLID
  5
373C
330
36F6
100
AcDbEntity
  8
0
  6
Continuous
 62
     0
100
AcDbTrace
 10
1250.601125312915
 20
1245.155081764576
 30
0.0
 11
1250.601125312915
 21
1245.111748431243
 31
0.0
 12
1250.731125312915
 22
1245.13341509791
 32
0.0
 13
1250.731125312915
 23
1245.13341509791
 33
0.0
  0
MTEXT
  5
373D
330
36F6
100
AcDbEntity
  8
0
  6
Continuous
 62
     0
370
    18
100
AcDbMText
 10
1235.573644997915
 20
1245.602165097909
 30
0.0
 40
0.375
 41
0.0
 46
0.0
 71
     2
 72
     1
  1
\A1;30.32"
  7
SLDTEXTSTYLE0
 73
     1
 44
1.0
  0
POINT
  5
373E
330
36F6
100
AcDbEntity
  8
Defpoints
  6
Continuous
 62
     0
100
AcDbPoint
 10
1220.416164683015
 20
1248.165209515792
 30
0.0
  0
POINT
  5
373F
330
36F6
100
AcDbEntity
  8
Defpoints
  6
Continuous
 62
     0
100
AcDbPoint
 10
1250.731125312915
 20
1248.165209515792
 30
0.0
  0
POINT
  5
3740
330
36F6
100
AcDbEntity
  8
Defpoints
  6
Continuous
 62
     0
100
AcDbPoint
 10
1250.731125312915
 20
1245.13341509791
 30
0.0
  0
ENDBLK
  5
3701
330
36F6
100
AcDbEntity
  8
0
100
AcDbBlockEnd
  0
BLOCK
  5
3709
330
3702
100
AcDbEntity
  8
0
100
AcDbBlockBegin
  2
*D44
 70
     1
 10
0.0
 20
0.0
 30
0.0
  3
*D44
  1

  0
LINE
  5
3720
330
3702
100
AcDbEntity
  8
0
  6
Continuous
 62
     0
370
    -2
100
AcDbLine
 10
1248.71663872547
 20
1261.801147105592
 30
0.0
 11
1248.84663872547
 21
1261.801147105592
 31
0.0
  0
LINE
  5
3721
330
3702
100
AcDbEntity
  8
0
  6
Continuous
 62
     0
370
    -2
100
AcDbLine
 10
1248.84663872547
 20
1261.801147105592
 30
0.0
 11
1250.348598819963
 21
1263.72251105583
 31
0.0
  0
MTEXT
  5
3722
330
3702
100
AcDbEntity
  8
0
  6
Continuous
 62
     0
370
    18
100
AcDbMText
 10
1247.35726372547
 20
1261.988647105592
 30
0.0
 40
0.375
 41
0.0
 46
0.0
 71
     1
 72
     1
  1
\A1;R0.79"
  7
SLDTEXTSTYLE0
 73
     1
 44
1.0
  0
SOLID
  5
3723
330
3702
100
AcDbEntity
  8
0
  6
Continuous
 62
     0
100
AcDbTrace
 10
1250.331528814719
 20
1263.735854944522
 30
0.0
 11
1250.365668825207
 21
1263.709167167138
 31
0.0
 12
1250.428662152115
 22
1263.824931087292
 32
0.0
 13
1250.428662152115
 23
1263.824931087292
 33
0.0
  0
POINT
  5
3724
330
3702
100
AcDbEntity
  8
Defpoints
  6
Continuous
 62
     0
100
AcDbPoint
 10
1250.428662152115
 20
1263.824931087292
 30
0.0
  0
POINT
  5
3725
330
3702
100
AcDbEntity
  8
Defpoints
  6
Continuous
 62
     0
100
AcDbPoint
 10
1249.943723738115
 20
1263.204579594492
 30
0.0
  0
ENDBLK
  5
370A
330
3702
100
AcDbEntity
  8
0
100
AcDbBlockEnd
  0
BLOCK
  5
3715
330
370B
100
AcDbEntity
  8
0
100
AcDbBlockBegin
  2
*D45
 70
     1
 10
0.0
 20
0.0
 30
0.0
  3
*D45
  1

  0
LINE
  5
372F
330
370B
100
AcDbEntity
  8
0
  6
Continuous
 62
     0
370
    -2
100
AcDbLine
 10
1221.141066257815
 20
1263.991981169292
 30
0.0
 11
1218.605053329699
 21
1263.991981169292
 31
0.0
  0
LINE
  5
3730
330
370B
100
AcDbEntity
  8
0
  6
Continuous
 62
     0
370
    -2
100
AcDbLine
 10
1221.141066257815
 20
1247.377807940992
 30
0.0
 11
1218.605053329699
 21
1247.377807940992
 31
0.0
  0
LINE
  5
3731
330
370B
100
AcDbEntity
  8
0
  6
Continuous
 62
     0
370
    -2
100
AcDbLine
 10
1218.605053329699
 20
1263.861981169292
 30
0.0
 11
1218.605053329699
 21
1247.507807940992
 31
0.0
  0
SOLID
  5
3732
330
370B
100
AcDbEntity
  8
0
  6
Continuous
 62
     0
100
AcDbTrace
 10
1218.583386663032
 20
1263.861981169292
 30
0.0
 11
1218.626719996366
 21
1263.861981169292
 31
0.0
 12
1218.605053329699
 22
1263.991981169292
 32
0.0
 13
1218.605053329699
 23
1263.991981169292
 33
0.0
  0
SOLID
  5
3733
330
370B
100
AcDbEntity
  8
0
  6
Continuous
 62
     0
100
AcDbTrace
 10
1218.583386663032
 20
1247.507807940992
 30
0.0
 11
1218.626719996366
 21
1247.507807940992
 31
0.0
 12
1218.605053329699
 22
1247.377807940992
 32
0.0
 13
1218.605053329699
 23
1247.377807940992
 33
0.0
  0
MTEXT
  5
3734
330
370B
100
AcDbEntity
  8
0
  6
Continuous
 62
     0
370
    18
100
AcDbMText
 10
1218.136303329699
 20
1255.684894555092
 30
0.0
 40
0.375
 41
0.0
 46
0.0
 71
     2
 72
     1
  1
\A1;16.61"
  7
SLDTEXTSTYLE0
 11
0.0000000000000001
 21
1.0
 31
0.0
 73
     1
 44
1.0
  0
POINT
  5
3735
330
370B
100
AcDbEntity
  8
Defpoints
  6
Continuous
 62
     0
100
AcDbPoint
 10
1221.203566257816
 20
1263.991981169292
 30
0.0
  0
POINT
  5
3736
330
370B
100
AcDbEntity
  8
Defpoints
  6
Continuous
 62
     0
100
AcDbPoint
 10
1221.203566257816
 20
1247.377807940992
 30
0.0
  0
POINT
  5
3737
330
370B
100
AcDbEntity
  8
Defpoints
  6
Continuous
 62
     0
100
AcDbPoint
 10
1218.605053329699
 20
1247.377807940992
 30
0.0
  0
ENDBLK
  5
3716
330
370B
100
AcDbEntity
  8
0
100
AcDbBlockEnd
  0
BLOCK
  5
375C
330
375B
100
AcDbEntity
  8
0
100
AcDbBlockBegin
  2
_D_1
 70
     0
 10
0.0
 20
0.0
 30
0.0
  3
_D_1
  1

  0
SOLID
  5
375D
330
375B
100
AcDbEntity
  8
0
  6
Continuous
 62
     7
370
    18
100
AcDbTrace
 10
27.3672050424
 20
7.325307117699999
 30
0.0
 11
27.2372050424
 21
7.345307117699999
 31
0.0
 12
27.2372050424
 22
7.305307117699999
 32
0.0
 13
27.2372050424
 23
7.305307117699999
 33
0.0
  0
SOLID
  5
375E
330
375B
100
AcDbEntity
  8
0
  6
Continuous
 62
     7
370
    18
100
AcDbTrace
 10
4.9262601606
 20
7.325307117699999
 30
0.0
 11
5.056260160599999
 21
7.305307117699999
 31
0.0
 12
5.056260160599999
 22
7.345307117699999
 32
0.0
 13
5.056260160599999
 23
7.345307117699999
 33
0.0
  0
LINE
  5
375F
330
375B
100
AcDbEntity
  8
0
  6
Continuous
 62
     7
370
    18
100
AcDbLine
 10
27.3672050424
 20
7.325307117699999
 30
0.0
 11
4.9262601606
 21
7.325307117699999
 31
0.0
  0
MTEXT
  5
3760
330
375B
100
AcDbEntity
  8
0
  6
Continuous
 62
     7
370
    18
100
AcDbMText
 10
15.4460382026
 20
7.8087075385
 30
0.0
 40
0.375
 41
0.0
 46
0.0
 71
     1
 72
     1
  1
22.44"
  7
SLDTEXTSTYLE0
 73
     1
 44
1.0
  0
ENDBLK
  5
3761
330
375B
100
AcDbEntity
  8
0
100
AcDbBlockEnd
  0
BLOCK
  5
378F
330
3789
100
AcDbEntity
  8
0
100
AcDbBlockBegin
  2
*D48
 70
     1
 10
0.0
 20
0.0
 30
0.0
  3
*D48
  1

  0
LINE
  5
392E
330
3789
100
AcDbEntity
  8
0
 62
     0
370
    -2
100
AcDbLine
 10
1239.807677011055
 20
1261.875992833781
 30
0.0
 11
1241.517195038844
 21
1263.740992834192
 31
0.0
  0
MTEXT
  5
392F
330
3789
100
AcDbEntity
  8
0
 62
     0
100
AcDbMText
 10
1239.525477849698
 20
1262.261841584367
 30
0.0
 40
0.375
 41
0.0
 46
0.0
 71
     1
 72
     1
  1
\A1;R0.5"
  7
SLDTEXTSTYLE0
 11
0.6757106016719776
 21
0.7371669978967414
 31
0.0
 73
     1
 44
1.0
  0
SOLID
  5
3930
330
3789
100
AcDbEntity
  8
0
 62
     0
100
AcDbTrace
 10
1241.501223087223
 20
1263.755633230561
 30
0.0
 11
1241.533166990465
 21
1263.726352437822
 31
0.0
 12
1241.605037417062
 22
1263.836824543918
 32
0.0
 13
1241.605037417062
 23
1263.836824543918
 33
0.0
  0
POINT
  5
3931
330
3789
100
AcDbEntity
  8
Defpoints
 62
     0
100
AcDbPoint
 10
1241.605037417062
 20
1263.836824543918
 30
0.0
  0
POINT
  5
3932
330
3789
100
AcDbEntity
  8
Defpoints
 62
     0
100
AcDbPoint
 10
1241.285804061961
 20
1263.488556670918
 30
0.0
  0
ENDBLK
  5
3790
330
3789
100
AcDbEntity
  8
0
100
AcDbBlockEnd
  0
BLOCK
  5
379C
330
3791
100
AcDbEntity
  8
0
100
AcDbBlockBegin
  2
*D49
 70
     1
 10
0.0
 20
0.0
 30
0.0
  3
*D49
  1

  0
LINE
  5
3805
330
3791
100
AcDbEntity
  8
0
  6
Continuous
 62
     0
370
    -2
100
AcDbLine
 10
1241.758245006761
 20
1247.756765332318
 30
0.0
 11
1241.758245006761
 21
1244.502714995227
 31
0.0
  0
LINE
  5
3806
330
3791
100
AcDbEntity
  8
0
  6
Continuous
 62
     0
370
    -2
100
AcDbLine
 10
1219.317300124961
 20
1247.756765332318
 30
0.0
 11
1219.317300124961
 21
1244.502714995227
 31
0.0
  0
LINE
  5
3807
330
3791
100
AcDbEntity
  8
0
  6
Continuous
 62
     0
370
    -2
100
AcDbLine
 10
1241.628245006761
 20
1244.502714995227
 30
0.0
 11
1219.447300124962
 21
1244.502714995227
 31
0.0
  0
LINE
  5
3808
330
3791
100
AcDbEntity
  8
0
  6
Continuous
 62
     0
370
    -2
100
AcDbLine
 10
1230.537772565861
 20
1244.502714995227
 30
0.0
 11
1230.256522565861
 21
1244.81185729742
 31
0.0
  0
LINE
  5
3809
330
3791
100
AcDbEntity
  8
0
  6
Continuous
 62
     0
370
    -2
100
AcDbLine
 10
1230.256522565861
 20
1244.81185729742
 30
0.0
 11
1230.444022565861
 21
1244.81185729742
 31
0.0
  0
MTEXT
  5
380A
330
3791
100
AcDbEntity
  8
0
  6
Continuous
 62
     0
370
    18
100
AcDbMText
 10
1231.194022565861
 20
1244.99935729742
 30
0.0
 40
0.375
 41
0.0
 46
0.0
 71
     2
 72
     1
  1
\A1;22.44"
  7
SLDTEXTSTYLE0
 73
     1
 44
1.0
  0
SOLID
  5
380B
330
3791
100
AcDbEntity
  8
0
  6
Continuous
 62
     0
100
AcDbTrace
 10
1241.628245006761
 20
1244.524381661893
 30
0.0
 11
1241.628245006761
 21
1244.48104832856
 31
0.0
 12
1241.758245006761
 22
1244.502714995227
 32
0.0
 13
1241.758245006761
 23
1244.502714995227
 33
0.0
  0
SOLID
  5
380C
330
3791
100
AcDbEntity
  8
0
  6
Continuous
 62
     0
100
AcDbTrace
 10
1219.447300124962
 20
1244.524381661893
 30
0.0
 11
1219.447300124962
 21
1244.48104832856
 31
0.0
 12
1219.317300124961
 22
1244.502714995227
 32
0.0
 13
1219.317300124961
 23
1244.502714995227
 33
0.0
  0
POINT
  5
380D
330
3791
100
AcDbEntity
  8
Defpoints
  6
Continuous
 62
     0
100
AcDbPoint
 10
1241.758245006761
 20
1247.819265332318
 30
0.0
  0
POINT
  5
380E
330
3791
100
AcDbEntity
  8
Defpoints
  6
Continuous
 62
     0
100
AcDbPoint
 10
1219.317300124961
 20
1247.819265332318
 30
0.0
  0
POINT
  5
380F
330
3791
100
AcDbEntity
  8
Defpoints
  6
Continuous
 62
     0
100
AcDbPoint
 10
1219.317300124961
 20
1244.502714995227
 30
0.0
  0
ENDBLK
  5
379D
330
3791
100
AcDbEntity
  8
0
100
AcDbBlockEnd
  0
BLOCK
  5
37A9
330
379E
100
AcDbEntity
  8
0
100
AcDbBlockBegin
  2
*D50
 70
     1
 10
0.0
 20
0.0
 30
0.0
  3
*D50
  1

  0
LINE
  5
37FB
330
379E
100
AcDbEntity
  8
0
  6
Continuous
 62
     0
370
    -2
100
AcDbLine
 10
1219.727241069761
 20
1263.960997615818
 30
0.0
 11
1215.972785897124
 21
1263.960997615818
 31
0.0
  0
LINE
  5
37FC
330
379E
100
AcDbEntity
  8
0
  6
Continuous
 62
     0
370
    -2
100
AcDbLine
 10
1219.727241069761
 20
1247.346824387418
 30
0.0
 11
1215.972785897124
 21
1247.346824387418
 31
0.0
  0
LINE
  5
37FD
330
379E
100
AcDbEntity
  8
0
  6
Continuous
 62
     0
370
    -2
100
AcDbLine
 10
1215.972785897124
 20
1263.830997615818
 30
0.0
 11
1215.972785897124
 21
1255.743911001618
 31
0.0
  0
LINE
  5
37FE
330
379E
100
AcDbEntity
  8
0
  6
Continuous
 62
     0
370
    -2
100
AcDbLine
 10
1215.972785897124
 20
1247.476824387418
 30
0.0
 11
1215.972785897124
 21
1255.563911001618
 31
0.0
  0
SOLID
  5
37FF
330
379E
100
AcDbEntity
  8
0
  6
Continuous
 62
     0
100
AcDbTrace
 10
1215.951119230457
 20
1263.830997615818
 30
0.0
 11
1215.99445256379
 21
1263.830997615818
 31
0.0
 12
1215.972785897124
 22
1263.960997615818
 32
0.0
 13
1215.972785897124
 23
1263.960997615818
 33
0.0
  0
SOLID
  5
3800
330
379E
100
AcDbEntity
  8
0
  6
Continuous
 62
     0
100
AcDbTrace
 10
1215.951119230457
 20
1247.476824387418
 30
0.0
 11
1215.99445256379
 21
1247.476824387418
 31
0.0
 12
1215.972785897124
 22
1247.346824387418
 32
0.0
 13
1215.972785897124
 23
1247.346824387418
 33
0.0
  0
MTEXT
  5
3801
330
379E
100
AcDbEntity
  8
0
  6
Continuous
 62
     0
370
    18
100
AcDbMText
 10
1215.972785897123
 20
1255.743911001618
 30
0.0
 40
0.18
 41
0.0
 46
0.0
 71
     2
 72
     1
  1
\A1;16.62"
 73
     1
 44
1.0
  0
POINT
  5
3802
330
379E
100
AcDbEntity
  8
Defpoints
  6
Continuous
 62
     0
100
AcDbPoint
 10
1219.789741069761
 20
1263.960997615818
 30
0.0
  0
POINT
  5
3803
330
379E
100
AcDbEntity
  8
Defpoints
  6
Continuous
 62
     0
100
AcDbPoint
 10
1219.789741069761
 20
1247.346824387418
 30
0.0
  0
POINT
  5
3804
330
379E
100
AcDbEntity
  8
Defpoints
  6
Continuous
 62
     0
100
AcDbPoint
 10
1215.972785897124
 20
1247.346824387418
 30
0.0
  0
ENDBLK
  5
37AA
330
379E
100
AcDbEntity
  8
0
100
AcDbBlockEnd
  0
BLOCK
  5
381C
330
381B
100
AcDbEntity
  8
0
100
AcDbBlockBegin
  2
*D51
 70
     1
 10
0.0
 20
0.0
 30
0.0
  3
*D51
  1

  0
LINE
  5
381D
330
381B
100
AcDbEntity
  8
0
  6
Continuous
 62
     0
370
    -2
100
AcDbLine
 10
1219.964813336474
 20
1250.536263541918
 30
0.0
 11
1219.964813336474
 21
1247.287303397235
 31
0.0
  0
LINE
  5
381E
330
381B
100
AcDbEntity
  8
0
  6
Continuous
 62
     0
370
    -2
100
AcDbLine
 10
1250.358514123874
 20
1250.536263541918
 30
0.0
 11
1250.358514123874
 21
1247.287303397235
 31
0.0
  0
LINE
  5
381F
330
381B
100
AcDbEntity
  8
0
  6
Continuous
 62
     0
370
    -2
100
AcDbLine
 10
1220.094813336474
 20
1247.287303397235
 30
0.0
 11
1250.228514123874
 21
1247.287303397235
 31
0.0
  0
SOLID
  5
3820
330
381B
100
AcDbEntity
  8
0
  6
Continuous
 62
     0
100
AcDbTrace
 10
1220.094813336474
 20
1247.308970063902
 30
0.0
 11
1220.094813336474
 21
1247.265636730569
 31
0.0
 12
1219.964813336474
 22
1247.287303397235
 32
0.0
 13
1219.964813336474
 23
1247.287303397235
 33
0.0
  0
SOLID
  5
3821
330
381B
100
AcDbEntity
  8
0
  6
Continuous
 62
     0
100
AcDbTrace
 10
1250.228514123874
 20
1247.308970063902
 30
0.0
 11
1250.228514123874
 21
1247.265636730569
 31
0.0
 12
1250.358514123874
 22
1247.287303397235
 32
0.0
 13
1250.358514123874
 23
1247.287303397235
 33
0.0
  0
MTEXT
  5
3822
330
381B
100
AcDbEntity
  8
0
  6
Continuous
 62
     0
370
    18
100
AcDbMText
 10
1235.161663730174
 20
1247.756053397235
 30
0.0
 40
0.375
 41
0.0
 46
0.0
 71
     2
 72
     1
  1
\A1;30.39"
  7
SLDTEXTSTYLE0
 73
     1
 44
1.0
  0
POINT
  5
3823
330
381B
100
AcDbEntity
  8
Defpoints
  6
Continuous
 62
     0
100
AcDbPoint
 10
1219.964813336474
 20
1250.598763541918
 30
0.0
  0
POINT
  5
3824
330
381B
100
AcDbEntity
  8
Defpoints
  6
Continuous
 62
     0
100
AcDbPoint
 10
1250.358514123874
 20
1250.598763541918
 30
0.0
  0
POINT
  5
3825
330
381B
100
AcDbEntity
  8
Defpoints
  6
Continuous
 62
     0
100
AcDbPoint
 10
1250.358514123874
 20
1247.287303397235
 30
0.0
  0
ENDBLK
  5
3826
330
381B
100
AcDbEntity
  8
0
100
AcDbBlockEnd
  0
BLOCK
  5
3839
330
382F
100
AcDbEntity
  8
0
100
AcDbBlockBegin
  2
*D53
 70
     1
 10
0.0
 20
0.0
 30
0.0
  3
*D53
  1

  0
LINE
  5
3871
330
382F
100
AcDbEntity
  8
0
  6
Continuous
 62
     0
370
    -2
100
AcDbLine
 10
1219.317318563934
 20
1248.410135098629
 30
0.0
 11
1219.317318563934
 21
1245.161174953946
 31
0.0
  0
LINE
  5
3872
330
382F
100
AcDbEntity
  8
0
  6
Continuous
 62
     0
370
    -2
100
AcDbLine
 10
1241.759345930282
 20
1248.410135098629
 30
0.0
 11
1241.759345930282
 21
1245.161174953946
 31
0.0
  0
LINE
  5
3873
330
382F
100
AcDbEntity
  8
0
  6
Continuous
 62
     0
370
    -2
100
AcDbLine
 10
1219.447318563935
 20
1245.161174953946
 30
0.0
 11
1241.629345930282
 21
1245.161174953946
 31
0.0
  0
SOLID
  5
3874
330
382F
100
AcDbEntity
  8
0
  6
Continuous
 62
     0
100
AcDbTrace
 10
1219.447318563935
 20
1245.182841620613
 30
0.0
 11
1219.447318563935
 21
1245.13950828728
 31
0.0
 12
1219.317318563934
 22
1245.161174953946
 32
0.0
 13
1219.317318563934
 23
1245.161174953946
 33
0.0
  0
SOLID
  5
3875
330
382F
100
AcDbEntity
  8
0
  6
Continuous
 62
     0
100
AcDbTrace
 10
1241.629345930282
 20
1245.182841620613
 30
0.0
 11
1241.629345930282
 21
1245.13950828728
 31
0.0
 12
1241.759345930282
 22
1245.161174953946
 32
0.0
 13
1241.759345930282
 23
1245.161174953946
 33
0.0
  0
MTEXT
  5
3876
330
382F
100
AcDbEntity
  8
0
  6
Continuous
 62
     0
370
    18
100
AcDbMText
 10
1230.375703322549
 20
1245.629924953946
 30
0.0
 40
0.375
 41
0.0
 46
0.0
 71
     2
 72
     1
  1
\A1;22.4
  7
SLDTEXTSTYLE0
 73
     1
 44
1.0
  0
POINT
  5
3877
330
382F
100
AcDbEntity
  8
Defpoints
  6
Continuous
 62
     0
100
AcDbPoint
 10
1219.317318563934
 20
1248.472635098629
 30
0.0
  0
POINT
  5
3878
330
382F
100
AcDbEntity
  8
Defpoints
  6
Continuous
 62
     0
100
AcDbPoint
 10
1241.759345930282
 20
1248.472635098629
 30
0.0
  0
POINT
  5
3879
330
382F
100
AcDbEntity
  8
Defpoints
  6
Continuous
 62
     0
100
AcDbPoint
 10
1241.759345930282
 20
1245.161174953946
 30
0.0
  0
ENDBLK
  5
383A
330
382F
100
AcDbEntity
  8
0
100
AcDbBlockEnd
  0
BLOCK
  5
38A4
330
389A
100
AcDbEntity
  8
0
100
AcDbBlockBegin
  2
*D54
 70
     1
 10
0.0
 20
0.0
 30
0.0
  3
*D54
  1

  0
LINE
  5
38E5
330
389A
100
AcDbEntity
  8
0
 62
     0
370
    -2
100
AcDbLine
 10
1221.534563597631
 20
1247.346827911328
 30
0.0
 11
1215.411242441916
 21
1247.346827911328
 31
0.0
  0
LINE
  5
38E6
330
389A
100
AcDbEntity
  8
0
 62
     0
370
    -2
100
AcDbLine
 10
1221.511876655276
 20
1263.96120291929
 30
0.0
 11
1215.411242441916
 21
1263.96120291929
 31
0.0
  0
LINE
  5
38E7
330
389A
100
AcDbEntity
  8
0
 62
     0
370
    -2
100
AcDbLine
 10
1216.661242441916
 20
1248.346827911328
 30
0.0
 11
1216.661242441916
 21
1262.96120291929
 31
0.0
  0
INSERT
  5
38E8
330
389A
100
AcDbEntity
  8
0
 62
     0
370
    -2
100
AcDbBlockReference
  2
_ClosedBlank
 10
1216.661242441916
 20
1247.346827911328
 30
0.0
 50
270.0
  0
INSERT
  5
38E9
330
389A
100
AcDbEntity
  8
0
 62
     0
370
    -2
100
AcDbBlockReference
  2
_ClosedBlank
 10
1216.661242441916
 20
1263.96120291929
 30
0.0
 50
90.0
  0
MTEXT
  5
38EA
330
389A
100
AcDbEntity
  8
0
 62
     0
100
AcDbMText
 10
1215.536242441915
 20
1255.817343078102
 30
0.0
 40
1.0
 41
0.0
 46
0.0
 71
     5
 72
     1
  1
16.61
 11
0.0000000000000001
 21
1.0
 31
0.0
 73
     1
 44
1.0
  0
POINT
  5
38EB
330
389A
100
AcDbEntity
  8
Defpoints
 62
     0
100
AcDbPoint
 10
1222.034563597631
 20
1247.346827911328
 30
0.0
  0
POINT
  5
38EC
330
389A
100
AcDbEntity
  8
Defpoints
 62
     0
100
AcDbPoint
 10
1222.011876655276
 20
1263.96120291929
 30
0.0
  0
POINT
  5
38ED
330
389A
100
AcDbEntity
  8
Defpoints
 62
     0
100
AcDbPoint
 10
1216.661242441916
 20
1263.96120291929
 30
0.0
  0
ENDBLK
  5
38A5
330
389A
100
AcDbEntity
  8
0
100
AcDbBlockEnd
  0
BLOCK
  5
38EF
330
38EE
100
AcDbEntity
  8
0
100
AcDbBlockBegin
  2
*D55
 70
     1
 10
0.0
 20
0.0
 30
0.0
  3
*D55
  1

  0
LINE
  5
38F0
330
38EE
100
AcDbEntity
  8
0
 62
     0
370
    -2
100
AcDbLine
 10
1274.414206062751
 20
1251.529067566657
 30
0.0
 11
1274.414206062751
 21
1247.888668062365
 31
0.0
  0
LINE
  5
38F1
330
38EE
100
AcDbEntity
  8
0
 62
     0
370
    -2
100
AcDbLine
 10
1298.85437674075
 20
1251.529067566657
 30
0.0
 11
1298.85437674075
 21
1247.888668062365
 31
0.0
  0
LINE
  5
38F2
330
38EE
100
AcDbEntity
  8
0
 62
     0
370
    -2
100
AcDbLine
 10
1275.414206062751
 20
1249.138668062365
 30
0.0
 11
1297.85437674075
 21
1249.138668062365
 31
0.0
  0
INSERT
  5
38F3
330
38EE
100
AcDbEntity
  8
0
 62
     0
370
    -2
100
AcDbBlockReference
  2
_ClosedBlank
 10
1274.414206062751
 20
1249.138668062365
 30
0.0
 50
180.0
  0
INSERT
  5
38F4
330
38EE
100
AcDbEntity
  8
0
 62
     0
370
    -2
100
AcDbBlockReference
  2
_ClosedBlank
 10
1298.85437674075
 20
1249.138668062365
 30
0.0
  0
MTEXT
  5
38F5
330
38EE
100
AcDbEntity
  8
0
 62
     0
100
AcDbMText
 10
1286.63429140175
 20
1250.263668062365
 30
0.0
 40
1.0
 41
0.0
 46
0.0
 71
     5
 72
     1
  1
24.44
 73
     1
 44
1.0
  0
POINT
  5
38F6
330
38EE
100
AcDbEntity
  8
Defpoints
 62
     0
100
AcDbPoint
 10
1274.414206062751
 20
1252.029067566657
 30
0.0
  0
POINT
  5
38F7
330
38EE
100
AcDbEntity
  8
Defpoints
 62
     0
100
AcDbPoint
 10
1298.85437674075
 20
1252.029067566657
 30
0.0
  0
POINT
  5
38F8
330
38EE
100
AcDbEntity
  8
Defpoints
 62
     0
100
AcDbPoint
 10
1298.85437674075
 20
1249.138668062365
 30
0.0
  0
ENDBLK
  5
38F9
330
38EE
100
AcDbEntity
  8
0
100
AcDbBlockEnd
  0
BLOCK
  5
390C
330
3902
100
AcDbEntity
  8
0
100
AcDbBlockBegin
  2
*D57
 70
     1
 10
0.0
 20
0.0
 30
0.0
  3
*D57
  1

  0
LINE
  5
3936
330
3902
100
AcDbEntity
  8
0
 62
     0
370
    -2
100
AcDbLine
 10
1219.317829744661
 20
1247.928213387456
 30
0.0
 11
1219.317829744661
 21
1243.747942896062
 31
0.0
  0
LINE
  5
3937
330
3902
100
AcDbEntity
  8
0
 62
     0
370
    -2
100
AcDbLine
 10
1241.757485319079
 20
1247.928213387456
 30
0.0
 11
1241.757485319079
 21
1243.747942896062
 31
0.0
  0
LINE
  5
3938
330
3902
100
AcDbEntity
  8
0
 62
     0
370
    -2
100
AcDbLine
 10
1220.317829744661
 20
1244.997942896062
 30
0.0
 11
1240.757485319079
 21
1244.997942896062
 31
0.0
  0
INSERT
  5
3939
330
3902
100
AcDbEntity
  8
0
 62
     0
370
    -2
100
AcDbBlockReference
  2
_ClosedBlank
 10
1219.317829744661
 20
1244.997942896062
 30
0.0
 50
180.0
  0
INSERT
  5
393A
330
3902
100
AcDbEntity
  8
0
 62
     0
370
    -2
100
AcDbBlockReference
  2
_ClosedBlank
 10
1241.757485319079
 20
1244.997942896062
 30
0.0
  0
MTEXT
  5
393B
330
3902
100
AcDbEntity
  8
0
 62
     0
100
AcDbMText
 10
1230.53765753187
 20
1246.122942896062
 30
0.0
 40
1.0
 41
0.0
 46
0.0
 71
     5
 72
     1
  1
22.44
 73
     1
 44
1.0
  0
POINT
  5
393C
330
3902
100
AcDbEntity
  8
Defpoints
 62
     0
100
AcDbPoint
 10
1219.317829744661
 20
1248.428213387456
 30
0.0
  0
POINT
  5
393D
330
3902
100
AcDbEntity
  8
Defpoints
 62
     0
100
AcDbPoint
 10
1241.757485319079
 20
1248.428213387456
 30
0.0
  0
POINT
  5
393E
330
3902
100
AcDbEntity
  8
Defpoints
 62
     0
100
AcDbPoint
 10
1241.757485319079
 20
1244.997942896062
 30
0.0
  0
ENDBLK
  5
390D
330
3902
100
AcDbEntity
  8
0
100
AcDbBlockEnd
  0
BLOCK
  5
3957
330
3956
100
AcDbEntity
  8
0
100
AcDbBlockBegin
  2
*D58
 70
     1
 10
0.0
 20
0.0
 30
0.0
  3
*D58
  1

  0
LINE
  5
3958
330
3956
100
AcDbEntity
  8
0
 62
     0
440
 16777216
370
    -2
100
AcDbLine
 10
1388.330555796668
 20
1279.277693218271
 30
0.0
 11
1402.755616136523
 21
1279.277693218271
 31
0.0
  0
LINE
  5
3959
330
3956
100
AcDbEntity
  8
0
 62
     0
440
 16777216
370
    -2
100
AcDbLine
 10
1401.580555796668
 20
1284.277693218271
 30
0.0
 11
1402.755616136523
 21
1284.277693218271
 31
0.0
  0
LINE
  5
395A
330
3956
100
AcDbEntity
  8
0
 62
     0
440
 16777216
370
    -2
100
AcDbLine
 10
1402.555616136523
 20
1279.477693218271
 30
0.0
 11
1402.555616136523
 21
1284.077693218271
 31
0.0
  0
SOLID
  5
395B
330
3956
100
AcDbEntity
  8
0
 62
     0
440
 16777216
100
AcDbTrace
 10
1402.52228280319
 20
1279.477693218271
 30
0.0
 11
1402.588949469856
 21
1279.477693218271
 31
0.0
 12
1402.555616136523
 22
1279.277693218271
 32
0.0
 13
1402.555616136523
 23
1279.277693218271
 33
0.0
  0
SOLID
  5
395C
330
3956
100
AcDbEntity
  8
0
 62
     0
440
 16777216
100
AcDbTrace
 10
1402.52228280319
 20
1284.077693218271
 30
0.0
 11
1402.588949469856
 21
1284.077693218271
 31
0.0
 12
1402.555616136523
 22
1284.277693218271
 32
0.0
 13
1402.555616136523
 23
1284.277693218271
 33
0.0
  0
MTEXT
  5
395D
330
3956
100
AcDbEntity
  8
0
 62
     0
440
 16777216
100
AcDbMText
 10
1402.308766136522
 20
1281.777693218271
 30
0.0
 40
0.3937
 41
0.0
 46
0.0
 71
     5
 72
     1
  1
\A1;5
  7
스타일2
 11
0.0000000000000001
 21
1.0
 31
0.0
 73
     1
 44
1.0
  0
POINT
  5
395E
330
3956
100
AcDbEntity
  8
Defpoints
 62
     0
440
 16777216
100
AcDbPoint
 10
1388.230555796668
 20
1279.277693218271
 30
0.0
  0
POINT
  5
395F
330
3956
100
AcDbEntity
  8
Defpoints
 62
     0
440
 16777216
100
AcDbPoint
 10
1401.480555796668
 20
1284.277693218271
 30
0.0
  0
POINT
  5
3960
330
3956
100
AcDbEntity
  8
Defpoints
 62
     0
440
 16777216
100
AcDbPoint
 10
1402.555616136523
 20
1284.277693218271
 30
0.0
  0
ENDBLK
  5
3961
330
3956
100
AcDbEntity
  8
0
100
AcDbBlockEnd
  0
BLOCK
  5
3963
330
3962
100
AcDbEntity
  8
0
100
AcDbBlockBegin
  2
*D59
 70
     1
 10
0.0
 20
0.0
 30
0.0
  3
*D59
  1

  0
LINE
  5
3964
330
3962
100
AcDbEntity
  8
0
 62
     0
440
 16777216
370
    -2
100
AcDbLine
 10
1400.180555796668
 20
1267.277693218271
 30
0.0
 11
1403.546514238655
 21
1267.277693218271
 31
0.0
  0
LINE
  5
3965
330
3962
100
AcDbEntity
  8
0
 62
     0
440
 16777216
370
    -2
100
AcDbLine
 10
1400.180555796668
 20
1283.277693218271
 30
0.0
 11
1403.546514238655
 21
1283.277693218271
 31
0.0
  0
LINE
  5
3966
330
3962
100
AcDbEntity
  8
0
 62
     0
440
 16777216
370
    -2
100
AcDbLine
 10
1403.346514238655
 20
1267.477693218271
 30
0.0
 11
1403.346514238655
 21
1283.077693218271
 31
0.0
  0
SOLID
  5
3967
330
3962
100
AcDbEntity
  8
0
 62
     0
440
 16777216
100
AcDbTrace
 10
1403.313180905322
 20
1267.477693218271
 30
0.0
 11
1403.379847571988
 21
1267.477693218271
 31
0.0
 12
1403.346514238655
 22
1267.277693218271
 32
0.0
 13
1403.346514238655
 23
1267.277693218271
 33
0.0
  0
SOLID
  5
3968
330
3962
100
AcDbEntity
  8
0
 62
     0
440
 16777216
100
AcDbTrace
 10
1403.313180905322
 20
1283.077693218271
 30
0.0
 11
1403.379847571988
 21
1283.077693218271
 31
0.0
 12
1403.346514238655
 22
1283.277693218271
 32
0.0
 13
1403.346514238655
 23
1283.277693218271
 33
0.0
  0
MTEXT
  5
3969
330
3962
100
AcDbEntity
  8
0
 62
     0
440
 16777216
100
AcDbMText
 10
1403.099664238655
 20
1275.277693218271
 30
0.0
 40
0.3937
 41
0.0
 46
0.0
 71
     5
 72
     1
  1
\A1;16
  7
스타일2
 11
0.0000000000000001
 21
1.0
 31
0.0
 73
     1
 44
1.0
  0
POINT
  5
396A
330
3962
100
AcDbEntity
  8
Defpoints
 62
     0
440
 16777216
100
AcDbPoint
 10
1400.080555796668
 20
1267.277693218271
 30
0.0
  0
POINT
  5
396B
330
3962
100
AcDbEntity
  8
Defpoints
 62
     0
440
 16777216
100
AcDbPoint
 10
1400.080555796668
 20
1283.277693218271
 30
0.0
  0
POINT
  5
396C
330
3962
100
AcDbEntity
  8
Defpoints
 62
     0
440
 16777216
100
AcDbPoint
 10
1403.346514238655
 20
1283.277693218271
 30
0.0
  0
ENDBLK
  5
396D
330
3962
100
AcDbEntity
  8
0
100
AcDbBlockEnd
  0
BLOCK
  5
396F
330
396E
100
AcDbEntity
  8
0
100
AcDbBlockBegin
  2
*D60
 70
     1
 10
0.0
 20
0.0
 30
0.0
  3
*D60
  1

  0
LINE
  5
3970
330
396E
100
AcDbEntity
  8
0
 62
     0
440
 16777216
370
    -2
100
AcDbLine
 10
1401.580555796668
 20
1284.277693218271
 30
0.0
 11
1404.864677803736
 21
1284.277693218271
 31
0.0
  0
LINE
  5
3971
330
396E
100
AcDbEntity
  8
0
 62
     0
440
 16777216
370
    -2
100
AcDbLine
 10
1401.580555796668
 20
1266.277693218271
 30
0.0
 11
1404.864677803736
 21
1266.277693218271
 31
0.0
  0
LINE
  5
3972
330
396E
100
AcDbEntity
  8
0
 62
     0
440
 16777216
370
    -2
100
AcDbLine
 10
1404.664677803736
 20
1284.077693218271
 30
0.0
 11
1404.664677803736
 21
1266.477693218271
 31
0.0
  0
SOLID
  5
3973
330
396E
100
AcDbEntity
  8
0
 62
     0
440
 16777216
100
AcDbTrace
 10
1404.631344470402
 20
1284.077693218271
 30
0.0
 11
1404.698011137069
 21
1284.077693218271
 31
0.0
 12
1404.664677803736
 22
1284.277693218271
 32
0.0
 13
1404.664677803736
 23
1284.277693218271
 33
0.0
  0
SOLID
  5
3974
330
396E
100
AcDbEntity
  8
0
 62
     0
440
 16777216
100
AcDbTrace
 10
1404.631344470402
 20
1266.477693218271
 30
0.0
 11
1404.698011137069
 21
1266.477693218271
 31
0.0
 12
1404.664677803736
 22
1266.277693218271
 32
0.0
 13
1404.664677803736
 23
1266.277693218271
 33
0.0
  0
MTEXT
  5
3975
330
396E
100
AcDbEntity
  8
0
 62
     0
440
 16777216
100
AcDbMText
 10
1404.417827803736
 20
1275.277693218271
 30
0.0
 40
0.3937
 41
0.0
 46
0.0
 71
     5
 72
     1
  1
\A1;18
  7
스타일2
 11
0.0000000000000001
 21
1.0
 31
0.0
 73
     1
 44
1.0
  0
POINT
  5
3976
330
396E
100
AcDbEntity
  8
Defpoints
 62
     0
440
 16777216
100
AcDbPoint
 10
1401.480555796668
 20
1284.277693218271
 30
0.0
  0
POINT
  5
3977
330
396E
100
AcDbEntity
  8
Defpoints
 62
     0
440
 16777216
100
AcDbPoint
 10
1401.480555796668
 20
1266.277693218271
 30
0.0
  0
POINT
  5
3978
330
396E
100
AcDbEntity
  8
Defpoints
 62
     0
440
 16777216
100
AcDbPoint
 10
1404.664677803736
 20
1266.277693218271
 30
0.0
  0
ENDBLK
  5
3979
330
396E
100
AcDbEntity
  8
0
100
AcDbBlockEnd
  0
BLOCK
  5
397B
330
397A
100
AcDbEntity
  8
0
100
AcDbBlockBegin
  2
*D61
 70
     1
 10
0.0
 20
0.0
 30
0.0
  3
*D61
  1

  0
LINE
  5
397C
330
397A
100
AcDbEntity
  8
0
 62
     0
440
 16777216
370
    -2
100
AcDbLine
 10
1375.980555796668
 20
1275.177693218271
 30
0.0
 11
1375.980555796668
 21
1275.019605651149
 31
0.0
  0
LINE
  5
397D
330
397A
100
AcDbEntity
  8
0
 62
     0
440
 16777216
370
    -2
100
AcDbLine
 10
1374.980555796669
 20
1275.177693218271
 30
0.0
 11
1374.980555796669
 21
1275.019605651149
 31
0.0
  0
LINE
  5
397E
330
397A
100
AcDbEntity
  8
0
 62
     0
440
 16777216
370
    -2
100
AcDbLine
 10
1375.780555796668
 20
1275.219605651149
 30
0.0
 11
1375.180555796668
 21
1275.219605651149
 31
0.0
  0
LINE
  5
397F
330
397A
100
AcDbEntity
  8
0
 62
     0
440
 16777216
370
    -2
100
AcDbLine
 10
1374.980555796669
 20
1275.219605651149
 30
0.0
 11
1374.00914137897
 21
1275.219605651149
 31
0.0
  0
SOLID
  5
3980
330
397A
100
AcDbEntity
  8
0
 62
     0
440
 16777216
100
AcDbTrace
 10
1375.780555796668
 20
1275.252938984482
 30
0.0
 11
1375.780555796668
 21
1275.186272317816
 31
0.0
 12
1375.980555796668
 22
1275.219605651149
 32
0.0
 13
1375.980555796668
 23
1275.219605651149
 33
0.0
  0
SOLID
  5
3981
330
397A
100
AcDbEntity
  8
0
 62
     0
440
 16777216
100
AcDbTrace
 10
1375.180555796668
 20
1275.252938984482
 30
0.0
 11
1375.180555796668
 21
1275.186272317816
 31
0.0
 12
1374.980555796669
 22
1275.219605651149
 32
0.0
 13
1374.980555796669
 23
1275.219605651149
 33
0.0
  0
MTEXT
  5
3982
330
397A
100
AcDbEntity
  8
0
 62
     0
440
 16777216
100
AcDbMText
 10
1374.124758045637
 20
1275.466455651149
 30
0.0
 40
0.3937
 41
0.0
 46
0.0
 71
     5
 72
     1
  1
\A1;1
  7
스타일2
 73
     1
 44
1.0
  0
POINT
  5
3983
330
397A
100
AcDbEntity
  8
Defpoints
 62
     0
440
 16777216
100
AcDbPoint
 10
1375.980555796668
 20
1275.277693218271
 30
0.0
  0
POINT
  5
3984
330
397A
100
AcDbEntity
  8
Defpoints
 62
     0
440
 16777216
100
AcDbPoint
 10
1374.980555796669
 20
1275.277693218271
 30
0.0
  0
POINT
  5
3985
330
397A
100
AcDbEntity
  8
Defpoints
 62
     0
440
 16777216
100
AcDbPoint
 10
1374.980555796669
 20
1275.219605651149
 30
0.0
  0
ENDBLK
  5
3986
330
397A
100
AcDbEntity
  8
0
100
AcDbBlockEnd
  0
BLOCK
  5
3988
330
3987
100
AcDbEntity
  8
0
100
AcDbBlockBegin
  2
*D62
 70
     1
 10
0.0
 20
0.0
 30
0.0
  3
*D62
  1

  0
LINE
  5
3989
330
3987
100
AcDbEntity
  8
0
 62
     0
440
 16777216
370
    -2
100
AcDbLine
 10
1399.037181204189
 20
1269.668091833723
 30
0.0
 11
1399.801987185038
 21
1268.209105984973
 31
0.0
  0
MTEXT
  5
398A
330
3987
100
AcDbEntity
  8
0
 62
     0
440
 16777216
100
AcDbMText
 10
1399.537976193812
 20
1269.244430135818
 30
0.0
 40
0.3937
 41
0.0
 46
0.0
 71
     5
 72
     1
  1
\A1;R0.4
  7
스타일2
 11
0.4642810193829361
 21
-0.8856879445045764
 31
0.0
 73
     1
 44
1.0
  0
LINE
  5
398B
330
3987
100
AcDbEntity
  8
0
 62
     0
440
 16777216
370
    -2
100
AcDbLine
 10
1400.080555796668
 20
1267.677693218271
 30
0.0
 11
1399.894843388915
 21
1268.031968396073
 31
0.0
  0
SOLID
  5
398C
330
3987
100
AcDbEntity
  8
0
 62
     0
440
 16777216
100
AcDbTrace
 10
1399.831510116522
 20
1268.224582018953
 30
0.0
 11
1399.772464253555
 21
1268.193629950994
 31
0.0
 12
1399.894843388915
 22
1268.031968396073
 32
0.0
 13
1399.894843388915
 23
1268.031968396073
 33
0.0
  0
ARC
  5
398D
330
3987
100
AcDbEntity
  8
0
 62
     0
440
 16777216
370
    -2
100
AcDbCircle
 10
1400.080555796668
 20
1267.677693218271
 30
0.0
 40
0.3999999999999772
100
AcDbArc
 50
14.32394487827145
 51
146.3115905357428
  0
POINT
  5
398E
330
3987
100
AcDbEntity
  8
Defpoints
 62
     0
440
 16777216
100
AcDbPoint
 10
1399.894843388915
 20
1268.031968396073
 30
0.0
  0
POINT
  5
398F
330
3987
100
AcDbEntity
  8
Defpoints
 62
     0
440
 16777216
100
AcDbPoint
 10
1400.080555796668
 20
1267.677693218271
 30
0.0
  0
ENDBLK
  5
3990
330
3987
100
AcDbEntity
  8
0
100
AcDbBlockEnd
  0
BLOCK
  5
3992
330
3991
100
AcDbEntity
  8
0
100
AcDbBlockBegin
  2
*D63
 70
     1
 10
0.0
 20
0.0
 30
0.0
  3
*D63
  1

  0
LINE
  5
3993
330
3991
100
AcDbEntity
  8
0
 62
     0
440
 16777216
370
    -2
100
AcDbLine
 10
1384.402644217678
 20
1277.168912920332
 30
0.0
 11
1386.089018447707
 21
1278.097929350794
 31
0.0
  0
LINE
  5
3994
330
3991
100
AcDbEntity
  8
0
 62
     0
440
 16777216
370
    -2
100
AcDbLine
 10
1390.37209314563
 20
1280.457457085747
 30
0.0
 11
1390.547270024891
 21
1280.553961287586
 31
0.0
  0
MTEXT
  5
3995
330
3991
100
AcDbEntity
  8
0
 62
     0
440
 16777216
100
AcDbMText
 10
1385.016999500023
 20
1277.789188076658
 30
0.0
 40
0.3937
 41
0.0
 46
0.0
 71
     5
 72
     1
  1
\A1;∅4.49
  7
스타일2
 11
0.8758843963032283
 21
0.4825210091928945
 31
0.0
 73
     1
 44
1.0
  0
LINE
  5
3996
330
3991
100
AcDbEntity
  8
0
 62
     0
440
 16777216
370
    -2
100
AcDbLine
 10
1390.196916266369
 20
1280.360952883909
 30
0.0
 11
1386.264195326968
 21
1278.194433552633
 31
0.0
  0
SOLID
  5
3997
330
3991
100
AcDbEntity
  8
0
 62
     0
440
 16777216
100
AcDbTrace
 10
1390.35600911199
 20
1280.486653232291
 30
0.0
 11
1390.38817717927
 21
1280.428260939204
 31
0.0
 12
1390.196916266369
 22
1280.360952883909
 32
0.0
 13
1390.196916266369
 23
1280.360952883909
 33
0.0
  0
SOLID
  5
3998
330
3991
100
AcDbEntity
  8
0
 62
     0
440
 16777216
100
AcDbTrace
 10
1386.072934414067
 20
1278.127125497337
 30
0.0
 11
1386.105102481347
 21
1278.068733204251
 31
0.0
 12
1386.264195326968
 22
1278.194433552633
 32
0.0
 13
1386.264195326968
 23
1278.194433552633
 33
0.0
  0
POINT
  5
3999
330
3991
100
AcDbEntity
  8
Defpoints
 62
     0
440
 16777216
100
AcDbPoint
 10
1386.264195326968
 20
1278.194433552633
 30
0.0
  0
POINT
  5
399A
330
3991
100
AcDbEntity
  8
Defpoints
 62
     0
440
 16777216
100
AcDbPoint
 10
1390.196916266369
 20
1280.360952883909
 30
0.0
  0
ENDBLK
  5
399B
330
3991
100
AcDbEntity
  8
0
100
AcDbBlockEnd
  0
BLOCK
  5
399D
330
399C
100
AcDbEntity
  8
0
100
AcDbBlockBegin
  2
*D64
 70
     1
 10
0.0
 20
0.0
 30
0.0
  3
*D64
  1

  0
LINE
  5
399E
330
399C
100
AcDbEntity
  8
0
 62
     0
440
 16777216
370
    -2
100
AcDbLine
 10
1392.636874367019
 20
1277.122460527505
 30
0.0
 11
1390.004700842139
 21
1278.409917695664
 31
0.0
  0
LINE
  5
399F
330
399C
100
AcDbEntity
  8
0
 62
     0
440
 16777216
370
    -2
100
AcDbLine
 10
1386.456410751199
 20
1280.145468740877
 30
0.0
 11
1386.276750493429
 21
1280.233344743166
 31
0.0
  0
MTEXT
  5
39A0
330
399C
100
AcDbEntity
  8
0
 62
     0
440
 16777216
100
AcDbMText
 10
1391.993097823565
 20
1277.712143022241
 30
0.0
 40
0.3937
 41
0.0
 46
0.0
 71
     5
 72
     1
  1
\A1;∅3.55
  7
스타일2
 11
0.8983012888454728
 21
-0.4393800114463133
 31
0.0
 73
     1
 44
1.0
  0
LINE
  5
39A1
330
399C
100
AcDbEntity
  8
0
 62
     0
440
 16777216
370
    -2
100
AcDbLine
 10
1386.636071008968
 20
1280.057592738588
 30
0.0
 11
1389.825040584369
 21
1278.497793697953
 31
0.0
  0
SOLID
  5
39A2
330
399C
100
AcDbEntity
  8
0
 62
     0
440
 16777216
100
AcDbTrace
 10
1386.47105675158
 20
1280.175412117172
 30
0.0
 11
1386.441764750817
 21
1280.115525364582
 31
0.0
 12
1386.636071008968
 22
1280.057592738588
 32
0.0
 13
1386.636071008968
 23
1280.057592738588
 33
0.0
  0
SOLID
  5
39A3
330
399C
100
AcDbEntity
  8
0
 62
     0
440
 16777216
100
AcDbTrace
 10
1390.01934684252
 20
1278.439861071959
 30
0.0
 11
1389.990054841757
 21
1278.379974319369
 31
0.0
 12
1389.825040584369
 22
1278.497793697953
 32
0.0
 13
1389.825040584369
 23
1278.497793697953
 33
0.0
  0
POINT
  5
39A4
330
399C
100
AcDbEntity
  8
Defpoints
 62
     0
440
 16777216
100
AcDbPoint
 10
1389.825040584369
 20
1278.497793697953
 30
0.0
  0
POINT
  5
39A5
330
399C
100
AcDbEntity
  8
Defpoints
 62
     0
440
 16777216
100
AcDbPoint
 10
1386.636071008968
 20
1280.057592738588
 30
0.0
  0
ENDBLK
  5
39A6
330
399C
100
AcDbEntity
  8
0
100
AcDbBlockEnd
  0
BLOCK
  5
39A8
330
39A7
100
AcDbEntity
  8
0
100
AcDbBlockBegin
  2
*D65
 70
     1
 10
0.0
 20
0.0
 30
0.0
  3
*D65
  1

  0
LINE
  5
39A9
330
39A7
100
AcDbEntity
  8
0
 62
     0
440
 16777216
370
    -2
100
AcDbLine
 10
1400.480555796668
 20
1267.577693218271
 30
0.0
 11
1400.480555796668
 21
1264.936151208301
 31
0.0
  0
LINE
  5
39AA
330
39A7
100
AcDbEntity
  8
0
 62
     0
440
 16777216
370
    -2
100
AcDbLine
 10
1375.980555796668
 20
1267.577693218271
 30
0.0
 11
1375.980555796668
 21
1264.936151208301
 31
0.0
  0
LINE
  5
39AB
330
39A7
100
AcDbEntity
  8
0
 62
     0
440
 16777216
370
    -2
100
AcDbLine
 10
1400.280555796668
 20
1265.136151208301
 30
0.0
 11
1376.180555796669
 21
1265.136151208301
 31
0.0
  0
SOLID
  5
39AC
330
39A7
100
AcDbEntity
  8
0
 62
     0
440
 16777216
100
AcDbTrace
 10
1400.280555796668
 20
1265.169484541634
 30
0.0
 11
1400.280555796668
 21
1265.102817874968
 31
0.0
 12
1400.480555796668
 22
1265.136151208301
 32
0.0
 13
1400.480555796668
 23
1265.136151208301
 33
0.0
  0
SOLID
  5
39AD
330
39A7
100
AcDbEntity
  8
0
 62
     0
440
 16777216
100
AcDbTrace
 10
1376.180555796669
 20
1265.169484541634
 30
0.0
 11
1376.180555796669
 21
1265.102817874968
 31
0.0
 12
1375.980555796668
 22
1265.136151208301
 32
0.0
 13
1375.980555796668
 23
1265.136151208301
 33
0.0
  0
MTEXT
  5
39AE
330
39A7
100
AcDbEntity
  8
0
 62
     0
440
 16777216
100
AcDbMText
 10
1388.230555796668
 20
1265.383001208301
 30
0.0
 40
0.3937
 41
0.0
 46
0.0
 71
     5
 72
     1
  1
\A1;24.5
  7
스타일2
 73
     1
 44
1.0
  0
POINT
  5
39AF
330
39A7
100
AcDbEntity
  8
Defpoints
 62
     0
440
 16777216
100
AcDbPoint
 10
1400.480555796668
 20
1267.677693218271
 30
0.0
  0
POINT
  5
39B0
330
39A7
100
AcDbEntity
  8
Defpoints
 62
     0
440
 16777216
100
AcDbPoint
 10
1375.980555796668
 20
1267.677693218271
 30
0.0
  0
POINT
  5
39B1
330
39A7
100
AcDbEntity
  8
Defpoints
 62
     0
440
 16777216
100
AcDbPoint
 10
1375.980555796668
 20
1265.136151208301
 30
0.0
  0
ENDBLK
  5
39B2
330
39A7
100
AcDbEntity
  8
0
100
AcDbBlockEnd
  0
BLOCK
  5
39B4
330
39B3
100
AcDbEntity
  8
0
100
AcDbBlockBegin
  2
*D66
 70
     1
 10
0.0
 20
0.0
 30
0.0
  3
*D66
  1

  0
LINE
  5
39B5
330
39B3
100
AcDbEntity
  8
0
 62
     0
440
 16777216
370
    -2
100
AcDbLine
 10
1374.980555796669
 20
1266.177693218271
 30
0.0
 11
1374.980555796669
 21
1263.555571417608
 31
0.0
  0
LINE
  5
39B6
330
39B3
100
AcDbEntity
  8
0
 62
     0
440
 16777216
370
    -2
100
AcDbLine
 10
1401.480555796668
 20
1266.177693218271
 30
0.0
 11
1401.480555796668
 21
1263.555571417608
 31
0.0
  0
LINE
  5
39B7
330
39B3
100
AcDbEntity
  8
0
 62
     0
440
 16777216
370
    -2
100
AcDbLine
 10
1375.180555796668
 20
1263.755571417608
 30
0.0
 11
1401.280555796668
 21
1263.755571417608
 31
0.0
  0
SOLID
  5
39B8
330
39B3
100
AcDbEntity
  8
0
 62
     0
440
 16777216
100
AcDbTrace
 10
1375.180555796668
 20
1263.788904750941
 30
0.0
 11
1375.180555796668
 21
1263.722238084274
 31
0.0
 12
1374.980555796669
 22
1263.755571417608
 32
0.0
 13
1374.980555796669
 23
1263.755571417608
 33
0.0
  0
SOLID
  5
39B9
330
39B3
100
AcDbEntity
  8
0
 62
     0
440
 16777216
100
AcDbTrace
 10
1401.280555796668
 20
1263.788904750941
 30
0.0
 11
1401.280555796668
 21
1263.722238084274
 31
0.0
 12
1401.480555796668
 22
1263.755571417608
 32
0.0
 13
1401.480555796668
 23
1263.755571417608
 33
0.0
  0
MTEXT
  5
39BA
330
39B3
100
AcDbEntity
  8
0
 62
     0
440
 16777216
100
AcDbMText
 10
1388.230555796668
 20
1264.002421417608
 30
0.0
 40
0.3937
 41
0.0
 46
0.0
 71
     5
 72
     1
  1
\A1;26.5
  7
스타일2
 73
     1
 44
1.0
  0
POINT
  5
39BB
330
39B3
100
AcDbEntity
  8
Defpoints
 62
     0
440
 16777216
100
AcDbPoint
 10
1374.980555796669
 20
1266.277693218271
 30
0.0
  0
POINT
  5
39BC
330
39B3
100
AcDbEntity
  8
Defpoints
 62
     0
440
 16777216
100
AcDbPoint
 10
1401.480555796668
 20
1266.277693218271
 30
0.0
  0
POINT
  5
39BD
330
39B3
100
AcDbEntity
  8
Defpoints
 62
     0
440
 16777216
100
AcDbPoint
 10
1401.480555796668
 20
1263.755571417608
 30
0.0
  0
ENDBLK
  5
39BE
330
39B3
100
AcDbEntity
  8
0
100
AcDbBlockEnd
  0
BLOCK
  5
3A08
330
39FE
100
AcDbEntity
  8
0
100
AcDbBlockBegin
  2
*D68
 70
     1
 10
0.0
 20
0.0
 30
0.0
  3
*D68
  1

  0
LINE
  5
3A66
330
39FE
100
AcDbEntity
  8
0
 62
     0
370
    -2
100
AcDbLine
 10
1178.998451696678
 20
1262.428793038962
 30
0.0
 11
1193.423512036533
 21
1262.428793038962
 31
0.0
  0
LINE
  5
3A67
330
39FE
100
AcDbEntity
  8
0
 62
     0
370
    -2
100
AcDbLine
 10
1192.248451696678
 20
1267.428793038962
 30
0.0
 11
1193.423512036533
 21
1267.428793038962
 31
0.0
  0
LINE
  5
3A68
330
39FE
100
AcDbEntity
  8
0
 62
     0
370
    -2
100
AcDbLine
 10
1193.223512036533
 20
1262.628793038962
 30
0.0
 11
1193.223512036533
 21
1267.228793038962
 31
0.0
  0
SOLID
  5
3A69
330
39FE
100
AcDbEntity
  8
0
 62
     0
100
AcDbTrace
 10
1193.1901787032
 20
1262.628793038962
 30
0.0
 11
1193.256845369866
 21
1262.628793038962
 31
0.0
 12
1193.223512036533
 22
1262.428793038962
 32
0.0
 13
1193.223512036533
 23
1262.428793038962
 33
0.0
  0
SOLID
  5
3A6A
330
39FE
100
AcDbEntity
  8
0
 62
     0
100
AcDbTrace
 10
1193.1901787032
 20
1267.228793038962
 30
0.0
 11
1193.256845369866
 21
1267.228793038962
 31
0.0
 12
1193.223512036533
 22
1267.428793038962
 32
0.0
 13
1193.223512036533
 23
1267.428793038962
 33
0.0
  0
MTEXT
  5
3A6B
330
39FE
100
AcDbEntity
  8
0
 62
     0
100
AcDbMText
 10
1192.976662036532
 20
1264.928793038962
 30
0.0
 40
0.3937
 41
0.0
 46
0.0
 71
     5
 72
     1
  1
\A1;5
  7
스타일2
 11
0.0000000000000001
 21
1.0
 31
0.0
 73
     1
 44
1.0
  0
POINT
  5
3A6C
330
39FE
100
AcDbEntity
  8
Defpoints
 62
     0
100
AcDbPoint
 10
1178.898451696678
 20
1262.428793038962
 30
0.0
  0
POINT
  5
3A6D
330
39FE
100
AcDbEntity
  8
Defpoints
 62
     0
100
AcDbPoint
 10
1192.148451696678
 20
1267.428793038962
 30
0.0
  0
POINT
  5
3A6E
330
39FE
100
AcDbEntity
  8
Defpoints
 62
     0
100
AcDbPoint
 10
1193.223512036533
 20
1267.428793038962
 30
0.0
  0
ENDBLK
  5
3A09
330
39FE
100
AcDbEntity
  8
0
100
AcDbBlockEnd
  0
BLOCK
  5
3A14
330
3A0A
100
AcDbEntity
  8
0
100
AcDbBlockBegin
  2
*D69
 70
     1
 10
0.0
 20
0.0
 30
0.0
  3
*D69
  1

  0
LINE
  5
3B0A
330
3A0A
100
AcDbEntity
  8
0
 62
     0
370
    -2
100
AcDbLine
 10
1210.751322333358
 20
1250.987580847355
 30
0.0
 11
1214.117280775345
 21
1250.987580847355
 31
0.0
  0
LINE
  5
3B0B
330
3A0A
100
AcDbEntity
  8
0
 62
     0
370
    -2
100
AcDbLine
 10
1210.751322333358
 20
1266.987580847355
 30
0.0
 11
1214.117280775345
 21
1266.987580847355
 31
0.0
  0
LINE
  5
3B0C
330
3A0A
100
AcDbEntity
  8
0
 62
     0
370
    -2
100
AcDbLine
 10
1213.917280775345
 20
1251.187580847355
 30
0.0
 11
1213.917280775345
 21
1266.787580847355
 31
0.0
  0
SOLID
  5
3B0D
330
3A0A
100
AcDbEntity
  8
0
 62
     0
100
AcDbTrace
 10
1213.883947442012
 20
1251.187580847355
 30
0.0
 11
1213.950614108678
 21
1251.187580847355
 31
0.0
 12
1213.917280775345
 22
1250.987580847355
 32
0.0
 13
1213.917280775345
 23
1250.987580847355
 33
0.0
  0
SOLID
  5
3B0E
330
3A0A
100
AcDbEntity
  8
0
 62
     0
100
AcDbTrace
 10
1213.883947442012
 20
1266.787580847355
 30
0.0
 11
1213.950614108678
 21
1266.787580847355
 31
0.0
 12
1213.917280775345
 22
1266.987580847355
 32
0.0
 13
1213.917280775345
 23
1266.987580847355
 33
0.0
  0
MTEXT
  5
3B0F
330
3A0A
100
AcDbEntity
  8
0
 62
     0
100
AcDbMText
 10
1213.670430775344
 20
1258.987580847355
 30
0.0
 40
0.3937
 41
0.0
 46
0.0
 71
     5
 72
     1
  1
\A1;16
  7
스타일2
 11
0.0000000000000001
 21
1.0
 31
0.0
 73
     1
 44
1.0
  0
POINT
  5
3B10
330
3A0A
100
AcDbEntity
  8
Defpoints
 62
     0
100
AcDbPoint
 10
1210.651322333358
 20
1250.987580847355
 30
0.0
  0
POINT
  5
3B11
330
3A0A
100
AcDbEntity
  8
Defpoints
 62
     0
100
AcDbPoint
 10
1210.651322333358
 20
1266.987580847355
 30
0.0
  0
POINT
  5
3B12
330
3A0A
100
AcDbEntity
  8
Defpoints
 62
     0
100
AcDbPoint
 10
1213.917280775345
 20
1266.987580847355
 30
0.0
  0
ENDBLK
  5
3A15
330
3A0A
100
AcDbEntity
  8
0
100
AcDbBlockEnd
  0
BLOCK
  5
3A20
330
3A16
100
AcDbEntity
  8
0
100
AcDbBlockBegin
  2
*D70
 70
     1
 10
0.0
 20
0.0
 30
0.0
  3
*D70
  1

  0
LINE
  5
3A78
330
3A16
100
AcDbEntity
  8
0
 62
     0
370
    -2
100
AcDbLine
 10
1192.248451696678
 20
1267.428793038962
 30
0.0
 11
1195.532573703746
 21
1267.428793038962
 31
0.0
  0
LINE
  5
3A79
330
3A16
100
AcDbEntity
  8
0
 62
     0
370
    -2
100
AcDbLine
 10
1192.248451696678
 20
1249.428793038962
 30
0.0
 11
1195.532573703746
 21
1249.428793038962
 31
0.0
  0
LINE
  5
3A7A
330
3A16
100
AcDbEntity
  8
0
 62
     0
370
    -2
100
AcDbLine
 10
1195.332573703746
 20
1267.228793038962
 30
0.0
 11
1195.332573703746
 21
1249.628793038962
 31
0.0
  0
SOLID
  5
3A7B
330
3A16
100
AcDbEntity
  8
0
 62
     0
100
AcDbTrace
 10
1195.299240370412
 20
1267.228793038962
 30
0.0
 11
1195.365907037079
 21
1267.228793038962
 31
0.0
 12
1195.332573703746
 22
1267.428793038962
 32
0.0
 13
1195.332573703746
 23
1267.428793038962
 33
0.0
  0
SOLID
  5
3A7C
330
3A16
100
AcDbEntity
  8
0
 62
     0
100
AcDbTrace
 10
1195.299240370412
 20
1249.628793038962
 30
0.0
 11
1195.365907037079
 21
1249.628793038962
 31
0.0
 12
1195.332573703746
 22
1249.428793038962
 32
0.0
 13
1195.332573703746
 23
1249.428793038962
 33
0.0
  0
MTEXT
  5
3A7D
330
3A16
100
AcDbEntity
  8
0
 62
     0
100
AcDbMText
 10
1195.085723703745
 20
1258.428793038962
 30
0.0
 40
0.3937
 41
0.0
 46
0.0
 71
     5
 72
     1
  1
\A1;18
  7
스타일2
 11
0.0000000000000001
 21
1.0
 31
0.0
 73
     1
 44
1.0
  0
POINT
  5
3A7E
330
3A16
100
AcDbEntity
  8
Defpoints
 62
     0
100
AcDbPoint
 10
1192.148451696678
 20
1267.428793038962
 30
0.0
  0
POINT
  5
3A7F
330
3A16
100
AcDbEntity
  8
Defpoints
 62
     0
100
AcDbPoint
 10
1192.148451696678
 20
1249.428793038962
 30
0.0
  0
POINT
  5
3A80
330
3A16
100
AcDbEntity
  8
Defpoints
 62
     0
100
AcDbPoint
 10
1195.332573703746
 20
1249.428793038962
 30
0.0
  0
ENDBLK
  5
3A21
330
3A16
100
AcDbEntity
  8
0
100
AcDbBlockEnd
  0
BLOCK
  5
3A2D
330
3A22
100
AcDbEntity
  8
0
100
AcDbBlockBegin
  2
*D71
 70
     1
 10
0.0
 20
0.0
 30
0.0
  3
*D71
  1

  0
LINE
  5
3A81
330
3A22
100
AcDbEntity
  8
0
 62
     0
370
    -2
100
AcDbLine
 10
1166.648451696678
 20
1258.328793038962
 30
0.0
 11
1166.648451696678
 21
1258.17070547184
 31
0.0
  0
LINE
  5
3A82
330
3A22
100
AcDbEntity
  8
0
 62
     0
370
    -2
100
AcDbLine
 10
1165.648451696679
 20
1258.328793038962
 30
0.0
 11
1165.648451696679
 21
1258.17070547184
 31
0.0
  0
LINE
  5
3A83
330
3A22
100
AcDbEntity
  8
0
 62
     0
370
    -2
100
AcDbLine
 10
1166.448451696678
 20
1258.37070547184
 30
0.0
 11
1165.848451696679
 21
1258.37070547184
 31
0.0
  0
LINE
  5
3A84
330
3A22
100
AcDbEntity
  8
0
 62
     0
370
    -2
100
AcDbLine
 10
1165.648451696679
 20
1258.37070547184
 30
0.0
 11
1164.67703727898
 21
1258.37070547184
 31
0.0
  0
SOLID
  5
3A85
330
3A22
100
AcDbEntity
  8
0
 62
     0
100
AcDbTrace
 10
1166.448451696678
 20
1258.404038805173
 30
0.0
 11
1166.448451696678
 21
1258.337372138506
 31
0.0
 12
1166.648451696678
 22
1258.37070547184
 32
0.0
 13
1166.648451696678
 23
1258.37070547184
 33
0.0
  0
SOLID
  5
3A86
330
3A22
100
AcDbEntity
  8
0
 62
     0
100
AcDbTrace
 10
1165.848451696679
 20
1258.404038805173
 30
0.0
 11
1165.848451696679
 21
1258.337372138506
 31
0.0
 12
1165.648451696679
 22
1258.37070547184
 32
0.0
 13
1165.648451696679
 23
1258.37070547184
 33
0.0
  0
MTEXT
  5
3A87
330
3A22
100
AcDbEntity
  8
0
 62
     0
100
AcDbMText
 10
1164.792653945647
 20
1258.61755547184
 30
0.0
 40
0.3937
 41
0.0
 46
0.0
 71
     5
 72
     1
  1
\A1;1
  7
스타일2
 73
     1
 44
1.0
  0
POINT
  5
3A88
330
3A22
100
AcDbEntity
  8
Defpoints
 62
     0
100
AcDbPoint
 10
1166.648451696678
 20
1258.428793038962
 30
0.0
  0
POINT
  5
3A89
330
3A22
100
AcDbEntity
  8
Defpoints
 62
     0
100
AcDbPoint
 10
1165.648451696679
 20
1258.428793038962
 30
0.0
  0
POINT
  5
3A8A
330
3A22
100
AcDbEntity
  8
Defpoints
 62
     0
100
AcDbPoint
 10
1165.648451696679
 20
1258.37070547184
 30
0.0
  0
ENDBLK
  5
3A2E
330
3A22
100
AcDbEntity
  8
0
100
AcDbBlockEnd
  0
BLOCK
  5
3A36
330
3A2F
100
AcDbEntity
  8
0
100
AcDbBlockBegin
  2
*D72
 70
     1
 10
0.0
 20
0.0
 30
0.0
  3
*D72
  1

  0
LINE
  5
3B13
330
3A2F
100
AcDbEntity
  8
0
 62
     0
370
    -2
100
AcDbLine
 10
1209.60794774088
 20
1253.377979462806
 30
0.0
 11
1210.372753721728
 21
1251.918993614057
 31
0.0
  0
MTEXT
  5
3B14
330
3A2F
100
AcDbEntity
  8
0
 62
     0
100
AcDbMText
 10
1210.108742730502
 20
1252.954317764901
 30
0.0
 40
0.3937
 41
0.0
 46
0.0
 71
     5
 72
     1
  1
\A1;R0.4
  7
스타일2
 11
0.4642810193831475
 21
-0.8856879445044656
 31
0.0
 73
     1
 44
1.0
  0
LINE
  5
3B15
330
3A2F
100
AcDbEntity
  8
0
 62
     0
370
    -2
100
AcDbLine
 10
1210.651322333358
 20
1251.387580847354
 30
0.0
 11
1210.465609925605
 21
1251.741856025156
 31
0.0
  0
SOLID
  5
3B16
330
3A2F
100
AcDbEntity
  8
0
 62
     0
100
AcDbTrace
 10
1210.402276653211
 20
1251.934469648037
 30
0.0
 11
1210.343230790244
 21
1251.903517580078
 31
0.0
 12
1210.465609925605
 22
1251.741856025156
 32
0.0
 13
1210.465609925605
 23
1251.741856025156
 33
0.0
  0
POINT
  5
3B17
330
3A2F
100
AcDbEntity
  8
Defpoints
 62
     0
100
AcDbPoint
 10
1210.465609925605
 20
1251.741856025156
 30
0.0
  0
POINT
  5
3B18
330
3A2F
100
AcDbEntity
  8
Defpoints
 62
     0
100
AcDbPoint
 10
1210.651322333358
 20
1251.387580847354
 30
0.0
  0
ENDBLK
  5
3A37
330
3A2F
100
AcDbEntity
  8
0
100
AcDbBlockEnd
  0
BLOCK
  5
3A41
330
3A38
100
AcDbEntity
  8
0
100
AcDbBlockBegin
  2
*D73
 70
     1
 10
0.0
 20
0.0
 30
0.0
  3
*D73
  1

  0
LINE
  5
3A91
330
3A38
100
AcDbEntity
  8
0
 62
     0
370
    -2
100
AcDbLine
 10
1172.930846931639
 20
1259.141264815095
 30
0.0
 11
1176.756914347717
 21
1261.249029171485
 31
0.0
  0
LINE
  5
3A92
330
3A38
100
AcDbEntity
  8
0
 62
     0
370
    -2
100
AcDbLine
 10
1181.039989045639
 20
1263.608556906438
 30
0.0
 11
1181.2151659249
 21
1263.705061108277
 31
0.0
  0
MTEXT
  5
3A93
330
3A38
100
AcDbEntity
  8
0
 62
     0
100
AcDbMText
 10
1174.621351178818
 20
1260.391843262834
 30
0.0
 40
0.3937
 41
0.0
 46
0.0
 71
     5
 72
     1
  1
\A1;\U+22,054.49
  7
스타일2
 11
0.8758843963032047
 21
0.4825210091929372
 31
0.0
 73
     1
 44
1.0
  0
LINE
  5
3A94
330
3A38
100
AcDbEntity
  8
0
 62
     0
370
    -2
100
AcDbLine
 10
1180.864812166378
 20
1263.5120527046
 30
0.0
 11
1176.932091226977
 21
1261.345533373324
 31
0.0
  0
SOLID
  5
3A95
330
3A38
100
AcDbEntity
  8
0
 62
     0
100
AcDbTrace
 10
1181.023905011999
 20
1263.637753052982
 30
0.0
 11
1181.056073079279
 21
1263.579360759895
 31
0.0
 12
1180.864812166378
 22
1263.5120527046
 32
0.0
 13
1180.864812166378
 23
1263.5120527046
 33
0.0
  0
SOLID
  5
3A96
330
3A38
100
AcDbEntity
  8
0
 62
     0
100
AcDbTrace
 10
1176.740830314077
 20
1261.278225318028
 30
0.0
 11
1176.772998381357
 21
1261.219833024942
 31
0.0
 12
1176.932091226977
 22
1261.345533373324
 32
0.0
 13
1176.932091226977
 23
1261.345533373324
 33
0.0
  0
POINT
  5
3A97
330
3A38
100
AcDbEntity
  8
Defpoints
 62
     0
100
AcDbPoint
 10
1176.932091226977
 20
1261.345533373324
 30
0.0
  0
POINT
  5
3A98
330
3A38
100
AcDbEntity
  8
Defpoints
 62
     0
100
AcDbPoint
 10
1180.864812166378
 20
1263.5120527046
 30
0.0
  0
ENDBLK
  5
3A42
330
3A38
100
AcDbEntity
  8
0
100
AcDbBlockEnd
  0
BLOCK
  5
3A4C
330
3A43
100
AcDbEntity
  8
0
100
AcDbBlockBegin
  2
*D74
 70
     1
 10
0.0
 20
0.0
 30
0.0
  3
*D74
  1

  0
LINE
  5
3A99
330
3A43
100
AcDbEntity
  8
0
 62
     0
370
    -2
100
AcDbLine
 10
1184.596586375458
 20
1259.641703104353
 30
0.0
 11
1180.672596742148
 21
1261.561017516354
 31
0.0
  0
LINE
  5
3A9A
330
3A43
100
AcDbEntity
  8
0
 62
     0
370
    -2
100
AcDbLine
 10
1177.124306651209
 20
1263.296568561568
 30
0.0
 11
1176.944646393439
 21
1263.384444563858
 31
0.0
  0
MTEXT
  5
3A9B
330
3A43
100
AcDbEntity
  8
0
 62
     0
100
AcDbMText
 10
1182.847297969389
 20
1260.808639750479
 30
0.0
 40
0.3937
 41
0.0
 46
0.0
 71
     5
 72
     1
  1
\A1;\U+22,053.55
  7
스타일2
 11
0.8983012888453851
 21
-0.4393800114464927
 31
0.0
 73
     1
 44
1.0
  0
LINE
  5
3A9C
330
3A43
100
AcDbEntity
  8
0
 62
     0
370
    -2
100
AcDbLine
 10
1177.303966908977
 20
1263.208692559279
 30
0.0
 11
1180.492936484379
 21
1261.648893518644
 31
0.0
  0
SOLID
  5
3A9D
330
3A43
100
AcDbEntity
  8
0
 62
     0
100
AcDbTrace
 10
1177.13895265159
 20
1263.326511937863
 30
0.0
 11
1177.109660650827
 21
1263.266625185273
 31
0.0
 12
1177.303966908977
 22
1263.208692559279
 32
0.0
 13
1177.303966908977
 23
1263.208692559279
 33
0.0
  0
SOLID
  5
3A9E
330
3A43
100
AcDbEntity
  8
0
 62
     0
100
AcDbTrace
 10
1180.687242742529
 20
1261.590960892649
 30
0.0
 11
1180.657950741766
 21
1261.53107414006
 31
0.0
 12
1180.492936484379
 22
1261.648893518644
 32
0.0
 13
1180.492936484379
 23
1261.648893518644
 33
0.0
  0
POINT
  5
3A9F
330
3A43
100
AcDbEntity
  8
Defpoints
 62
     0
100
AcDbPoint
 10
1180.492936484379
 20
1261.648893518644
 30
0.0
  0
POINT
  5
3AA0
330
3A43
100
AcDbEntity
  8
Defpoints
 62
     0
100
AcDbPoint
 10
1177.303966908977
 20
1263.208692559279
 30
0.0
  0
ENDBLK
  5
3A4D
330
3A43
100
AcDbEntity
  8
0
100
AcDbBlockEnd
  0
BLOCK
  5
3A58
330
3A4E
100
AcDbEntity
  8
0
100
AcDbBlockBegin
  2
*D75
 70
     1
 10
0.0
 20
0.0
 30
0.0
  3
*D75
  1

  0
LINE
  5
3B19
330
3A4E
100
AcDbEntity
  8
0
 62
     0
370
    -2
100
AcDbLine
 10
1211.051322333358
 20
1251.287580847355
 30
0.0
 11
1211.051322333358
 21
1248.646038837385
 31
0.0
  0
LINE
  5
3B1A
330
3A4E
100
AcDbEntity
  8
0
 62
     0
370
    -2
100
AcDbLine
 10
1186.551322333358
 20
1251.287580847355
 30
0.0
 11
1186.551322333358
 21
1248.646038837385
 31
0.0
  0
LINE
  5
3B1B
330
3A4E
100
AcDbEntity
  8
0
 62
     0
370
    -2
100
AcDbLine
 10
1210.851322333358
 20
1248.846038837385
 30
0.0
 11
1186.751322333358
 21
1248.846038837385
 31
0.0
  0
SOLID
  5
3B1C
330
3A4E
100
AcDbEntity
  8
0
 62
     0
100
AcDbTrace
 10
1210.851322333358
 20
1248.879372170718
 30
0.0
 11
1210.851322333358
 21
1248.812705504051
 31
0.0
 12
1211.051322333358
 22
1248.846038837385
 32
0.0
 13
1211.051322333358
 23
1248.846038837385
 33
0.0
  0
SOLID
  5
3B1D
330
3A4E
100
AcDbEntity
  8
0
 62
     0
100
AcDbTrace
 10
1186.751322333358
 20
1248.879372170718
 30
0.0
 11
1186.751322333358
 21
1248.812705504051
 31
0.0
 12
1186.551322333358
 22
1248.846038837385
 32
0.0
 13
1186.551322333358
 23
1248.846038837385
 33
0.0
  0
MTEXT
  5
3B1E
330
3A4E
100
AcDbEntity
  8
0
 62
     0
100
AcDbMText
 10
1198.801322333358
 20
1249.092888837385
 30
0.0
 40
0.3937
 41
0.0
 46
0.0
 71
     5
 72
     1
  1
\A1;24.5
  7
스타일2
 73
     1
 44
1.0
  0
POINT
  5
3B1F
330
3A4E
100
AcDbEntity
  8
Defpoints
 62
     0
100
AcDbPoint
 10
1211.051322333358
 20
1251.387580847355
 30
0.0
  0
POINT
  5
3B20
330
3A4E
100
AcDbEntity
  8
Defpoints
 62
     0
100
AcDbPoint
 10
1186.551322333358
 20
1251.387580847355
 30
0.0
  0
POINT
  5
3B21
330
3A4E
100
AcDbEntity
  8
Defpoints
 62
     0
100
AcDbPoint
 10
1186.551322333358
 20
1248.846038837385
 30
0.0
  0
ENDBLK
  5
3A59
330
3A4E
100
AcDbEntity
  8
0
100
AcDbBlockEnd
  0
BLOCK
  5
3A64
330
3A5A
100
AcDbEntity
  8
0
100
AcDbBlockBegin
  2
*D76
 70
     1
 10
0.0
 20
0.0
 30
0.0
  3
*D76
  1

  0
LINE
  5
3AAA
330
3A5A
100
AcDbEntity
  8
0
 62
     0
370
    -2
100
AcDbLine
 10
1165.648451696679
 20
1249.328793038962
 30
0.0
 11
1165.648451696679
 21
1246.706671238299
 31
0.0
  0
LINE
  5
3AAB
330
3A5A
100
AcDbEntity
  8
0
 62
     0
370
    -2
100
AcDbLine
 10
1192.148451696678
 20
1249.328793038962
 30
0.0
 11
1192.148451696678
 21
1246.706671238299
 31
0.0
  0
LINE
  5
3AAC
330
3A5A
100
AcDbEntity
  8
0
 62
     0
370
    -2
100
AcDbLine
 10
1165.848451696679
 20
1246.906671238299
 30
0.0
 11
1191.948451696678
 21
1246.906671238299
 31
0.0
  0
SOLID
  5
3AAD
330
3A5A
100
AcDbEntity
  8
0
 62
     0
100
AcDbTrace
 10
1165.848451696679
 20
1246.940004571632
 30
0.0
 11
1165.848451696679
 21
1246.873337904965
 31
0.0
 12
1165.648451696679
 22
1246.906671238299
 32
0.0
 13
1165.648451696679
 23
1246.906671238299
 33
0.0
  0
SOLID
  5
3AAE
330
3A5A
100
AcDbEntity
  8
0
 62
     0
100
AcDbTrace
 10
1191.948451696678
 20
1246.940004571632
 30
0.0
 11
1191.948451696678
 21
1246.873337904965
 31
0.0
 12
1192.148451696678
 22
1246.906671238299
 32
0.0
 13
1192.148451696678
 23
1246.906671238299
 33
0.0
  0
MTEXT
  5
3AAF
330
3A5A
100
AcDbEntity
  8
0
 62
     0
100
AcDbMText
 10
1178.898451696678
 20
1247.153521238299
 30
0.0
 40
0.3937
 41
0.0
 46
0.0
 71
     5
 72
     1
  1
\A1;26.5
  7
스타일2
 73
     1
 44
1.0
  0
POINT
  5
3AB0
330
3A5A
100
AcDbEntity
  8
Defpoints
 62
     0
100
AcDbPoint
 10
1165.648451696679
 20
1249.428793038962
 30
0.0
  0
POINT
  5
3AB1
330
3A5A
100
AcDbEntity
  8
Defpoints
 62
     0
100
AcDbPoint
 10
1192.148451696678
 20
1249.428793038962
 30
0.0
  0
POINT
  5
3AB2
330
3A5A
100
AcDbEntity
  8
Defpoints
 62
     0
100
AcDbPoint
 10
1192.148451696678
 20
1246.906671238299
 30
0.0
  0
ENDBLK
  5
3A65
330
3A5A
100
AcDbEntity
  8
0
100
AcDbBlockEnd
  0
BLOCK
  5
3B3A
330
3B39
100
AcDbEntity
  8
0
100
AcDbBlockBegin
  2
*D77
 70
     1
 10
0.0
 20
0.0
 30
0.0
  3
*D77
  1

  0
LINE
  5
3B3B
330
3B39
100
AcDbEntity
  8
0
 62
     0
440
 16777216
370
    -2
100
AcDbLine
 10
1391.884132991372
 20
1275.983640306951
 30
0.0
 11
1388.139206498238
 21
1275.983640306951
 31
0.0
  0
LINE
  5
3B3C
330
3B39
100
AcDbEntity
  8
0
 62
     0
440
 16777216
370
    -2
100
AcDbLine
 10
1391.884132991372
 20
1281.653640306951
 30
0.0
 11
1388.139206498238
 21
1281.653640306951
 31
0.0
  0
LINE
  5
3B3D
330
3B39
100
AcDbEntity
  8
0
 62
     0
440
 16777216
370
    -2
100
AcDbLine
 10
1388.339206498239
 20
1276.183640306951
 30
0.0
 11
1388.339206498239
 21
1281.453640306951
 31
0.0
  0
SOLID
  5
3B3E
330
3B39
100
AcDbEntity
  8
0
 62
     0
440
 16777216
100
AcDbTrace
 10
1388.305873164905
 20
1276.183640306951
 30
0.0
 11
1388.372539831572
 21
1276.183640306951
 31
0.0
 12
1388.339206498239
 22
1275.983640306951
 32
0.0
 13
1388.339206498239
 23
1275.983640306951
 33
0.0
  0
SOLID
  5
3B3F
330
3B39
100
AcDbEntity
  8
0
 62
     0
440
 16777216
100
AcDbTrace
 10
1388.305873164905
 20
1281.453640306951
 30
0.0
 11
1388.372539831572
 21
1281.453640306951
 31
0.0
 12
1388.339206498239
 22
1281.653640306951
 32
0.0
 13
1388.339206498239
 23
1281.653640306951
 33
0.0
  0
MTEXT
  5
3B40
330
3B39
100
AcDbEntity
  8
0
 62
     0
440
 16777216
100
AcDbMText
 10
1388.092356498238
 20
1278.818640306951
 30
0.0
 40
0.3937
 41
0.0
 46
0.0
 71
     5
 72
     1
  1
\A1;5.67
  7
스타일2
 11
0.0000000000000001
 21
1.0
 31
0.0
 73
     1
 44
1.0
  0
POINT
  5
3B41
330
3B39
100
AcDbEntity
  8
Defpoints
 62
     0
440
 16777216
100
AcDbPoint
 10
1391.984132991371
 20
1275.983640306951
 30
0.0
  0
POINT
  5
3B42
330
3B39
100
AcDbEntity
  8
Defpoints
 62
     0
440
 16777216
100
AcDbPoint
 10
1391.984132991371
 20
1281.653640306951
 30
0.0
  0
POINT
  5
3B43
330
3B39
100
AcDbEntity
  8
Defpoints
 62
     0
440
 16777216
100
AcDbPoint
 10
1388.339206498239
 20
1281.653640306951
 30
0.0
  0
ENDBLK
  5
3B44
330
3B39
100
AcDbEntity
  8
0
100
AcDbBlockEnd
  0
BLOCK
  5
3B46
330
3B45
100
AcDbEntity
  8
0
100
AcDbBlockBegin
  2
*D78
 70
     1
 10
0.0
 20
0.0
 30
0.0
  3
*D78
  1

  0
LINE
  5
3B47
330
3B45
100
AcDbEntity
  8
0
 62
     0
440
 16777216
370
    -2
100
AcDbLine
 10
1377.284132991371
 20
1281.653640306952
 30
0.0
 11
1375.131989196058
 21
1281.653640306952
 31
0.0
  0
LINE
  5
3B48
330
3B45
100
AcDbEntity
  8
0
 62
     0
440
 16777216
370
    -2
100
AcDbLine
 10
1377.284132991372
 20
1267.403640306952
 30
0.0
 11
1375.131989196058
 21
1267.403640306952
 31
0.0
  0
LINE
  5
3B49
330
3B45
100
AcDbEntity
  8
0
 62
     0
440
 16777216
370
    -2
100
AcDbLine
 10
1375.331989196058
 20
1281.453640306952
 30
0.0
 11
1375.331989196058
 21
1267.603640306951
 31
0.0
  0
SOLID
  5
3B4A
330
3B45
100
AcDbEntity
  8
0
 62
     0
440
 16777216
100
AcDbTrace
 10
1375.298655862725
 20
1281.453640306952
 30
0.0
 11
1375.365322529392
 21
1281.453640306952
 31
0.0
 12
1375.331989196058
 22
1281.653640306952
 32
0.0
 13
1375.331989196058
 23
1281.653640306952
 33
0.0
  0
SOLID
  5
3B4B
330
3B45
100
AcDbEntity
  8
0
 62
     0
440
 16777216
100
AcDbTrace
 10
1375.298655862725
 20
1267.603640306951
 30
0.0
 11
1375.365322529392
 21
1267.603640306951
 31
0.0
 12
1375.331989196058
 22
1267.403640306952
 32
0.0
 13
1375.331989196058
 23
1267.403640306952
 33
0.0
  0
MTEXT
  5
3B4C
330
3B45
100
AcDbEntity
  8
0
 62
     0
440
 16777216
100
AcDbMText
 10
1375.085139196058
 20
1274.528640306952
 30
0.0
 40
0.3937
 41
0.0
 46
0.0
 71
     5
 72
     1
  1
\A1;14.25
  7
스타일2
 11
0.0000000000000001
 21
1.0
 31
0.0
 73
     1
 44
1.0
  0
POINT
  5
3B4D
330
3B45
100
AcDbEntity
  8
Defpoints
 62
     0
440
 16777216
100
AcDbPoint
 10
1377.384132991371
 20
1281.653640306952
 30
0.0
  0
POINT
  5
3B4E
330
3B45
100
AcDbEntity
  8
Defpoints
 62
     0
440
 16777216
100
AcDbPoint
 10
1377.384132991372
 20
1267.403640306952
 30
0.0
  0
POINT
  5
3B4F
330
3B45
100
AcDbEntity
  8
Defpoints
 62
     0
440
 16777216
100
AcDbPoint
 10
1375.331989196058
 20
1267.403640306952
 30
0.0
  0
ENDBLK
  5
3B50
330
3B45
100
AcDbEntity
  8
0
100
AcDbBlockEnd
  0
BLOCK
  5
3B52
330
3B51
100
AcDbEntity
  8
0
100
AcDbBlockBegin
  2
*D79
 70
     1
 10
0.0
 20
0.0
 30
0.0
  3
*D79
  1

  0
LINE
  5
3B53
330
3B51
100
AcDbEntity
  8
0
 62
     0
440
 16777216
370
    -2
100
AcDbLine
 10
1377.284132991371
 20
1282.153640306951
 30
0.0
 11
1374.201745759426
 21
1282.153640306951
 31
0.0
  0
LINE
  5
3B54
330
3B51
100
AcDbEntity
  8
0
 62
     0
440
 16777216
370
    -2
100
AcDbLine
 10
1377.284132991372
 20
1266.903640306952
 30
0.0
 11
1374.201745759426
 21
1266.903640306952
 31
0.0
  0
LINE
  5
3B55
330
3B51
100
AcDbEntity
  8
0
 62
     0
440
 16777216
370
    -2
100
AcDbLine
 10
1374.401745759426
 20
1281.953640306951
 30
0.0
 11
1374.401745759426
 21
1267.103640306952
 31
0.0
  0
SOLID
  5
3B56
330
3B51
100
AcDbEntity
  8
0
 62
     0
440
 16777216
100
AcDbTrace
 10
1374.368412426093
 20
1281.953640306951
 30
0.0
 11
1374.43507909276
 21
1281.953640306951
 31
0.0
 12
1374.401745759426
 22
1282.153640306951
 32
0.0
 13
1374.401745759426
 23
1282.153640306951
 33
0.0
  0
SOLID
  5
3B57
330
3B51
100
AcDbEntity
  8
0
 62
     0
440
 16777216
100
AcDbTrace
 10
1374.368412426093
 20
1267.103640306952
 30
0.0
 11
1374.43507909276
 21
1267.103640306952
 31
0.0
 12
1374.401745759426
 22
1266.903640306952
 32
0.0
 13
1374.401745759426
 23
1266.903640306952
 33
0.0
  0
MTEXT
  5
3B58
330
3B51
100
AcDbEntity
  8
0
 62
     0
440
 16777216
100
AcDbMText
 10
1374.154895759426
 20
1274.528640306952
 30
0.0
 40
0.3937
 41
0.0
 46
0.0
 71
     5
 72
     1
  1
\A1;15.25
  7
스타일2
 11
0.0000000000000001
 21
1.0
 31
0.0
 73
     1
 44
1.0
  0
POINT
  5
3B59
330
3B51
100
AcDbEntity
  8
Defpoints
 62
     0
440
 16777216
100
AcDbPoint
 10
1377.384132991371
 20
1282.153640306951
 30
0.0
  0
POINT
  5
3B5A
330
3B51
100
AcDbEntity
  8
Defpoints
 62
     0
440
 16777216
100
AcDbPoint
 10
1377.384132991372
 20
1266.903640306952
 30
0.0
  0
POINT
  5
3B5B
330
3B51
100
AcDbEntity
  8
Defpoints
 62
     0
440
 16777216
100
AcDbPoint
 10
1374.401745759426
 20
1266.903640306952
 30
0.0
  0
ENDBLK
  5
3B5C
330
3B51
100
AcDbEntity
  8
0
100
AcDbBlockEnd
  0
BLOCK
  5
3B5E
330
3B5D
100
AcDbEntity
  8
0
100
AcDbBlockBegin
  2
*D80
 70
     1
 10
0.0
 20
0.0
 30
0.0
  3
*D80
  1

  0
LINE
  5
3B5F
330
3B5D
100
AcDbEntity
  8
0
 62
     0
440
 16777216
370
    -2
100
AcDbLine
 10
1377.284132991371
 20
1282.653640306951
 30
0.0
 11
1373.230760051532
 21
1282.653640306951
 31
0.0
  0
LINE
  5
3B60
330
3B5D
100
AcDbEntity
  8
0
 62
     0
440
 16777216
370
    -2
100
AcDbLine
 10
1377.284132991372
 20
1266.403640306952
 30
0.0
 11
1373.230760051532
 21
1266.403640306952
 31
0.0
  0
LINE
  5
3B61
330
3B5D
100
AcDbEntity
  8
0
 62
     0
440
 16777216
370
    -2
100
AcDbLine
 10
1373.430760051532
 20
1282.453640306951
 30
0.0
 11
1373.430760051532
 21
1266.603640306952
 31
0.0
  0
SOLID
  5
3B62
330
3B5D
100
AcDbEntity
  8
0
 62
     0
440
 16777216
100
AcDbTrace
 10
1373.397426718199
 20
1282.453640306951
 30
0.0
 11
1373.464093384866
 21
1282.453640306951
 31
0.0
 12
1373.430760051532
 22
1282.653640306951
 32
0.0
 13
1373.430760051532
 23
1282.653640306951
 33
0.0
  0
SOLID
  5
3B63
330
3B5D
100
AcDbEntity
  8
0
 62
     0
440
 16777216
100
AcDbTrace
 10
1373.397426718199
 20
1266.603640306952
 30
0.0
 11
1373.464093384866
 21
1266.603640306952
 31
0.0
 12
1373.430760051532
 22
1266.403640306952
 32
0.0
 13
1373.430760051532
 23
1266.403640306952
 33
0.0
  0
MTEXT
  5
3B64
330
3B5D
100
AcDbEntity
  8
0
 62
     0
440
 16777216
100
AcDbMText
 10
1373.183910051532
 20
1274.528640306952
 30
0.0
 40
0.3937
 41
0.0
 46
0.0
 71
     5
 72
     1
  1
\A1;16.25
  7
스타일2
 11
0.0000000000000001
 21
1.0
 31
0.0
 73
     1
 44
1.0
  0
POINT
  5
3B65
330
3B5D
100
AcDbEntity
  8
Defpoints
 62
     0
440
 16777216
100
AcDbPoint
 10
1377.384132991371
 20
1282.653640306951
 30
0.0
  0
POINT
  5
3B66
330
3B5D
100
AcDbEntity
  8
Defpoints
 62
     0
440
 16777216
100
AcDbPoint
 10
1377.384132991372
 20
1266.403640306952
 30
0.0
  0
POINT
  5
3B67
330
3B5D
100
AcDbEntity
  8
Defpoints
 62
     0
440
 16777216
100
AcDbPoint
 10
1373.430760051532
 20
1266.403640306952
 30
0.0
  0
ENDBLK
  5
3B68
330
3B5D
100
AcDbEntity
  8
0
100
AcDbBlockEnd
  0
BLOCK
  5
3B6A
330
3B69
100
AcDbEntity
  8
0
100
AcDbBlockBegin
  2
*D81
 70
     1
 10
0.0
 20
0.0
 30
0.0
  3
*D81
  1

  0
LINE
  5
3B6B
330
3B69
100
AcDbEntity
  8
0
 62
     0
440
 16777216
370
    -2
100
AcDbLine
 10
1376.104132991371
 20
1283.433640306951
 30
0.0
 11
1371.982349908406
 21
1283.433640306951
 31
0.0
  0
LINE
  5
3B6C
330
3B69
100
AcDbEntity
  8
0
 62
     0
440
 16777216
370
    -2
100
AcDbLine
 10
1376.104132991372
 20
1265.623640306952
 30
0.0
 11
1371.982349908406
 21
1265.623640306952
 31
0.0
  0
LINE
  5
3B6D
330
3B69
100
AcDbEntity
  8
0
 62
     0
440
 16777216
370
    -2
100
AcDbLine
 10
1372.182349908406
 20
1283.233640306951
 30
0.0
 11
1372.182349908406
 21
1265.823640306952
 31
0.0
  0
SOLID
  5
3B6E
330
3B69
100
AcDbEntity
  8
0
 62
     0
440
 16777216
100
AcDbTrace
 10
1372.149016575073
 20
1283.233640306951
 30
0.0
 11
1372.215683241739
 21
1283.233640306951
 31
0.0
 12
1372.182349908406
 22
1283.433640306951
 32
0.0
 13
1372.182349908406
 23
1283.433640306951
 33
0.0
  0
SOLID
  5
3B6F
330
3B69
100
AcDbEntity
  8
0
 62
     0
440
 16777216
100
AcDbTrace
 10
1372.149016575073
 20
1265.823640306952
 30
0.0
 11
1372.215683241739
 21
1265.823640306952
 31
0.0
 12
1372.182349908406
 22
1265.623640306952
 32
0.0
 13
1372.182349908406
 23
1265.623640306952
 33
0.0
  0
MTEXT
  5
3B70
330
3B69
100
AcDbEntity
  8
0
 62
     0
440
 16777216
100
AcDbMText
 10
1371.935499908406
 20
1274.528640306952
 30
0.0
 40
0.3937
 41
0.0
 46
0.0
 71
     5
 72
     1
  1
\A1;17.81
  7
스타일2
 11
0.0000000000000001
 21
1.0
 31
0.0
 73
     1
 44
1.0
  0
POINT
  5
3B71
330
3B69
100
AcDbEntity
  8
Defpoints
 62
     0
440
 16777216
100
AcDbPoint
 10
1376.204132991371
 20
1283.433640306951
 30
0.0
  0
POINT
  5
3B72
330
3B69
100
AcDbEntity
  8
Defpoints
 62
     0
440
 16777216
100
AcDbPoint
 10
1376.204132991372
 20
1265.623640306952
 30
0.0
  0
POINT
  5
3B73
330
3B69
100
AcDbEntity
  8
Defpoints
 62
     0
440
 16777216
100
AcDbPoint
 10
1372.182349908406
 20
1265.623640306952
 30
0.0
  0
ENDBLK
  5
3B74
330
3B69
100
AcDbEntity
  8
0
100
AcDbBlockEnd
  0
BLOCK
  5
3B76
330
3B75
100
AcDbEntity
  8
0
100
AcDbBlockBegin
  2
*D82
 70
     1
 10
0.0
 20
0.0
 30
0.0
  3
*D82
  1

  0
LINE
  5
3B77
330
3B75
100
AcDbEntity
  8
0
 62
     0
440
 16777216
370
    -2
100
AcDbLine
 10
1406.130816845698
 20
1269.802714489446
 30
0.0
 11
1406.451443935072
 21
1268.388784404024
 31
0.0
  0
MTEXT
  5
3B78
330
3B75
100
AcDbEntity
  8
0
 62
     0
440
 16777216
100
AcDbMText
 10
1406.505955993343
 20
1269.264610897367
 30
0.0
 40
0.3937
 41
0.0
 46
0.0
 71
     5
 72
     1
  1
\A1;R0.4
  7
스타일2
 11
0.221148427165896
 21
-0.9752401617868546
 31
0.0
 73
     1
 44
1.0
  0
LINE
  5
3B79
330
3B75
100
AcDbEntity
  8
0
 62
     0
440
 16777216
370
    -2
100
AcDbLine
 10
1406.584132991372
 20
1267.803640306952
 30
0.0
 11
1406.495673620505
 21
1268.193736371666
 31
0.0
  0
SOLID
  5
3B7A
330
3B75
100
AcDbEntity
  8
0
 62
     0
440
 16777216
100
AcDbTrace
 10
1406.483951940465
 20
1268.396156018263
 30
0.0
 11
1406.41893592968
 21
1268.381412789785
 31
0.0
 12
1406.495673620505
 22
1268.193736371666
 32
0.0
 13
1406.495673620505
 23
1268.193736371666
 33
0.0
  0
ARC
  5
3B7B
330
3B75
100
AcDbEntity
  8
0
 62
     0
440
 16777216
370
    -2
100
AcDbCircle
 10
1406.584132991372
 20
1267.803640306952
 30
0.0
 40
0.3999999999995225
100
AcDbArc
 50
14.32394487828859
 51
131.4243843511372
  0
POINT
  5
3B7C
330
3B75
100
AcDbEntity
  8
Defpoints
 62
     0
440
 16777216
100
AcDbPoint
 10
1406.495673620505
 20
1268.193736371666
 30
0.0
  0
POINT
  5
3B7D
330
3B75
100
AcDbEntity
  8
Defpoints
 62
     0
440
 16777216
100
AcDbPoint
 10
1406.584132991372
 20
1267.803640306952
 30
0.0
  0
ENDBLK
  5
3B7E
330
3B75
100
AcDbEntity
  8
0
100
AcDbBlockEnd
  0
BLOCK
  5
3B80
330
3B7F
100
AcDbEntity
  8
0
100
AcDbBlockBegin
  2
*D83
 70
     1
 10
0.0
 20
0.0
 30
0.0
  3
*D83
  1

  0
LINE
  5
3B81
330
3B7F
100
AcDbEntity
  8
0
 62
     0
440
 16777216
370
    -2
100
AcDbLine
 10
1404.893483022992
 20
1269.434373837988
 30
0.0
 11
1406.211193549964
 21
1267.773657512002
 31
0.0
  0
MTEXT
  5
3B82
330
3B7F
100
AcDbEntity
  8
0
 62
     0
440
 16777216
100
AcDbMText
 10
1405.464607330915
 20
1269.111725607243
 30
0.0
 40
0.3937
 41
0.0
 46
0.0
 71
     5
 72
     1
  1
\A1;R0.4
  7
스타일2
 11
0.6215657356804078
 21
-0.7833620084150582
 31
0.0
 73
     1
 44
1.0
  0
LINE
  5
3B83
330
3B7F
100
AcDbEntity
  8
0
 62
     0
440
 16777216
370
    -2
100
AcDbLine
 10
1406.584132991373
 20
1267.303640306953
 30
0.0
 11
1406.3355066971
 21
1267.616985110318
 31
0.0
  0
SOLID
  5
3B84
330
3B7F
100
AcDbEntity
  8
0
 62
     0
440
 16777216
100
AcDbTrace
 10
1406.237305616912
 20
1267.794376369858
 30
0.0
 11
1406.185081483017
 21
1267.752938654146
 31
0.0
 12
1406.3355066971
 22
1267.616985110318
 32
0.0
 13
1406.3355066971
 23
1267.616985110318
 33
0.0
  0
ARC
  5
3B85
330
3B7F
100
AcDbEntity
  8
0
 62
     0
440
 16777216
370
    -2
100
AcDbCircle
 10
1406.584132991373
 20
1267.303640306953
 30
0.0
 40
0.3999999999998636
100
AcDbArc
 50
14.32394487827638
 51
157.0784529121717
  0
POINT
  5
3B86
330
3B7F
100
AcDbEntity
  8
Defpoints
 62
     0
440
 16777216
100
AcDbPoint
 10
1406.3355066971
 20
1267.616985110318
 30
0.0
  0
POINT
  5
3B87
330
3B7F
100
AcDbEntity
  8
Defpoints
 62
     0
440
 16777216
100
AcDbPoint
 10
1406.584132991373
 20
1267.303640306953
 30
0.0
  0
ENDBLK
  5
3B88
330
3B7F
100
AcDbEntity
  8
0
100
AcDbBlockEnd
  0
BLOCK
  5
3B8A
330
3B89
100
AcDbEntity
  8
0
100
AcDbBlockBegin
  2
*D84
 70
     1
 10
0.0
 20
0.0
 30
0.0
  3
*D84
  1

  0
LINE
  5
3B8B
330
3B89
100
AcDbEntity
  8
0
 62
     0
440
 16777216
370
    -2
100
AcDbLine
 10
1403.886836828429
 20
1268.276688196548
 30
0.0
 11
1406.057543069694
 21
1267.091221694367
 31
0.0
  0
MTEXT
  5
3B8C
330
3B89
100
AcDbEntity
  8
0
 62
     0
440
 16777216
100
AcDbMText
 10
1404.538536998651
 20
1268.202044080674
 30
0.0
 40
0.3937
 41
0.0
 46
0.0
 71
     5
 72
     1
  1
\A1;R0.4
  7
스타일2
 11
0.8776498694623594
 21
-0.47930231235902
 31
0.0
 73
     1
 44
1.0
  0
LINE
  5
3B8D
330
3B89
100
AcDbEntity
  8
0
 62
     0
440
 16777216
370
    -2
100
AcDbLine
 10
1406.584132991372
 20
1266.803640306952
 30
0.0
 11
1406.233073043587
 21
1266.995361231896
 31
0.0
  0
SOLID
  5
3B8E
330
3B89
100
AcDbEntity
  8
0
 62
     0
440
 16777216
100
AcDbTrace
 10
1406.07351981344
 20
1267.120476690016
 30
0.0
 11
1406.041566325949
 21
1267.061966698719
 31
0.0
 12
1406.233073043587
 22
1266.995361231896
 32
0.0
 13
1406.233073043587
 23
1266.995361231896
 33
0.0
  0
ARC
  5
3B8F
330
3B89
100
AcDbEntity
  8
0
 62
     0
440
 16777216
370
    -2
100
AcDbCircle
 10
1406.584132991372
 20
1266.803640306952
 30
0.0
 40
0.4000000000003185
100
AcDbArc
 50
122.7122653972743
 51
255.6760551217408
  0
POINT
  5
3B90
330
3B89
100
AcDbEntity
  8
Defpoints
 62
     0
440
 16777216
100
AcDbPoint
 10
1406.233073043587
 20
1266.995361231896
 30
0.0
  0
POINT
  5
3B91
330
3B89
100
AcDbEntity
  8
Defpoints
 62
     0
440
 16777216
100
AcDbPoint
 10
1406.584132991372
 20
1266.803640306952
 30
0.0
  0
ENDBLK
  5
3B92
330
3B89
100
AcDbEntity
  8
0
100
AcDbBlockEnd
  0
BLOCK
  5
3B94
330
3B93
100
AcDbEntity
  8
0
100
AcDbBlockBegin
  2
*D85
 70
     1
 10
0.0
 20
0.0
 30
0.0
  3
*D85
  1

  0
LINE
  5
3B95
330
3B93
100
AcDbEntity
  8
0
 62
     0
440
 16777216
370
    -2
100
AcDbLine
 10
1386.745277573779
 20
1274.196125813535
 30
0.0
 11
1389.670123552861
 21
1275.194092766595
 31
0.0
  0
LINE
  5
3B96
330
3B93
100
AcDbEntity
  8
0
 62
     0
440
 16777216
370
    -2
100
AcDbLine
 10
1394.298142429882
 20
1276.773187847307
 30
0.0
 11
1394.487427455527
 21
1276.837772513185
 31
0.0
  0
MTEXT
  5
3B97
330
3B93
100
AcDbEntity
  8
0
 62
     0
440
 16777216
100
AcDbMText
 10
1387.458100352296
 20
1274.700166852468
 30
0.0
 40
0.3937
 41
0.0
 46
0.0
 71
     5
 72
     1
  1
\A1;∅4.49
  7
스타일2
 11
0.9464251282253723
 21
0.3229233293888622
 31
0.0
 73
     1
 44
1.0
  0
LINE
  5
3B98
330
3B93
100
AcDbEntity
  8
0
 62
     0
440
 16777216
370
    -2
100
AcDbLine
 10
1394.108857404237
 20
1276.708603181429
 30
0.0
 11
1389.859408578506
 21
1275.258677432473
 31
0.0
  0
SOLID
  5
3B99
330
3B93
100
AcDbEntity
  8
0
 62
     0
440
 16777216
100
AcDbTrace
 10
1394.287378318903
 20
1276.804735351581
 30
0.0
 11
1394.308906540862
 21
1276.741640343033
 31
0.0
 12
1394.108857404237
 22
1276.708603181429
 32
0.0
 13
1394.108857404237
 23
1276.708603181429
 33
0.0
  0
SOLID
  5
3B9A
330
3B93
100
AcDbEntity
  8
0
 62
     0
440
 16777216
100
AcDbTrace
 10
1389.659359441881
 20
1275.22564027087
 30
0.0
 11
1389.68088766384
 21
1275.162545262321
 31
0.0
 12
1389.859408578506
 22
1275.258677432473
 32
0.0
 13
1389.859408578506
 23
1275.258677432473
 33
0.0
  0
POINT
  5
3B9B
330
3B93
100
AcDbEntity
  8
Defpoints
 62
     0
440
 16777216
100
AcDbPoint
 10
1389.859408578506
 20
1275.258677432473
 30
0.0
  0
POINT
  5
3B9C
330
3B93
100
AcDbEntity
  8
Defpoints
 62
     0
440
 16777216
100
AcDbPoint
 10
1394.108857404237
 20
1276.708603181429
 30
0.0
  0
ENDBLK
  5
3B9D
330
3B93
100
AcDbEntity
  8
0
100
AcDbBlockEnd
  0
BLOCK
  5
3B9F
330
3B9E
100
AcDbEntity
  8
0
100
AcDbBlockBegin
  2
*D86
 70
     1
 10
0.0
 20
0.0
 30
0.0
  3
*D86
  1

  0
LINE
  5
3BA0
330
3B9E
100
AcDbEntity
  8
0
 62
     0
440
 16777216
370
    -2
100
AcDbLine
 10
1396.682144263451
 20
1274.789375623742
 30
0.0
 11
1393.898254943672
 21
1275.497058194947
 31
0.0
  0
LINE
  5
3BA1
330
3B9E
100
AcDbEntity
  8
0
 62
     0
440
 16777216
370
    -2
100
AcDbLine
 10
1390.070011039072
 20
1276.470222418956
 30
0.0
 11
1389.876175904661
 21
1276.51949655688
 31
0.0
  0
MTEXT
  5
3BA2
330
3B9E
100
AcDbEntity
  8
0
 62
     0
440
 16777216
100
AcDbMText
 10
1395.931373160409
 20
1275.234927453877
 30
0.0
 40
0.3937
 41
0.0
 46
0.0
 71
     5
 72
     1
  1
\A1;∅3.55
  7
스타일2
 11
0.9691756720507086
 21
-0.2463706896224819
 31
0.0
 73
     1
 44
1.0
  0
LINE
  5
3BA3
330
3B9E
100
AcDbEntity
  8
0
 62
     0
440
 16777216
370
    -2
100
AcDbLine
 10
1390.263846173482
 20
1276.420948281031
 30
0.0
 11
1393.704419809262
 21
1275.546332332871
 31
0.0
  0
SOLID
  5
3BA4
330
3B9E
100
AcDbEntity
  8
0
 62
     0
440
 16777216
100
AcDbTrace
 10
1390.078223395392
 20
1276.502528274691
 30
0.0
 11
1390.061798682751
 21
1276.437916563221
 31
0.0
 12
1390.263846173482
 22
1276.420948281031
 32
0.0
 13
1390.263846173482
 23
1276.420948281031
 33
0.0
  0
SOLID
  5
3BA5
330
3B9E
100
AcDbEntity
  8
0
 62
     0
440
 16777216
100
AcDbTrace
 10
1393.906467299993
 20
1275.529364050682
 30
0.0
 11
1393.890042587351
 21
1275.464752339212
 31
0.0
 12
1393.704419809262
 22
1275.546332332871
 32
0.0
 13
1393.704419809262
 23
1275.546332332871
 33
0.0
  0
POINT
  5
3BA6
330
3B9E
100
AcDbEntity
  8
Defpoints
 62
     0
440
 16777216
100
AcDbPoint
 10
1393.704419809262
 20
1275.546332332871
 30
0.0
  0
POINT
  5
3BA7
330
3B9E
100
AcDbEntity
  8
Defpoints
 62
     0
440
 16777216
100
AcDbPoint
 10
1390.263846173482
 20
1276.420948281031
 30
0.0
  0
ENDBLK
  5
3BA8
330
3B9E
100
AcDbEntity
  8
0
100
AcDbBlockEnd
  0
BLOCK
  5
3BAA
330
3BA9
100
AcDbEntity
  8
0
100
AcDbBlockBegin
  2
*D87
 70
     1
 10
0.0
 20
0.0
 30
0.0
  3
*D87
  1

  0
LINE
  5
3BAB
330
3BA9
100
AcDbEntity
  8
0
 62
     0
440
 16777216
370
    -2
100
AcDbLine
 10
1376.984132991371
 20
1266.703640306952
 30
0.0
 11
1376.984132991371
 21
1264.150940799046
 31
0.0
  0
LINE
  5
3BAC
330
3BA9
100
AcDbEntity
  8
0
 62
     0
440
 16777216
370
    -2
100
AcDbLine
 10
1406.984132991372
 20
1266.703640306952
 30
0.0
 11
1406.984132991372
 21
1264.150940799046
 31
0.0
  0
LINE
  5
3BAD
330
3BA9
100
AcDbEntity
  8
0
 62
     0
440
 16777216
370
    -2
100
AcDbLine
 10
1377.184132991371
 20
1264.350940799046
 30
0.0
 11
1406.784132991371
 21
1264.350940799046
 31
0.0
  0
SOLID
  5
3BAE
330
3BA9
100
AcDbEntity
  8
0
 62
     0
440
 16777216
100
AcDbTrace
 10
1377.184132991371
 20
1264.38427413238
 30
0.0
 11
1377.184132991371
 21
1264.317607465713
 31
0.0
 12
1376.984132991371
 22
1264.350940799046
 32
0.0
 13
1376.984132991371
 23
1264.350940799046
 33
0.0
  0
SOLID
  5
3BAF
330
3BA9
100
AcDbEntity
  8
0
 62
     0
440
 16777216
100
AcDbTrace
 10
1406.784132991371
 20
1264.38427413238
 30
0.0
 11
1406.784132991371
 21
1264.317607465713
 31
0.0
 12
1406.984132991372
 22
1264.350940799046
 32
0.0
 13
1406.984132991372
 23
1264.350940799046
 33
0.0
  0
MTEXT
  5
3BB0
330
3BA9
100
AcDbEntity
  8
0
 62
     0
440
 16777216
100
AcDbMText
 10
1391.984132991371
 20
1264.597790799047
 30
0.0
 40
0.3937
 41
0.0
 46
0.0
 71
     5
 72
     1
  1
\A1;30
  7
스타일2
 73
     1
 44
1.0
  0
POINT
  5
3BB1
330
3BA9
100
AcDbEntity
  8
Defpoints
 62
     0
440
 16777216
100
AcDbPoint
 10
1376.984132991371
 20
1266.803640306952
 30
0.0
  0
POINT
  5
3BB2
330
3BA9
100
AcDbEntity
  8
Defpoints
 62
     0
440
 16777216
100
AcDbPoint
 10
1406.984132991372
 20
1266.803640306952
 30
0.0
  0
POINT
  5
3BB3
330
3BA9
100
AcDbEntity
  8
Defpoints
 62
     0
440
 16777216
100
AcDbPoint
 10
1406.984132991372
 20
1264.350940799046
 30
0.0
  0
ENDBLK
  5
3BB4
330
3BA9
100
AcDbEntity
  8
0
100
AcDbBlockEnd
  0
BLOCK
  5
3BB6
330
3BB5
100
AcDbEntity
  8
0
100
AcDbBlockBegin
  2
*D88
 70
     1
 10
0.0
 20
0.0
 30
0.0
  3
*D88
  1

  0
LINE
  5
3BB7
330
3BB5
100
AcDbEntity
  8
0
 62
     0
440
 16777216
370
    -2
100
AcDbLine
 10
1376.204132991372
 20
1265.523640306952
 30
0.0
 11
1376.204132991372
 21
1262.90895927093
 31
0.0
  0
LINE
  5
3BB8
330
3BB5
100
AcDbEntity
  8
0
 62
     0
440
 16777216
370
    -2
100
AcDbLine
 10
1407.764132991372
 20
1265.523640306952
 30
0.0
 11
1407.764132991372
 21
1262.90895927093
 31
0.0
  0
LINE
  5
3BB9
330
3BB5
100
AcDbEntity
  8
0
 62
     0
440
 16777216
370
    -2
100
AcDbLine
 10
1376.404132991372
 20
1263.10895927093
 30
0.0
 11
1407.564132991371
 21
1263.10895927093
 31
0.0
  0
SOLID
  5
3BBA
330
3BB5
100
AcDbEntity
  8
0
 62
     0
440
 16777216
100
AcDbTrace
 10
1376.404132991372
 20
1263.142292604263
 30
0.0
 11
1376.404132991372
 21
1263.075625937597
 31
0.0
 12
1376.204132991372
 22
1263.10895927093
 32
0.0
 13
1376.204132991372
 23
1263.10895927093
 33
0.0
  0
SOLID
  5
3BBB
330
3BB5
100
AcDbEntity
  8
0
 62
     0
440
 16777216
100
AcDbTrace
 10
1407.564132991371
 20
1263.142292604263
 30
0.0
 11
1407.564132991371
 21
1263.075625937597
 31
0.0
 12
1407.764132991372
 22
1263.10895927093
 32
0.0
 13
1407.764132991372
 23
1263.10895927093
 33
0.0
  0
MTEXT
  5
3BBC
330
3BB5
100
AcDbEntity
  8
0
 62
     0
440
 16777216
100
AcDbMText
 10
1391.984132991372
 20
1263.35580927093
 30
0.0
 40
0.3937
 41
0.0
 46
0.0
 71
     5
 72
     1
  1
\A1;31.56
  7
스타일2
 73
     1
 44
1.0
  0
POINT
  5
3BBD
330
3BB5
100
AcDbEntity
  8
Defpoints
 62
     0
440
 16777216
100
AcDbPoint
 10
1376.204132991372
 20
1265.623640306952
 30
0.0
  0
POINT
  5
3BBE
330
3BB5
100
AcDbEntity
  8
Defpoints
 62
     0
440
 16777216
100
AcDbPoint
 10
1407.764132991372
 20
1265.623640306952
 30
0.0
  0
POINT
  5
3BBF
330
3BB5
100
AcDbEntity
  8
Defpoints
 62
     0
440
 16777216
100
AcDbPoint
 10
1407.764132991372
 20
1263.10895927093
 30
0.0
  0
ENDBLK
  5
3BC0
330
3BB5
100
AcDbEntity
  8
0
100
AcDbBlockEnd
  0
BLOCK
  5
3C25
330
3C1B
100
AcDbEntity
  8
0
100
AcDbBlockBegin
  2
*D90
 70
     1
 10
0.0
 20
0.0
 30
0.0
  3
*D90
  1

  0
LINE
  5
3CA0
330
3C1B
100
AcDbEntity
  8
0
 62
     0
370
    -2
100
AcDbLine
 10
1228.739505760356
 20
1257.797202661398
 30
0.0
 11
1224.994579267225
 21
1257.797202661398
 31
0.0
  0
LINE
  5
3CA1
330
3C1B
100
AcDbEntity
  8
0
 62
     0
370
    -2
100
AcDbLine
 10
1228.739505760356
 20
1263.467202661398
 30
0.0
 11
1224.994579267225
 21
1263.467202661398
 31
0.0
  0
LINE
  5
3CA2
330
3C1B
100
AcDbEntity
  8
0
 62
     0
370
    -2
100
AcDbLine
 10
1225.194579267224
 20
1257.997202661398
 30
0.0
 11
1225.194579267224
 21
1263.267202661398
 31
0.0
  0
SOLID
  5
3CA3
330
3C1B
100
AcDbEntity
  8
0
 62
     0
100
AcDbTrace
 10
1225.161245933891
 20
1257.997202661398
 30
0.0
 11
1225.227912600558
 21
1257.997202661398
 31
0.0
 12
1225.194579267224
 22
1257.797202661398
 32
0.0
 13
1225.194579267224
 23
1257.797202661398
 33
0.0
  0
SOLID
  5
3CA4
330
3C1B
100
AcDbEntity
  8
0
 62
     0
100
AcDbTrace
 10
1225.161245933891
 20
1263.267202661398
 30
0.0
 11
1225.227912600558
 21
1263.267202661398
 31
0.0
 12
1225.194579267224
 22
1263.467202661398
 32
0.0
 13
1225.194579267224
 23
1263.467202661398
 33
0.0
  0
MTEXT
  5
3CA5
330
3C1B
100
AcDbEntity
  8
0
 62
     0
100
AcDbMText
 10
1224.947729267224
 20
1260.632202661398
 30
0.0
 40
0.3937
 41
0.0
 46
0.0
 71
     5
 72
     1
  1
\A1;5.67
  7
스타일2
 11
0.0000000000000001
 21
1.0
 31
0.0
 73
     1
 44
1.0
  0
POINT
  5
3CA6
330
3C1B
100
AcDbEntity
  8
Defpoints
 62
     0
100
AcDbPoint
 10
1228.839505760356
 20
1257.797202661398
 30
0.0
  0
POINT
  5
3CA7
330
3C1B
100
AcDbEntity
  8
Defpoints
 62
     0
100
AcDbPoint
 10
1228.839505760356
 20
1263.467202661398
 30
0.0
  0
POINT
  5
3CA8
330
3C1B
100
AcDbEntity
  8
Defpoints
 62
     0
100
AcDbPoint
 10
1225.194579267224
 20
1263.467202661398
 30
0.0
  0
ENDBLK
  5
3C26
330
3C1B
100
AcDbEntity
  8
0
100
AcDbBlockEnd
  0
BLOCK
  5
3C31
330
3C27
100
AcDbEntity
  8
0
100
AcDbBlockBegin
  2
*D91
 70
     1
 10
0.0
 20
0.0
 30
0.0
  3
*D91
  1

  0
LINE
  5
3CA9
330
3C27
100
AcDbEntity
  8
0
 62
     0
370
    -2
100
AcDbLine
 10
1214.139505760357
 20
1263.467202661399
 30
0.0
 11
1211.987361965043
 21
1263.467202661399
 31
0.0
  0
LINE
  5
3CAA
330
3C27
100
AcDbEntity
  8
0
 62
     0
370
    -2
100
AcDbLine
 10
1214.139505760358
 20
1249.217202661399
 30
0.0
 11
1211.987361965043
 21
1249.217202661399
 31
0.0
  0
LINE
  5
3CAB
330
3C27
100
AcDbEntity
  8
0
 62
     0
370
    -2
100
AcDbLine
 10
1212.187361965044
 20
1263.267202661399
 30
0.0
 11
1212.187361965044
 21
1249.417202661399
 31
0.0
  0
SOLID
  5
3CAC
330
3C27
100
AcDbEntity
  8
0
 62
     0
100
AcDbTrace
 10
1212.15402863171
 20
1263.267202661399
 30
0.0
 11
1212.220695298377
 21
1263.267202661399
 31
0.0
 12
1212.187361965044
 22
1263.467202661399
 32
0.0
 13
1212.187361965044
 23
1263.467202661399
 33
0.0
  0
SOLID
  5
3CAD
330
3C27
100
AcDbEntity
  8
0
 62
     0
100
AcDbTrace
 10
1212.15402863171
 20
1249.417202661399
 30
0.0
 11
1212.220695298377
 21
1249.417202661399
 31
0.0
 12
1212.187361965044
 22
1249.217202661399
 32
0.0
 13
1212.187361965044
 23
1249.217202661399
 33
0.0
  0
MTEXT
  5
3CAE
330
3C27
100
AcDbEntity
  8
0
 62
     0
100
AcDbMText
 10
1211.940511965043
 20
1256.342202661399
 30
0.0
 40
0.3937
 41
0.0
 46
0.0
 71
     5
 72
     1
  1
\A1;14.25
  7
스타일2
 11
0.0000000000000001
 21
1.0
 31
0.0
 73
     1
 44
1.0
  0
POINT
  5
3CAF
330
3C27
100
AcDbEntity
  8
Defpoints
 62
     0
100
AcDbPoint
 10
1214.239505760356
 20
1263.467202661399
 30
0.0
  0
POINT
  5
3CB0
330
3C27
100
AcDbEntity
  8
Defpoints
 62
     0
100
AcDbPoint
 10
1214.239505760358
 20
1249.217202661399
 30
0.0
  0
POINT
  5
3CB1
330
3C27
100
AcDbEntity
  8
Defpoints
 62
     0
100
AcDbPoint
 10
1212.187361965044
 20
1249.217202661399
 30
0.0
  0
ENDBLK
  5
3C32
330
3C27
100
AcDbEntity
  8
0
100
AcDbBlockEnd
  0
BLOCK
  5
3C3D
330
3C33
100
AcDbEntity
  8
0
100
AcDbBlockBegin
  2
*D92
 70
     1
 10
0.0
 20
0.0
 30
0.0
  3
*D92
  1

  0
LINE
  5
3CB2
330
3C33
100
AcDbEntity
  8
0
 62
     0
370
    -2
100
AcDbLine
 10
1214.139505760357
 20
1263.967202661398
 30
0.0
 11
1211.057118528411
 21
1263.967202661398
 31
0.0
  0
LINE
  5
3CB3
330
3C33
100
AcDbEntity
  8
0
 62
     0
370
    -2
100
AcDbLine
 10
1214.139505760358
 20
1248.717202661399
 30
0.0
 11
1211.057118528411
 21
1248.717202661399
 31
0.0
  0
LINE
  5
3CB4
330
3C33
100
AcDbEntity
  8
0
 62
     0
370
    -2
100
AcDbLine
 10
1211.257118528412
 20
1263.767202661398
 30
0.0
 11
1211.257118528412
 21
1248.917202661399
 31
0.0
  0
SOLID
  5
3CB5
330
3C33
100
AcDbEntity
  8
0
 62
     0
100
AcDbTrace
 10
1211.223785195078
 20
1263.767202661398
 30
0.0
 11
1211.290451861745
 21
1263.767202661398
 31
0.0
 12
1211.257118528412
 22
1263.967202661398
 32
0.0
 13
1211.257118528412
 23
1263.967202661398
 33
0.0
  0
SOLID
  5
3CB6
330
3C33
100
AcDbEntity
  8
0
 62
     0
100
AcDbTrace
 10
1211.223785195078
 20
1248.917202661399
 30
0.0
 11
1211.290451861745
 21
1248.917202661399
 31
0.0
 12
1211.257118528412
 22
1248.717202661399
 32
0.0
 13
1211.257118528412
 23
1248.717202661399
 33
0.0
  0
MTEXT
  5
3CB7
330
3C33
100
AcDbEntity
  8
0
 62
     0
100
AcDbMText
 10
1211.010268528411
 20
1256.342202661399
 30
0.0
 40
0.3937
 41
0.0
 46
0.0
 71
     5
 72
     1
  1
\A1;15.25
  7
스타일2
 11
0.0000000000000001
 21
1.0
 31
0.0
 73
     1
 44
1.0
  0
POINT
  5
3CB8
330
3C33
100
AcDbEntity
  8
Defpoints
 62
     0
100
AcDbPoint
 10
1214.239505760356
 20
1263.967202661398
 30
0.0
  0
POINT
  5
3CB9
330
3C33
100
AcDbEntity
  8
Defpoints
 62
     0
100
AcDbPoint
 10
1214.239505760358
 20
1248.717202661399
 30
0.0
  0
POINT
  5
3CBA
330
3C33
100
AcDbEntity
  8
Defpoints
 62
     0
100
AcDbPoint
 10
1211.257118528412
 20
1248.717202661399
 30
0.0
  0
ENDBLK
  5
3C3E
330
3C33
100
AcDbEntity
  8
0
100
AcDbBlockEnd
  0
BLOCK
  5
3C49
330
3C3F
100
AcDbEntity
  8
0
100
AcDbBlockBegin
  2
*D93
 70
     1
 10
0.0
 20
0.0
 30
0.0
  3
*D93
  1

  0
LINE
  5
3D13
330
3C3F
100
AcDbEntity
  8
0
 62
     0
370
    -2
100
AcDbLine
 10
1183.475884323709
 20
1265.910905296586
 30
0.0
 11
1179.42251138387
 21
1265.910905296586
 31
0.0
  0
LINE
  5
3D14
330
3C3F
100
AcDbEntity
  8
0
 62
     0
370
    -2
100
AcDbLine
 10
1183.47588432371
 20
1249.660905296587
 30
0.0
 11
1179.42251138387
 21
1249.660905296587
 31
0.0
  0
LINE
  5
3D15
330
3C3F
100
AcDbEntity
  8
0
 62
     0
370
    -2
100
AcDbLine
 10
1179.62251138387
 20
1265.710905296586
 30
0.0
 11
1179.62251138387
 21
1249.860905296587
 31
0.0
  0
SOLID
  5
3D16
330
3C3F
100
AcDbEntity
  8
0
 62
     0
100
AcDbTrace
 10
1179.589178050537
 20
1265.710905296586
 30
0.0
 11
1179.655844717203
 21
1265.710905296586
 31
0.0
 12
1179.62251138387
 22
1265.910905296586
 32
0.0
 13
1179.62251138387
 23
1265.910905296586
 33
0.0
  0
SOLID
  5
3D17
330
3C3F
100
AcDbEntity
  8
0
 62
     0
100
AcDbTrace
 10
1179.589178050537
 20
1249.860905296587
 30
0.0
 11
1179.655844717203
 21
1249.860905296587
 31
0.0
 12
1179.62251138387
 22
1249.660905296587
 32
0.0
 13
1179.62251138387
 23
1249.660905296587
 33
0.0
  0
MTEXT
  5
3D18
330
3C3F
100
AcDbEntity
  8
0
 62
     0
100
AcDbMText
 10
1179.37566138387
 20
1257.785905296587
 30
0.0
 40
0.3937
 41
0.0
 46
0.0
 71
     5
 72
     1
  1
\A1;16.25
  7
스타일2
 11
0.0000000000000001
 21
1.0
 31
0.0
 73
     1
 44
1.0
  0
POINT
  5
3D19
330
3C3F
100
AcDbEntity
  8
Defpoints
 62
     0
100
AcDbPoint
 10
1183.575884323709
 20
1265.910905296586
 30
0.0
  0
POINT
  5
3D1A
330
3C3F
100
AcDbEntity
  8
Defpoints
 62
     0
100
AcDbPoint
 10
1183.57588432371
 20
1249.660905296587
 30
0.0
  0
POINT
  5
3D1B
330
3C3F
100
AcDbEntity
  8
Defpoints
 62
     0
100
AcDbPoint
 10
1179.62251138387
 20
1249.660905296587
 30
0.0
  0
ENDBLK
  5
3C4A
330
3C3F
100
AcDbEntity
  8
0
100
AcDbBlockEnd
  0
BLOCK
  5
3C55
330
3C4B
100
AcDbEntity
  8
0
100
AcDbBlockBegin
  2
*D94
 70
     1
 10
0.0
 20
0.0
 30
0.0
  3
*D94
  1

  0
LINE
  5
3CC4
330
3C4B
100
AcDbEntity
  8
0
 62
     0
370
    -2
100
AcDbLine
 10
1212.959505760357
 20
1265.247202661398
 30
0.0
 11
1208.837722677391
 21
1265.247202661398
 31
0.0
  0
LINE
  5
3CC5
330
3C4B
100
AcDbEntity
  8
0
 62
     0
370
    -2
100
AcDbLine
 10
1212.959505760358
 20
1247.437202661399
 30
0.0
 11
1208.837722677391
 21
1247.437202661399
 31
0.0
  0
LINE
  5
3CC6
330
3C4B
100
AcDbEntity
  8
0
 62
     0
370
    -2
100
AcDbLine
 10
1209.037722677392
 20
1265.047202661398
 30
0.0
 11
1209.037722677392
 21
1247.637202661399
 31
0.0
  0
SOLID
  5
3CC7
330
3C4B
100
AcDbEntity
  8
0
 62
     0
100
AcDbTrace
 10
1209.004389344058
 20
1265.047202661398
 30
0.0
 11
1209.071056010725
 21
1265.047202661398
 31
0.0
 12
1209.037722677392
 22
1265.247202661398
 32
0.0
 13
1209.037722677392
 23
1265.247202661398
 33
0.0
  0
SOLID
  5
3CC8
330
3C4B
100
AcDbEntity
  8
0
 62
     0
100
AcDbTrace
 10
1209.004389344058
 20
1247.637202661399
 30
0.0
 11
1209.071056010725
 21
1247.637202661399
 31
0.0
 12
1209.037722677392
 22
1247.437202661399
 32
0.0
 13
1209.037722677392
 23
1247.437202661399
 33
0.0
  0
MTEXT
  5
3CC9
330
3C4B
100
AcDbEntity
  8
0
 62
     0
100
AcDbMText
 10
1208.790872677391
 20
1256.342202661399
 30
0.0
 40
0.3937
 41
0.0
 46
0.0
 71
     5
 72
     1
  1
\A1;17.81
  7
스타일2
 11
0.0000000000000001
 21
1.0
 31
0.0
 73
     1
 44
1.0
  0
POINT
  5
3CCA
330
3C4B
100
AcDbEntity
  8
Defpoints
 62
     0
100
AcDbPoint
 10
1213.059505760356
 20
1265.247202661398
 30
0.0
  0
POINT
  5
3CCB
330
3C4B
100
AcDbEntity
  8
Defpoints
 62
     0
100
AcDbPoint
 10
1213.059505760358
 20
1247.437202661399
 30
0.0
  0
POINT
  5
3CCC
330
3C4B
100
AcDbEntity
  8
Defpoints
 62
     0
100
AcDbPoint
 10
1209.037722677392
 20
1247.437202661399
 30
0.0
  0
ENDBLK
  5
3C56
330
3C4B
100
AcDbEntity
  8
0
100
AcDbBlockEnd
  0
BLOCK
  5
3C5E
330
3C57
100
AcDbEntity
  8
0
100
AcDbBlockBegin
  2
*D95
 70
     1
 10
0.0
 20
0.0
 30
0.0
  3
*D95
  1

  0
LINE
  5
3CCD
330
3C57
100
AcDbEntity
  8
0
 62
     0
370
    -2
100
AcDbLine
 10
1242.986189614681
 20
1251.616276843892
 30
0.0
 11
1243.306816704057
 21
1250.20234675847
 31
0.0
  0
MTEXT
  5
3CCE
330
3C57
100
AcDbEntity
  8
0
 62
     0
100
AcDbMText
 10
1243.361328762326
 20
1251.078173251814
 30
0.0
 40
0.3937
 41
0.0
 46
0.0
 71
     5
 72
     1
  1
\A1;R0.4
  7
스타일2
 11
0.2211484271678856
 21
-0.9752401617864034
 31
0.0
 73
     1
 44
1.0
  0
LINE
  5
3CCF
330
3C57
100
AcDbEntity
  8
0
 62
     0
370
    -2
100
AcDbLine
 10
1243.439505760357
 20
1249.617202661399
 30
0.0
 11
1243.351046389491
 21
1250.007298726113
 31
0.0
  0
SOLID
  5
3CD0
330
3C57
100
AcDbEntity
  8
0
 62
     0
100
AcDbTrace
 10
1243.33932470945
 20
1250.209718372709
 30
0.0
 11
1243.274308698664
 21
1250.194975144231
 31
0.0
 12
1243.351046389491
 22
1250.007298726113
 32
0.0
 13
1243.351046389491
 23
1250.007298726113
 33
0.0
  0
POINT
  5
3CD1
330
3C57
100
AcDbEntity
  8
Defpoints
 62
     0
100
AcDbPoint
 10
1243.351046389491
 20
1250.007298726113
 30
0.0
  0
POINT
  5
3CD2
330
3C57
100
AcDbEntity
  8
Defpoints
 62
     0
100
AcDbPoint
 10
1243.439505760357
 20
1249.617202661399
 30
0.0
  0
ENDBLK
  5
3C5F
330
3C57
100
AcDbEntity
  8
0
100
AcDbBlockEnd
  0
BLOCK
  5
3C67
330
3C60
100
AcDbEntity
  8
0
100
AcDbBlockBegin
  2
*D96
 70
     1
 10
0.0
 20
0.0
 30
0.0
  3
*D96
  1

  0
LINE
  5
3CD3
330
3C60
100
AcDbEntity
  8
0
 62
     0
370
    -2
100
AcDbLine
 10
1241.748855791971
 20
1251.247936192429
 30
0.0
 11
1243.066566318949
 21
1249.587219866447
 31
0.0
  0
MTEXT
  5
3CD4
330
3C60
100
AcDbEntity
  8
0
 62
     0
100
AcDbMText
 10
1242.319980099894
 20
1250.925287961687
 30
0.0
 40
0.3937
 41
0.0
 46
0.0
 71
     5
 72
     1
  1
\A1;R0.4
  7
스타일2
 11
0.6215657356832591
 21
-0.7833620084127957
 31
0.0
 73
     1
 44
1.0
  0
LINE
  5
3CD5
330
3C60
100
AcDbEntity
  8
0
 62
     0
370
    -2
100
AcDbLine
 10
1243.439505760359
 20
1249.1172026614
 30
0.0
 11
1243.190879466085
 21
1249.430547464765
 31
0.0
  0
SOLID
  5
3CD6
330
3C60
100
AcDbEntity
  8
0
 62
     0
100
AcDbTrace
 10
1243.092678385896
 20
1249.607938724303
 30
0.0
 11
1243.040454252002
 21
1249.566501008591
 31
0.0
 12
1243.190879466085
 22
1249.430547464765
 32
0.0
 13
1243.190879466085
 23
1249.430547464765
 33
0.0
  0
POINT
  5
3CD7
330
3C60
100
AcDbEntity
  8
Defpoints
 62
     0
100
AcDbPoint
 10
1243.190879466085
 20
1249.430547464765
 30
0.0
  0
POINT
  5
3CD8
330
3C60
100
AcDbEntity
  8
Defpoints
 62
     0
100
AcDbPoint
 10
1243.439505760359
 20
1249.1172026614
 30
0.0
  0
ENDBLK
  5
3C68
330
3C60
100
AcDbEntity
  8
0
100
AcDbBlockEnd
  0
BLOCK
  5
3C70
330
3C69
100
AcDbEntity
  8
0
100
AcDbBlockBegin
  2
*D97
 70
     1
 10
0.0
 20
0.0
 30
0.0
  3
*D97
  1

  0
LINE
  5
3D1C
330
3C69
100
AcDbEntity
  8
0
 62
     0
370
    -2
100
AcDbLine
 10
1210.03482289721
 20
1250.675420964538
 30
0.0
 11
1212.206086638644
 21
1249.959166413855
 31
0.0
  0
MTEXT
  5
3D1D
330
3C69
100
AcDbEntity
  8
0
 62
     0
100
AcDbMText
 10
1210.689304222852
 20
1250.719455613271
 30
0.0
 40
0.3937
 41
0.0
 46
0.0
 71
     5
 72
     1
  1
\A1;R0.4
  7
스타일2
 11
0.9496628084435361
 21
-0.3132739220859849
 31
0.0
 73
     1
 44
1.0
  0
LINE
  5
3D1E
330
3C69
100
AcDbEntity
  8
0
 62
     0
370
    -2
100
AcDbLine
 10
1212.775884323711
 20
1249.771202060604
 30
0.0
 11
1212.396019200332
 21
1249.896511629438
 31
0.0
  0
SOLID
  5
3D1F
330
3C69
100
AcDbEntity
  8
0
 62
     0
100
AcDbTrace
 10
1212.216529102713
 20
1249.990821840803
 30
0.0
 11
1212.195644174574
 21
1249.927510986907
 31
0.0
 12
1212.396019200332
 22
1249.896511629438
 32
0.0
 13
1212.396019200332
 23
1249.896511629438
 33
0.0
  0
POINT
  5
3D20
330
3C69
100
AcDbEntity
  8
Defpoints
 62
     0
100
AcDbPoint
 10
1212.396019200332
 20
1249.896511629438
 30
0.0
  0
POINT
  5
3D21
330
3C69
100
AcDbEntity
  8
Defpoints
 62
     0
100
AcDbPoint
 10
1212.775884323711
 20
1249.771202060604
 30
0.0
  0
ENDBLK
  5
3C71
330
3C69
100
AcDbEntity
  8
0
100
AcDbBlockEnd
  0
BLOCK
  5
3C7B
330
3C72
100
AcDbEntity
  8
0
100
AcDbBlockBegin
  2
*D98
 70
     1
 10
0.0
 20
0.0
 30
0.0
  3
*D98
  1

  0
LINE
  5
3CDF
330
3C72
100
AcDbEntity
  8
0
 62
     0
370
    -2
100
AcDbLine
 10
1222.391290529228
 20
1255.597050669494
 30
0.0
 11
1226.525496321847
 21
1257.007655121042
 31
0.0
  0
LINE
  5
3CE0
330
3C72
100
AcDbEntity
  8
0
 62
     0
370
    -2
100
AcDbLine
 10
1231.153515198868
 20
1258.586750201754
 30
0.0
 11
1231.342800224513
 21
1258.651334867632
 31
0.0
  0
MTEXT
  5
3CE1
330
3C72
100
AcDbEntity
  8
0
 62
     0
100
AcDbMText
 10
1224.273442712624
 20
1256.534736236314
 30
0.0
 40
0.3937
 41
0.0
 46
0.0
 71
     5
 72
     1
  1
\A1;\U+22,054.49
  7
스타일2
 11
0.9464251282253512
 21
0.3229233293889242
 31
0.0
 73
     1
 44
1.0
  0
LINE
  5
3CE2
330
3C72
100
AcDbEntity
  8
0
 62
     0
370
    -2
100
AcDbLine
 10
1230.964230173223
 20
1258.522165535876
 30
0.0
 11
1226.714781347492
 21
1257.07223978692
 31
0.0
  0
SOLID
  5
3CE3
330
3C72
100
AcDbEntity
  8
0
 62
     0
100
AcDbTrace
 10
1231.142751087888
 20
1258.618297706028
 30
0.0
 11
1231.164279309848
 21
1258.55520269748
 31
0.0
 12
1230.964230173223
 22
1258.522165535876
 32
0.0
 13
1230.964230173223
 23
1258.522165535876
 33
0.0
  0
SOLID
  5
3CE4
330
3C72
100
AcDbEntity
  8
0
 62
     0
100
AcDbTrace
 10
1226.514732210867
 20
1257.039202625316
 30
0.0
 11
1226.536260432826
 21
1256.976107616768
 31
0.0
 12
1226.714781347492
 22
1257.07223978692
 32
0.0
 13
1226.714781347492
 23
1257.07223978692
 33
0.0
  0
POINT
  5
3CE5
330
3C72
100
AcDbEntity
  8
Defpoints
 62
     0
100
AcDbPoint
 10
1226.714781347492
 20
1257.07223978692
 30
0.0
  0
POINT
  5
3CE6
330
3C72
100
AcDbEntity
  8
Defpoints
 62
     0
100
AcDbPoint
 10
1230.964230173223
 20
1258.522165535876
 30
0.0
  0
ENDBLK
  5
3C7C
330
3C72
100
AcDbEntity
  8
0
100
AcDbBlockEnd
  0
BLOCK
  5
3C86
330
3C7D
100
AcDbEntity
  8
0
100
AcDbBlockBegin
  2
*D99
 70
     1
 10
0.0
 20
0.0
 30
0.0
  3
*D99
  1

  0
LINE
  5
3CE7
330
3C7D
100
AcDbEntity
  8
0
 62
     0
370
    -2
100
AcDbLine
 10
1234.987213189165
 20
1256.234415890628
 30
0.0
 11
1230.753627712658
 21
1257.310620549393
 31
0.0
  0
LINE
  5
3CE8
330
3C7D
100
AcDbEntity
  8
0
 62
     0
370
    -2
100
AcDbLine
 10
1226.925383808058
 20
1258.283784773402
 30
0.0
 11
1226.731548673647
 21
1258.333058911327
 31
0.0
  0
MTEXT
  5
3CE9
330
3C7D
100
AcDbEntity
  8
0
 62
     0
100
AcDbMText
 10
1233.036237634558
 20
1257.018919204201
 30
0.0
 40
0.3937
 41
0.0
 46
0.0
 71
     5
 72
     1
  1
\A1;\U+22,053.55
  7
스타일2
 11
0.9691756720506818
 21
-0.2463706896225869
 31
0.0
 73
     1
 44
1.0
  0
LINE
  5
3CEA
330
3C7D
100
AcDbEntity
  8
0
 62
     0
370
    -2
100
AcDbLine
 10
1227.119218942468
 20
1258.234510635478
 30
0.0
 11
1230.559792578248
 21
1257.359894687317
 31
0.0
  0
SOLID
  5
3CEB
330
3C7D
100
AcDbEntity
  8
0
 62
     0
100
AcDbTrace
 10
1226.933596164378
 20
1258.316090629137
 30
0.0
 11
1226.917171451737
 21
1258.251478917667
 31
0.0
 12
1227.119218942468
 22
1258.234510635478
 32
0.0
 13
1227.119218942468
 23
1258.234510635478
 33
0.0
  0
SOLID
  5
3CEC
330
3C7D
100
AcDbEntity
  8
0
 62
     0
100
AcDbTrace
 10
1230.761840068978
 20
1257.342926405128
 30
0.0
 11
1230.745415356337
 21
1257.278314693658
 31
0.0
 12
1230.559792578248
 22
1257.359894687317
 32
0.0
 13
1230.559792578248
 23
1257.359894687317
 33
0.0
  0
POINT
  5
3CED
330
3C7D
100
AcDbEntity
  8
Defpoints
 62
     0
100
AcDbPoint
 10
1230.559792578248
 20
1257.359894687317
 30
0.0
  0
POINT
  5
3CEE
330
3C7D
100
AcDbEntity
  8
Defpoints
 62
     0
100
AcDbPoint
 10
1227.119218942468
 20
1258.234510635478
 30
0.0
  0
ENDBLK
  5
3C87
330
3C7D
100
AcDbEntity
  8
0
100
AcDbBlockEnd
  0
BLOCK
  5
3C92
330
3C88
100
AcDbEntity
  8
0
100
AcDbBlockBegin
  2
*D100
 70
     1
 10
0.0
 20
0.0
 30
0.0
  3
*D100
  1

  0
LINE
  5
3D22
330
3C88
100
AcDbEntity
  8
0
 62
     0
370
    -2
100
AcDbLine
 10
1183.175884323709
 20
1249.960905296587
 30
0.0
 11
1183.175884323709
 21
1247.408205788681
 31
0.0
  0
LINE
  5
3D23
330
3C88
100
AcDbEntity
  8
0
 62
     0
370
    -2
100
AcDbLine
 10
1213.17588432371
 20
1249.960905296587
 30
0.0
 11
1213.17588432371
 21
1247.408205788681
 31
0.0
  0
LINE
  5
3D24
330
3C88
100
AcDbEntity
  8
0
 62
     0
370
    -2
100
AcDbLine
 10
1183.375884323709
 20
1247.608205788681
 30
0.0
 11
1212.97588432371
 21
1247.608205788681
 31
0.0
  0
SOLID
  5
3D25
330
3C88
100
AcDbEntity
  8
0
 62
     0
100
AcDbTrace
 10
1183.375884323709
 20
1247.641539122014
 30
0.0
 11
1183.375884323709
 21
1247.574872455348
 31
0.0
 12
1183.175884323709
 22
1247.608205788681
 32
0.0
 13
1183.175884323709
 23
1247.608205788681
 33
0.0
  0
SOLID
  5
3D26
330
3C88
100
AcDbEntity
  8
0
 62
     0
100
AcDbTrace
 10
1212.97588432371
 20
1247.641539122014
 30
0.0
 11
1212.97588432371
 21
1247.574872455348
 31
0.0
 12
1213.17588432371
 22
1247.608205788681
 32
0.0
 13
1213.17588432371
 23
1247.608205788681
 33
0.0
  0
MTEXT
  5
3D27
330
3C88
100
AcDbEntity
  8
0
 62
     0
100
AcDbMText
 10
1198.17588432371
 20
1247.855055788681
 30
0.0
 40
0.3937
 41
0.0
 46
0.0
 71
     5
 72
     1
  1
\A1;30
  7
스타일2
 73
     1
 44
1.0
  0
POINT
  5
3D28
330
3C88
100
AcDbEntity
  8
Defpoints
 62
     0
100
AcDbPoint
 10
1183.175884323709
 20
1250.060905296587
 30
0.0
  0
POINT
  5
3D29
330
3C88
100
AcDbEntity
  8
Defpoints
 62
     0
100
AcDbPoint
 10
1213.17588432371
 20
1250.060905296587
 30
0.0
  0
POINT
  5
3D2A
330
3C88
100
AcDbEntity
  8
Defpoints
 62
     0
100
AcDbPoint
 10
1213.17588432371
 20
1247.608205788681
 30
0.0
  0
ENDBLK
  5
3C93
330
3C88
100
AcDbEntity
  8
0
100
AcDbBlockEnd
  0
BLOCK
  5
3C9E
330
3C94
100
AcDbEntity
  8
0
100
AcDbBlockBegin
  2
*D101
 70
     1
 10
0.0
 20
0.0
 30
0.0
  3
*D101
  1

  0
LINE
  5
3CF8
330
3C94
100
AcDbEntity
  8
0
 62
     0
370
    -2
100
AcDbLine
 10
1213.059505760358
 20
1247.337202661399
 30
0.0
 11
1213.059505760358
 21
1244.722521625377
 31
0.0
  0
LINE
  5
3CF9
330
3C94
100
AcDbEntity
  8
0
 62
     0
370
    -2
100
AcDbLine
 10
1244.619505760357
 20
1247.337202661399
 30
0.0
 11
1244.619505760357
 21
1244.722521625377
 31
0.0
  0
LINE
  5
3CFA
330
3C94
100
AcDbEntity
  8
0
 62
     0
370
    -2
100
AcDbLine
 10
1213.259505760358
 20
1244.922521625377
 30
0.0
 11
1244.419505760357
 21
1244.922521625377
 31
0.0
  0
SOLID
  5
3CFB
330
3C94
100
AcDbEntity
  8
0
 62
     0
100
AcDbTrace
 10
1213.259505760358
 20
1244.95585495871
 30
0.0
 11
1213.259505760358
 21
1244.889188292044
 31
0.0
 12
1213.059505760358
 22
1244.922521625377
 32
0.0
 13
1213.059505760358
 23
1244.922521625377
 33
0.0
  0
SOLID
  5
3CFC
330
3C94
100
AcDbEntity
  8
0
 62
     0
100
AcDbTrace
 10
1244.419505760357
 20
1244.95585495871
 30
0.0
 11
1244.419505760357
 21
1244.889188292044
 31
0.0
 12
1244.619505760357
 22
1244.922521625377
 32
0.0
 13
1244.619505760357
 23
1244.922521625377
 33
0.0
  0
MTEXT
  5
3CFD
330
3C94
100
AcDbEntity
  8
0
 62
     0
100
AcDbMText
 10
1228.839505760358
 20
1245.169371625377
 30
0.0
 40
0.3937
 41
0.0
 46
0.0
 71
     5
 72
     1
  1
\A1;31.56
  7
스타일2
 73
     1
 44
1.0
  0
POINT
  5
3CFE
330
3C94
100
AcDbEntity
  8
Defpoints
 62
     0
100
AcDbPoint
 10
1213.059505760358
 20
1247.437202661399
 30
0.0
  0
POINT
  5
3CFF
330
3C94
100
AcDbEntity
  8
Defpoints
 62
     0
100
AcDbPoint
 10
1244.619505760357
 20
1247.437202661399
 30
0.0
  0
POINT
  5
3D00
330
3C94
100
AcDbEntity
  8
Defpoints
 62
     0
100
AcDbPoint
 10
1244.619505760357
 20
1244.922521625377
 30
0.0
  0
ENDBLK
  5
3C9F
330
3C94
100
AcDbEntity
  8
0
100
AcDbBlockEnd
  0
BLOCK
  5
3D43
330
3D42
100
AcDbEntity
  8
0
100
AcDbBlockBegin
  2
*D103
 70
     1
 10
0.0
 20
0.0
 30
0.0
  3
*D103
  1

  0
LINE
  5
3D44
330
3D42
100
AcDbEntity
  8
0
 62
     0
440
 16777216
370
    -2
100
AcDbLine
 10
1362.996970362188
 20
1266.735139675898
 30
0.0
 11
1362.996970362188
 21
1264.27116330255
 31
0.0
  0
LINE
  5
3D45
330
3D42
100
AcDbEntity
  8
0
 62
     0
440
 16777216
370
    -2
100
AcDbLine
 10
1378.436970362189
 20
1266.735139675898
 30
0.0
 11
1378.436970362189
 21
1264.27116330255
 31
0.0
  0
LINE
  5
3D46
330
3D42
100
AcDbEntity
  8
0
 62
     0
440
 16777216
370
    -2
100
AcDbLine
 10
1363.196970362188
 20
1264.47116330255
 30
0.0
 11
1378.236970362189
 21
1264.47116330255
 31
0.0
  0
SOLID
  5
3D47
330
3D42
100
AcDbEntity
  8
0
 62
     0
440
 16777216
100
AcDbTrace
 10
1363.196970362188
 20
1264.504496635883
 30
0.0
 11
1363.196970362188
 21
1264.437829969216
 31
0.0
 12
1362.996970362188
 22
1264.47116330255
 32
0.0
 13
1362.996970362188
 23
1264.47116330255
 33
0.0
  0
SOLID
  5
3D48
330
3D42
100
AcDbEntity
  8
0
 62
     0
440
 16777216
100
AcDbTrace
 10
1378.236970362189
 20
1264.504496635883
 30
0.0
 11
1378.236970362189
 21
1264.437829969216
 31
0.0
 12
1378.436970362189
 22
1264.47116330255
 32
0.0
 13
1378.436970362189
 23
1264.47116330255
 33
0.0
  0
MTEXT
  5
3D49
330
3D42
100
AcDbEntity
  8
0
 62
     0
440
 16777216
100
AcDbMText
 10
1370.716970362188
 20
1264.718013302549
 30
0.0
 40
0.3937
 41
0.0
 46
0.0
 71
     5
 72
     1
  1
\A1;15.44
  7
스타일2
 73
     1
 44
1.0
  0
POINT
  5
3D4A
330
3D42
100
AcDbEntity
  8
Defpoints
 62
     0
440
 16777216
100
AcDbPoint
 10
1362.996970362188
 20
1266.835139675898
 30
0.0
  0
POINT
  5
3D4B
330
3D42
100
AcDbEntity
  8
Defpoints
 62
     0
440
 16777216
100
AcDbPoint
 10
1378.436970362189
 20
1266.835139675898
 30
0.0
  0
POINT
  5
3D4C
330
3D42
100
AcDbEntity
  8
Defpoints
 62
     0
440
 16777216
100
AcDbPoint
 10
1378.436970362189
 20
1264.47116330255
 30
0.0
  0
ENDBLK
  5
3D4D
330
3D42
100
AcDbEntity
  8
0
100
AcDbBlockEnd
  0
BLOCK
  5
3D4F
330
3D4E
100
AcDbEntity
  8
0
100
AcDbBlockBegin
  2
*D104
 70
     1
 10
0.0
 20
0.0
 30
0.0
  3
*D104
  1

  0
LINE
  5
3D50
330
3D4E
100
AcDbEntity
  8
0
 62
     0
440
 16777216
370
    -2
100
AcDbLine
 10
1362.216970362188
 20
1265.555139675898
 30
0.0
 11
1362.216970362188
 21
1263.219840728814
 31
0.0
  0
LINE
  5
3D51
330
3D4E
100
AcDbEntity
  8
0
 62
     0
440
 16777216
370
    -2
100
AcDbLine
 10
1379.216970362188
 20
1265.555139675898
 30
0.0
 11
1379.216970362188
 21
1263.219840728814
 31
0.0
  0
LINE
  5
3D52
330
3D4E
100
AcDbEntity
  8
0
 62
     0
440
 16777216
370
    -2
100
AcDbLine
 10
1362.416970362188
 20
1263.419840728814
 30
0.0
 11
1379.016970362188
 21
1263.419840728814
 31
0.0
  0
SOLID
  5
3D53
330
3D4E
100
AcDbEntity
  8
0
 62
     0
440
 16777216
100
AcDbTrace
 10
1362.416970362188
 20
1263.453174062147
 30
0.0
 11
1362.416970362188
 21
1263.386507395481
 31
0.0
 12
1362.216970362188
 22
1263.419840728814
 32
0.0
 13
1362.216970362188
 23
1263.419840728814
 33
0.0
  0
SOLID
  5
3D54
330
3D4E
100
AcDbEntity
  8
0
 62
     0
440
 16777216
100
AcDbTrace
 10
1379.016970362188
 20
1263.453174062147
 30
0.0
 11
1379.016970362188
 21
1263.386507395481
 31
0.0
 12
1379.216970362188
 22
1263.419840728814
 32
0.0
 13
1379.216970362188
 23
1263.419840728814
 33
0.0
  0
MTEXT
  5
3D55
330
3D4E
100
AcDbEntity
  8
0
 62
     0
440
 16777216
100
AcDbMText
 10
1370.716970362188
 20
1263.666690728814
 30
0.0
 40
0.3937
 41
0.0
 46
0.0
 71
     5
 72
     1
  1
\A1;17
  7
스타일2
 73
     1
 44
1.0
  0
POINT
  5
3D56
330
3D4E
100
AcDbEntity
  8
Defpoints
 62
     0
440
 16777216
100
AcDbPoint
 10
1362.216970362188
 20
1265.655139675898
 30
0.0
  0
POINT
  5
3D57
330
3D4E
100
AcDbEntity
  8
Defpoints
 62
     0
440
 16777216
100
AcDbPoint
 10
1379.216970362188
 20
1265.655139675898
 30
0.0
  0
POINT
  5
3D58
330
3D4E
100
AcDbEntity
  8
Defpoints
 62
     0
440
 16777216
100
AcDbPoint
 10
1379.216970362188
 20
1263.419840728814
 30
0.0
  0
ENDBLK
  5
3D59
330
3D4E
100
AcDbEntity
  8
0
100
AcDbBlockEnd
  0
BLOCK
  5
3D5B
330
3D5A
100
AcDbEntity
  8
0
100
AcDbBlockBegin
  2
*D105
 70
     1
 10
0.0
 20
0.0
 30
0.0
  3
*D105
  1

  0
LINE
  5
3D5C
330
3D5A
100
AcDbEntity
  8
0
 62
     0
440
 16777216
370
    -2
100
AcDbLine
 10
1370.616970362188
 20
1276.515139675898
 30
0.0
 11
1365.275975231291
 21
1276.515139675898
 31
0.0
  0
LINE
  5
3D5D
330
3D5A
100
AcDbEntity
  8
0
 62
     0
440
 16777216
370
    -2
100
AcDbLine
 10
1370.616970362188
 20
1282.185139675898
 30
0.0
 11
1365.275975231291
 21
1282.185139675898
 31
0.0
  0
LINE
  5
3D5E
330
3D5A
100
AcDbEntity
  8
0
 62
     0
440
 16777216
370
    -2
100
AcDbLine
 10
1365.475975231291
 20
1276.715139675898
 30
0.0
 11
1365.475975231291
 21
1281.985139675898
 31
0.0
  0
SOLID
  5
3D5F
330
3D5A
100
AcDbEntity
  8
0
 62
     0
440
 16777216
100
AcDbTrace
 10
1365.442641897958
 20
1276.715139675898
 30
0.0
 11
1365.509308564624
 21
1276.715139675898
 31
0.0
 12
1365.475975231291
 22
1276.515139675898
 32
0.0
 13
1365.475975231291
 23
1276.515139675898
 33
0.0
  0
SOLID
  5
3D60
330
3D5A
100
AcDbEntity
  8
0
 62
     0
440
 16777216
100
AcDbTrace
 10
1365.442641897958
 20
1281.985139675898
 30
0.0
 11
1365.509308564624
 21
1281.985139675898
 31
0.0
 12
1365.475975231291
 22
1282.185139675898
 32
0.0
 13
1365.475975231291
 23
1282.185139675898
 33
0.0
  0
MTEXT
  5
3D61
330
3D5A
100
AcDbEntity
  8
0
 62
     0
440
 16777216
100
AcDbMText
 10
1365.229125231291
 20
1279.350139675898
 30
0.0
 40
0.3937
 41
0.0
 46
0.0
 71
     5
 72
     1
  1
\A1;5.67
  7
스타일2
 11
0.0000000000000001
 21
1.0
 31
0.0
 73
     1
 44
1.0
  0
POINT
  5
3D62
330
3D5A
100
AcDbEntity
  8
Defpoints
 62
     0
440
 16777216
100
AcDbPoint
 10
1370.716970362188
 20
1276.515139675898
 30
0.0
  0
POINT
  5
3D63
330
3D5A
100
AcDbEntity
  8
Defpoints
 62
     0
440
 16777216
100
AcDbPoint
 10
1370.716970362188
 20
1282.185139675898
 30
0.0
  0
POINT
  5
3D64
330
3D5A
100
AcDbEntity
  8
Defpoints
 62
     0
440
 16777216
100
AcDbPoint
 10
1365.475975231291
 20
1282.185139675898
 30
0.0
  0
ENDBLK
  5
3D65
330
3D5A
100
AcDbEntity
  8
0
100
AcDbBlockEnd
  0
BLOCK
  5
3D67
330
3D66
100
AcDbEntity
  8
0
100
AcDbBlockBegin
  2
*D106
 70
     1
 10
0.0
 20
0.0
 30
0.0
  3
*D106
  1

  0
LINE
  5
3D68
330
3D66
100
AcDbEntity
  8
0
 62
     0
440
 16777216
370
    -2
100
AcDbLine
 10
1363.296970362189
 20
1282.185139675898
 30
0.0
 11
1361.085776923367
 21
1282.185139675898
 31
0.0
  0
LINE
  5
3D69
330
3D66
100
AcDbEntity
  8
0
 62
     0
440
 16777216
370
    -2
100
AcDbLine
 10
1363.296970362189
 20
1266.935139675898
 30
0.0
 11
1361.085776923367
 21
1266.935139675898
 31
0.0
  0
LINE
  5
3D6A
330
3D66
100
AcDbEntity
  8
0
 62
     0
440
 16777216
370
    -2
100
AcDbLine
 10
1361.285776923367
 20
1281.985139675898
 30
0.0
 11
1361.285776923367
 21
1267.135139675898
 31
0.0
  0
SOLID
  5
3D6B
330
3D66
100
AcDbEntity
  8
0
 62
     0
440
 16777216
100
AcDbTrace
 10
1361.252443590033
 20
1281.985139675898
 30
0.0
 11
1361.3191102567
 21
1281.985139675898
 31
0.0
 12
1361.285776923367
 22
1282.185139675898
 32
0.0
 13
1361.285776923367
 23
1282.185139675898
 33
0.0
  0
SOLID
  5
3D6C
330
3D66
100
AcDbEntity
  8
0
 62
     0
440
 16777216
100
AcDbTrace
 10
1361.252443590033
 20
1267.135139675898
 30
0.0
 11
1361.3191102567
 21
1267.135139675898
 31
0.0
 12
1361.285776923367
 22
1266.935139675898
 32
0.0
 13
1361.285776923367
 23
1266.935139675898
 33
0.0
  0
MTEXT
  5
3D6D
330
3D66
100
AcDbEntity
  8
0
 62
     0
440
 16777216
100
AcDbMText
 10
1361.038926923367
 20
1274.560139675898
 30
0.0
 40
0.3937
 41
0.0
 46
0.0
 71
     5
 72
     1
  1
\A1;15.25
  7
스타일2
 11
0.0000000000000001
 21
1.0
 31
0.0
 73
     1
 44
1.0
  0
POINT
  5
3D6E
330
3D66
100
AcDbEntity
  8
Defpoints
 62
     0
440
 16777216
100
AcDbPoint
 10
1363.396970362189
 20
1282.185139675898
 30
0.0
  0
POINT
  5
3D6F
330
3D66
100
AcDbEntity
  8
Defpoints
 62
     0
440
 16777216
100
AcDbPoint
 10
1363.396970362189
 20
1266.935139675898
 30
0.0
  0
POINT
  5
3D70
330
3D66
100
AcDbEntity
  8
Defpoints
 62
     0
440
 16777216
100
AcDbPoint
 10
1361.285776923367
 20
1266.935139675898
 30
0.0
  0
ENDBLK
  5
3D71
330
3D66
100
AcDbEntity
  8
0
100
AcDbBlockEnd
  0
BLOCK
  5
3D73
330
3D72
100
AcDbEntity
  8
0
100
AcDbBlockBegin
  2
*D107
 70
     1
 10
0.0
 20
0.0
 30
0.0
  3
*D107
  1

  0
LINE
  5
3D74
330
3D72
100
AcDbEntity
  8
0
 62
     0
440
 16777216
370
    -2
100
AcDbLine
 10
1363.296970362189
 20
1282.685139675898
 30
0.0
 11
1360.162734410556
 21
1282.685139675898
 31
0.0
  0
LINE
  5
3D75
330
3D72
100
AcDbEntity
  8
0
 62
     0
440
 16777216
370
    -2
100
AcDbLine
 10
1363.296970362189
 20
1266.435139675898
 30
0.0
 11
1360.162734410556
 21
1266.435139675898
 31
0.0
  0
LINE
  5
3D76
330
3D72
100
AcDbEntity
  8
0
 62
     0
440
 16777216
370
    -2
100
AcDbLine
 10
1360.362734410556
 20
1282.485139675898
 30
0.0
 11
1360.362734410556
 21
1266.635139675898
 31
0.0
  0
SOLID
  5
3D77
330
3D72
100
AcDbEntity
  8
0
 62
     0
440
 16777216
100
AcDbTrace
 10
1360.329401077223
 20
1282.485139675898
 30
0.0
 11
1360.396067743889
 21
1282.485139675898
 31
0.0
 12
1360.362734410556
 22
1282.685139675898
 32
0.0
 13
1360.362734410556
 23
1282.685139675898
 33
0.0
  0
SOLID
  5
3D78
330
3D72
100
AcDbEntity
  8
0
 62
     0
440
 16777216
100
AcDbTrace
 10
1360.329401077223
 20
1266.635139675898
 30
0.0
 11
1360.396067743889
 21
1266.635139675898
 31
0.0
 12
1360.362734410556
 22
1266.435139675898
 32
0.0
 13
1360.362734410556
 23
1266.435139675898
 33
0.0
  0
MTEXT
  5
3D79
330
3D72
100
AcDbEntity
  8
0
 62
     0
440
 16777216
100
AcDbMText
 10
1360.115884410556
 20
1274.560139675898
 30
0.0
 40
0.3937
 41
0.0
 46
0.0
 71
     5
 72
     1
  1
\A1;16.25
  7
스타일2
 11
0.0000000000000001
 21
1.0
 31
0.0
 73
     1
 44
1.0
  0
POINT
  5
3D7A
330
3D72
100
AcDbEntity
  8
Defpoints
 62
     0
440
 16777216
100
AcDbPoint
 10
1363.396970362189
 20
1282.685139675898
 30
0.0
  0
POINT
  5
3D7B
330
3D72
100
AcDbEntity
  8
Defpoints
 62
     0
440
 16777216
100
AcDbPoint
 10
1363.396970362189
 20
1266.435139675898
 30
0.0
  0
POINT
  5
3D7C
330
3D72
100
AcDbEntity
  8
Defpoints
 62
     0
440
 16777216
100
AcDbPoint
 10
1360.362734410556
 20
1266.435139675898
 30
0.0
  0
ENDBLK
  5
3D7D
330
3D72
100
AcDbEntity
  8
0
100
AcDbBlockEnd
  0
BLOCK
  5
3D7F
330
3D7E
100
AcDbEntity
  8
0
100
AcDbBlockBegin
  2
*D108
 70
     1
 10
0.0
 20
0.0
 30
0.0
  3
*D108
  1

  0
LINE
  5
3D80
330
3D7E
100
AcDbEntity
  8
0
 62
     0
440
 16777216
370
    -2
100
AcDbLine
 10
1362.116970362189
 20
1265.655139675898
 30
0.0
 11
1358.796354798958
 21
1265.655139675898
 31
0.0
  0
LINE
  5
3D81
330
3D7E
100
AcDbEntity
  8
0
 62
     0
440
 16777216
370
    -2
100
AcDbLine
 10
1362.116970362189
 20
1283.465139675898
 30
0.0
 11
1358.796354798958
 21
1283.465139675898
 31
0.0
  0
LINE
  5
3D82
330
3D7E
100
AcDbEntity
  8
0
 62
     0
440
 16777216
370
    -2
100
AcDbLine
 10
1358.996354798958
 20
1265.855139675898
 30
0.0
 11
1358.996354798958
 21
1283.265139675898
 31
0.0
  0
SOLID
  5
3D83
330
3D7E
100
AcDbEntity
  8
0
 62
     0
440
 16777216
100
AcDbTrace
 10
1358.963021465625
 20
1265.855139675898
 30
0.0
 11
1359.029688132291
 21
1265.855139675898
 31
0.0
 12
1358.996354798958
 22
1265.655139675898
 32
0.0
 13
1358.996354798958
 23
1265.655139675898
 33
0.0
  0
SOLID
  5
3D84
330
3D7E
100
AcDbEntity
  8
0
 62
     0
440
 16777216
100
AcDbTrace
 10
1358.963021465625
 20
1283.265139675898
 30
0.0
 11
1359.029688132291
 21
1283.265139675898
 31
0.0
 12
1358.996354798958
 22
1283.465139675898
 32
0.0
 13
1358.996354798958
 23
1283.465139675898
 33
0.0
  0
MTEXT
  5
3D85
330
3D7E
100
AcDbEntity
  8
0
 62
     0
440
 16777216
100
AcDbMText
 10
1358.749504798958
 20
1274.560139675898
 30
0.0
 40
0.3937
 41
0.0
 46
0.0
 71
     5
 72
     1
  1
\A1;17.81
  7
스타일2
 11
0.0000000000000001
 21
1.0
 31
0.0
 73
     1
 44
1.0
  0
POINT
  5
3D86
330
3D7E
100
AcDbEntity
  8
Defpoints
 62
     0
440
 16777216
100
AcDbPoint
 10
1362.216970362189
 20
1265.655139675898
 30
0.0
  0
POINT
  5
3D87
330
3D7E
100
AcDbEntity
  8
Defpoints
 62
     0
440
 16777216
100
AcDbPoint
 10
1362.216970362189
 20
1283.465139675898
 30
0.0
  0
POINT
  5
3D88
330
3D7E
100
AcDbEntity
  8
Defpoints
 62
     0
440
 16777216
100
AcDbPoint
 10
1358.996354798958
 20
1283.465139675898
 30
0.0
  0
ENDBLK
  5
3D89
330
3D7E
100
AcDbEntity
  8
0
100
AcDbBlockEnd
  0
BLOCK
  5
3D8B
330
3D8A
100
AcDbEntity
  8
0
100
AcDbBlockBegin
  2
*D109
 70
     1
 10
0.0
 20
0.0
 30
0.0
  3
*D109
  1

  0
LINE
  5
3D8C
330
3D8A
100
AcDbEntity
  8
0
 62
     0
440
 16777216
370
    -2
100
AcDbLine
 10
1378.436970362188
 20
1274.460139675898
 30
0.0
 11
1378.436970362188
 21
1274.099266761163
 31
0.0
  0
LINE
  5
3D8D
330
3D8A
100
AcDbEntity
  8
0
 62
     0
440
 16777216
370
    -2
100
AcDbLine
 10
1379.216970362188
 20
1274.460139675898
 30
0.0
 11
1379.216970362188
 21
1274.099266761163
 31
0.0
  0
LINE
  5
3D8E
330
3D8A
100
AcDbEntity
  8
0
 62
     0
440
 16777216
370
    -2
100
AcDbLine
 10
1378.636970362189
 20
1274.299266761163
 30
0.0
 11
1379.016970362188
 21
1274.299266761163
 31
0.0
  0
LINE
  5
3D8F
330
3D8A
100
AcDbEntity
  8
0
 62
     0
440
 16777216
370
    -2
100
AcDbLine
 10
1379.216970362188
 20
1274.299266761163
 30
0.0
 11
1380.632453695521
 21
1274.299266761163
 31
0.0
  0
SOLID
  5
3D90
330
3D8A
100
AcDbEntity
  8
0
 62
     0
440
 16777216
100
AcDbTrace
 10
1378.636970362189
 20
1274.332600094496
 30
0.0
 11
1378.636970362189
 21
1274.26593342783
 31
0.0
 12
1378.436970362188
 22
1274.299266761163
 32
0.0
 13
1378.436970362188
 23
1274.299266761163
 33
0.0
  0
SOLID
  5
3D91
330
3D8A
100
AcDbEntity
  8
0
 62
     0
440
 16777216
100
AcDbTrace
 10
1379.016970362188
 20
1274.332600094496
 30
0.0
 11
1379.016970362188
 21
1274.26593342783
 31
0.0
 12
1379.216970362188
 22
1274.299266761163
 32
0.0
 13
1379.216970362188
 23
1274.299266761163
 33
0.0
  0
MTEXT
  5
3D92
330
3D8A
100
AcDbEntity
  8
0
 62
     0
440
 16777216
100
AcDbMText
 10
1380.024712028855
 20
1274.546116761163
 30
0.0
 40
0.3937
 41
0.0
 46
0.0
 71
     5
 72
     1
  1
\A1;0.78
  7
스타일2
 73
     1
 44
1.0
  0
POINT
  5
3D93
330
3D8A
100
AcDbEntity
  8
Defpoints
 62
     0
440
 16777216
100
AcDbPoint
 10
1378.436970362188
 20
1274.560139675898
 30
0.0
  0
POINT
  5
3D94
330
3D8A
100
AcDbEntity
  8
Defpoints
 62
     0
440
 16777216
100
AcDbPoint
 10
1379.216970362188
 20
1274.560139675898
 30
0.0
  0
POINT
  5
3D95
330
3D8A
100
AcDbEntity
  8
Defpoints
 62
     0
440
 16777216
100
AcDbPoint
 10
1379.216970362188
 20
1274.299266761163
 30
0.0
  0
ENDBLK
  5
3D96
330
3D8A
100
AcDbEntity
  8
0
100
AcDbBlockEnd
  0
BLOCK
  5
3D98
330
3D97
100
AcDbEntity
  8
0
100
AcDbBlockBegin
  2
*D110
 70
     1
 10
0.0
 20
0.0
 30
0.0
  3
*D110
  1

  0
LINE
  5
3D99
330
3D97
100
AcDbEntity
  8
0
 62
     0
440
 16777216
370
    -2
100
AcDbLine
 10
1377.528241668537
 20
1269.28536227427
 30
0.0
 11
1377.885524199799
 21
1267.915711859091
 31
0.0
  0
MTEXT
  5
3D9A
330
3D97
100
AcDbEntity
  8
0
 62
     0
440
 16777216
100
AcDbMText
 10
1377.920498979473
 20
1268.759606572522
 30
0.0
 40
0.3937
 41
0.0
 46
0.0
 71
     5
 72
     1
  1
\A1;R0.4
  7
스타일2
 11
0.2524102706464966
 21
-0.967620305322373
 31
0.0
 73
     1
 44
1.0
  0
LINE
  5
3D9B
330
3D97
100
AcDbEntity
  8
0
 62
     0
440
 16777216
370
    -2
100
AcDbLine
 10
1378.036970362187
 20
1267.335139675899
 30
0.0
 11
1377.936006253929
 21
1267.722187798027
 31
0.0
  0
SOLID
  5
3D9C
330
3D97
100
AcDbEntity
  8
0
 62
     0
440
 16777216
100
AcDbTrace
 10
1377.917778209977
 20
1267.924125534779
 30
0.0
 11
1377.853270189622
 21
1267.907298183403
 31
0.0
 12
1377.936006253929
 22
1267.722187798027
 32
0.0
 13
1377.936006253929
 23
1267.722187798027
 33
0.0
  0
ARC
  5
3D9D
330
3D97
100
AcDbEntity
  8
0
 62
     0
440
 16777216
370
    -2
100
AcDbCircle
 10
1378.036970362187
 20
1267.335139675899
 30
0.0
 40
0.3999999999987267
100
AcDbArc
 50
14.32394487831622
 51
133.2680753033004
  0
POINT
  5
3D9E
330
3D97
100
AcDbEntity
  8
Defpoints
 62
     0
440
 16777216
100
AcDbPoint
 10
1377.936006253929
 20
1267.722187798027
 30
0.0
  0
POINT
  5
3D9F
330
3D97
100
AcDbEntity
  8
Defpoints
 62
     0
440
 16777216
100
AcDbPoint
 10
1378.036970362187
 20
1267.335139675899
 30
0.0
  0
ENDBLK
  5
3DA0
330
3D97
100
AcDbEntity
  8
0
100
AcDbBlockEnd
  0
BLOCK
  5
3DA2
330
3DA1
100
AcDbEntity
  8
0
100
AcDbBlockBegin
  2
*D111
 70
     1
 10
0.0
 20
0.0
 30
0.0
  3
*D111
  1

  0
LINE
  5
3DA3
330
3DA1
100
AcDbEntity
  8
0
 62
     0
440
 16777216
370
    -2
100
AcDbLine
 10
1376.024785612428
 20
1267.772545108013
 30
0.0
 11
1377.493093407586
 21
1267.088512638648
 31
0.0
  0
MTEXT
  5
3DA4
330
3DA1
100
AcDbEntity
  8
0
 62
     0
440
 16777216
100
AcDbMText
 10
1376.679921950272
 20
1267.739662973969
 30
0.0
 40
0.3937
 41
0.0
 46
0.0
 71
     5
 72
     1
  1
\A1;R0.4
  7
스타일2
 11
0.9064615910039554
 21
-0.4222882712491292
 31
0.0
 73
     1
 44
1.0
  0
LINE
  5
3DA5
330
3DA1
100
AcDbEntity
  8
0
 62
     0
440
 16777216
370
    -2
100
AcDbLine
 10
1378.036970362188
 20
1266.835139675899
 30
0.0
 11
1377.674385725787
 21
1267.004054984398
 31
0.0
  0
SOLID
  5
3DA6
330
3DA1
100
AcDbEntity
  8
0
 62
     0
440
 16777216
100
AcDbTrace
 10
1377.507169683294
 20
1267.118728025015
 30
0.0
 11
1377.479017131878
 21
1267.058297252281
 31
0.0
 12
1377.674385725787
 22
1267.004054984398
 32
0.0
 13
1377.674385725787
 23
1267.004054984398
 33
0.0
  0
ARC
  5
3DA7
330
3DA1
100
AcDbEntity
  8
0
 62
     0
440
 16777216
370
    -2
100
AcDbCircle
 10
1378.036970362188
 20
1266.835139675899
 30
0.0
 40
0.3999999999998636
100
AcDbArc
 50
126.3729701084637
 51
255.6760551217245
  0
POINT
  5
3DA8
330
3DA1
100
AcDbEntity
  8
Defpoints
 62
     0
440
 16777216
100
AcDbPoint
 10
1377.674385725787
 20
1267.004054984398
 30
0.0
  0
POINT
  5
3DA9
330
3DA1
100
AcDbEntity
  8
Defpoints
 62
     0
440
 16777216
100
AcDbPoint
 10
1378.036970362188
 20
1266.835139675899
 30
0.0
  0
ENDBLK
  5
3DAA
330
3DA1
100
AcDbEntity
  8
0
100
AcDbBlockEnd
  0
BLOCK
  5
3DAC
330
3DAB
100
AcDbEntity
  8
0
100
AcDbBlockBegin
  2
*D112
 70
     1
 10
0.0
 20
0.0
 30
0.0
  3
*D112
  1

  0
LINE
  5
3DAD
330
3DAB
100
AcDbEntity
  8
0
 62
     0
440
 16777216
370
    -2
100
AcDbLine
 10
1367.030300752035
 20
1274.263664775844
 30
0.0
 11
1368.6303211662
 21
1275.24080842662
 31
0.0
  0
LINE
  5
3DAE
330
3DAB
100
AcDbEntity
  8
0
 62
     0
440
 16777216
370
    -2
100
AcDbLine
 10
1372.803619558175
 20
1277.789470925176
 30
0.0
 11
1372.974306608972
 21
1277.893710700168
 31
0.0
  0
MTEXT
  5
3DAF
330
3DAB
100
AcDbEntity
  8
0
 62
     0
440
 16777216
100
AcDbMText
 10
1367.616309491435
 20
1274.910787206181
 30
0.0
 40
0.3937
 41
0.0
 46
0.0
 71
     5
 72
     1
  1
\A1;∅4.49
  7
스타일2
 11
0.8534352539824443
 21
0.5211988749603367
 31
0.0
 73
     1
 44
1.0
  0
LINE
  5
3DB0
330
3DAB
100
AcDbEntity
  8
0
 62
     0
440
 16777216
370
    -2
100
AcDbLine
 10
1372.632932507378
 20
1277.685231150184
 30
0.0
 11
1368.801008216997
 21
1275.345048201612
 31
0.0
  0
SOLID
  5
3DB1
330
3DAB
100
AcDbEntity
  8
0
 62
     0
440
 16777216
100
AcDbTrace
 10
1372.786246262343
 20
1277.817918766975
 30
0.0
 11
1372.820992854007
 21
1277.761023083376
 31
0.0
 12
1372.632932507378
 22
1277.685231150184
 32
0.0
 13
1372.632932507378
 23
1277.685231150184
 33
0.0
  0
SOLID
  5
3DB2
330
3DAB
100
AcDbEntity
  8
0
 62
     0
440
 16777216
100
AcDbTrace
 10
1368.612947870369
 20
1275.269256268419
 30
0.0
 11
1368.647694462032
 21
1275.21236058482
 31
0.0
 12
1368.801008216997
 22
1275.345048201612
 32
0.0
 13
1368.801008216997
 23
1275.345048201612
 33
0.0
  0
POINT
  5
3DB3
330
3DAB
100
AcDbEntity
  8
Defpoints
 62
     0
440
 16777216
100
AcDbPoint
 10
1368.801008216997
 20
1275.345048201612
 30
0.0
  0
POINT
  5
3DB4
330
3DAB
100
AcDbEntity
  8
Defpoints
 62
     0
440
 16777216
100
AcDbPoint
 10
1372.632932507378
 20
1277.685231150184
 30
0.0
  0
ENDBLK
  5
3DB5
330
3DAB
100
AcDbEntity
  8
0
100
AcDbBlockEnd
  0
BLOCK
  5
3DB7
330
3DB6
100
AcDbEntity
  8
0
100
AcDbBlockBegin
  2
*D113
 70
     1
 10
0.0
 20
0.0
 30
0.0
  3
*D113
  1

  0
LINE
  5
3DB8
330
3DB6
100
AcDbEntity
  8
0
 62
     0
440
 16777216
370
    -2
100
AcDbLine
 10
1374.285540799245
 20
1274.632726604947
 30
0.0
 11
1372.463832094297
 21
1275.593673947347
 31
0.0
  0
LINE
  5
3DB9
330
3DB6
100
AcDbEntity
  8
0
 62
     0
440
 16777216
370
    -2
100
AcDbLine
 10
1368.970108630079
 20
1277.436605404448
 30
0.0
 11
1368.793211239485
 21
1277.529918389618
 31
0.0
  0
MTEXT
  5
3DBA
330
3DB6
100
AcDbEntity
  8
0
 62
     0
440
 16777216
100
AcDbMText
 10
1373.660042976776
 20
1275.241763678192
 30
0.0
 40
0.3937
 41
0.0
 46
0.0
 71
     5
 72
     1
  1
\A1;∅3.55
  7
스타일2
 11
0.8844869529666079
 21
-0.4665649258483171
 31
0.0
 73
     1
 44
1.0
  0
LINE
  5
3DBB
330
3DB6
100
AcDbEntity
  8
0
 62
     0
440
 16777216
370
    -2
100
AcDbLine
 10
1369.147006020672
 20
1277.343292419279
 30
0.0
 11
1372.286934703703
 21
1275.686986932517
 31
0.0
  0
SOLID
  5
3DBC
330
3DB6
100
AcDbEntity
  8
0
 62
     0
440
 16777216
100
AcDbTrace
 10
1368.985660794274
 20
1277.46608830288
 30
0.0
 11
1368.954556465884
 21
1277.407122506016
 31
0.0
 12
1369.147006020672
 22
1277.343292419279
 32
0.0
 13
1369.147006020672
 23
1277.343292419279
 33
0.0
  0
SOLID
  5
3DBD
330
3DB6
100
AcDbEntity
  8
0
 62
     0
440
 16777216
100
AcDbTrace
 10
1372.479384258492
 20
1275.623156845779
 30
0.0
 11
1372.448279930102
 21
1275.564191048915
 31
0.0
 12
1372.286934703703
 22
1275.686986932517
 32
0.0
 13
1372.286934703703
 23
1275.686986932517
 33
0.0
  0
POINT
  5
3DBE
330
3DB6
100
AcDbEntity
  8
Defpoints
 62
     0
440
 16777216
100
AcDbPoint
 10
1372.286934703703
 20
1275.686986932517
 30
0.0
  0
POINT
  5
3DBF
330
3DB6
100
AcDbEntity
  8
Defpoints
 62
     0
440
 16777216
100
AcDbPoint
 10
1369.147006020672
 20
1277.343292419279
 30
0.0
  0
ENDBLK
  5
3DC0
330
3DB6
100
AcDbEntity
  8
0
100
AcDbBlockEnd
  0
BLOCK
  5
3E17
330
3E0D
100
AcDbEntity
  8
0
100
AcDbBlockBegin
  2
*D115
 70
     1
 10
0.0
 20
0.0
 30
0.0
  3
*D115
  1

  0
LINE
  5
3EE6
330
3E0D
100
AcDbEntity
  8
0
 62
     0
370
    -2
100
AcDbLine
 10
1192.441824962118
 20
1249.47505020215
 30
0.0
 11
1192.441824962118
 21
1247.011073828802
 31
0.0
  0
LINE
  5
3EE7
330
3E0D
100
AcDbEntity
  8
0
 62
     0
370
    -2
100
AcDbLine
 10
1207.881824962119
 20
1249.47505020215
 30
0.0
 11
1207.881824962119
 21
1247.011073828802
 31
0.0
  0
LINE
  5
3EE8
330
3E0D
100
AcDbEntity
  8
0
 62
     0
370
    -2
100
AcDbLine
 10
1192.641824962119
 20
1247.211073828802
 30
0.0
 11
1207.68182496212
 21
1247.211073828802
 31
0.0
  0
SOLID
  5
3EE9
330
3E0D
100
AcDbEntity
  8
0
 62
     0
100
AcDbTrace
 10
1192.641824962119
 20
1247.244407162135
 30
0.0
 11
1192.641824962119
 21
1247.177740495468
 31
0.0
 12
1192.441824962118
 22
1247.211073828802
 32
0.0
 13
1192.441824962118
 23
1247.211073828802
 33
0.0
  0
SOLID
  5
3EEA
330
3E0D
100
AcDbEntity
  8
0
 62
     0
100
AcDbTrace
 10
1207.68182496212
 20
1247.244407162135
 30
0.0
 11
1207.68182496212
 21
1247.177740495468
 31
0.0
 12
1207.881824962119
 22
1247.211073828802
 32
0.0
 13
1207.881824962119
 23
1247.211073828802
 33
0.0
  0
MTEXT
  5
3EEB
330
3E0D
100
AcDbEntity
  8
0
 62
     0
100
AcDbMText
 10
1200.161824962119
 20
1247.457923828801
 30
0.0
 40
0.3937
 41
0.0
 46
0.0
 71
     5
 72
     1
  1
\A1;15.44
  7
스타일2
 73
     1
 44
1.0
  0
POINT
  5
3EEC
330
3E0D
100
AcDbEntity
  8
Defpoints
 62
     0
100
AcDbPoint
 10
1192.441824962118
 20
1249.57505020215
 30
0.0
  0
POINT
  5
3EED
330
3E0D
100
AcDbEntity
  8
Defpoints
 62
     0
100
AcDbPoint
 10
1207.881824962119
 20
1249.57505020215
 30
0.0
  0
POINT
  5
3EEE
330
3E0D
100
AcDbEntity
  8
Defpoints
 62
     0
100
AcDbPoint
 10
1207.881824962119
 20
1247.211073828802
 30
0.0
  0
ENDBLK
  5
3E18
330
3E0D
100
AcDbEntity
  8
0
100
AcDbBlockEnd
  0
BLOCK
  5
3E23
330
3E19
100
AcDbEntity
  8
0
100
AcDbBlockBegin
  2
*D116
 70
     1
 10
0.0
 20
0.0
 30
0.0
  3
*D116
  1

  0
LINE
  5
3E93
330
3E19
100
AcDbEntity
  8
0
 62
     0
370
    -2
100
AcDbLine
 10
1217.739332577514
 20
1246.275944365924
 30
0.0
 11
1217.739332577514
 21
1243.94064541884
 31
0.0
  0
LINE
  5
3E94
330
3E19
100
AcDbEntity
  8
0
 62
     0
370
    -2
100
AcDbLine
 10
1234.739332577514
 20
1246.275944365924
 30
0.0
 11
1234.739332577514
 21
1243.94064541884
 31
0.0
  0
LINE
  5
3E95
330
3E19
100
AcDbEntity
  8
0
 62
     0
370
    -2
100
AcDbLine
 10
1217.939332577514
 20
1244.14064541884
 30
0.0
 11
1234.539332577514
 21
1244.14064541884
 31
0.0
  0
SOLID
  5
3E96
330
3E19
100
AcDbEntity
  8
0
 62
     0
100
AcDbTrace
 10
1217.939332577514
 20
1244.173978752173
 30
0.0
 11
1217.939332577514
 21
1244.107312085507
 31
0.0
 12
1217.739332577514
 22
1244.14064541884
 32
0.0
 13
1217.739332577514
 23
1244.14064541884
 33
0.0
  0
SOLID
  5
3E97
330
3E19
100
AcDbEntity
  8
0
 62
     0
100
AcDbTrace
 10
1234.539332577514
 20
1244.173978752173
 30
0.0
 11
1234.539332577514
 21
1244.107312085507
 31
0.0
 12
1234.739332577514
 22
1244.14064541884
 32
0.0
 13
1234.739332577514
 23
1244.14064541884
 33
0.0
  0
MTEXT
  5
3E98
330
3E19
100
AcDbEntity
  8
0
 62
     0
100
AcDbMText
 10
1226.239332577514
 20
1244.38749541884
 30
0.0
 40
0.3937
 41
0.0
 46
0.0
 71
     5
 72
     1
  1
\A1;17
  7
스타일2
 73
     1
 44
1.0
  0
POINT
  5
3E99
330
3E19
100
AcDbEntity
  8
Defpoints
 62
     0
100
AcDbPoint
 10
1217.739332577514
 20
1246.375944365924
 30
0.0
  0
POINT
  5
3E9A
330
3E19
100
AcDbEntity
  8
Defpoints
 62
     0
100
AcDbPoint
 10
1234.739332577514
 20
1246.375944365924
 30
0.0
  0
POINT
  5
3E9B
330
3E19
100
AcDbEntity
  8
Defpoints
 62
     0
100
AcDbPoint
 10
1234.739332577514
 20
1244.14064541884
 30
0.0
  0
ENDBLK
  5
3E24
330
3E19
100
AcDbEntity
  8
0
100
AcDbBlockEnd
  0
BLOCK
  5
3E2F
330
3E25
100
AcDbEntity
  8
0
100
AcDbBlockBegin
  2
*D117
 70
     1
 10
0.0
 20
0.0
 30
0.0
  3
*D117
  1

  0
LINE
  5
3E9C
330
3E25
100
AcDbEntity
  8
0
 62
     0
370
    -2
100
AcDbLine
 10
1226.139332577514
 20
1257.235944365924
 30
0.0
 11
1220.798337446617
 21
1257.235944365924
 31
0.0
  0
LINE
  5
3E9D
330
3E25
100
AcDbEntity
  8
0
 62
     0
370
    -2
100
AcDbLine
 10
1226.139332577514
 20
1262.905944365924
 30
0.0
 11
1220.798337446617
 21
1262.905944365924
 31
0.0
  0
LINE
  5
3E9E
330
3E25
100
AcDbEntity
  8
0
 62
     0
370
    -2
100
AcDbLine
 10
1220.998337446618
 20
1257.435944365924
 30
0.0
 11
1220.998337446618
 21
1262.705944365924
 31
0.0
  0
SOLID
  5
3E9F
330
3E25
100
AcDbEntity
  8
0
 62
     0
100
AcDbTrace
 10
1220.965004113284
 20
1257.435944365924
 30
0.0
 11
1221.031670779951
 21
1257.435944365924
 31
0.0
 12
1220.998337446618
 22
1257.235944365924
 32
0.0
 13
1220.998337446618
 23
1257.235944365924
 33
0.0
  0
SOLID
  5
3EA0
330
3E25
100
AcDbEntity
  8
0
 62
     0
100
AcDbTrace
 10
1220.965004113284
 20
1262.705944365924
 30
0.0
 11
1221.031670779951
 21
1262.705944365924
 31
0.0
 12
1220.998337446618
 22
1262.905944365924
 32
0.0
 13
1220.998337446618
 23
1262.905944365924
 33
0.0
  0
MTEXT
  5
3EA1
330
3E25
100
AcDbEntity
  8
0
 62
     0
100
AcDbMText
 10
1220.751487446617
 20
1260.070944365925
 30
0.0
 40
0.3937
 41
0.0
 46
0.0
 71
     5
 72
     1
  1
\A1;5.67
  7
스타일2
 11
0.0000000000000001
 21
1.0
 31
0.0
 73
     1
 44
1.0
  0
POINT
  5
3EA2
330
3E25
100
AcDbEntity
  8
Defpoints
 62
     0
100
AcDbPoint
 10
1226.239332577514
 20
1257.235944365924
 30
0.0
  0
POINT
  5
3EA3
330
3E25
100
AcDbEntity
  8
Defpoints
 62
     0
100
AcDbPoint
 10
1226.239332577514
 20
1262.905944365924
 30
0.0
  0
POINT
  5
3EA4
330
3E25
100
AcDbEntity
  8
Defpoints
 62
     0
100
AcDbPoint
 10
1220.998337446618
 20
1262.905944365924
 30
0.0
  0
ENDBLK
  5
3E30
330
3E25
100
AcDbEntity
  8
0
100
AcDbBlockEnd
  0
BLOCK
  5
3E3B
330
3E31
100
AcDbEntity
  8
0
100
AcDbBlockBegin
  2
*D118
 70
     1
 10
0.0
 20
0.0
 30
0.0
  3
*D118
  1

  0
LINE
  5
3EA5
330
3E31
100
AcDbEntity
  8
0
 62
     0
370
    -2
100
AcDbLine
 10
1218.819332577515
 20
1262.905944365924
 30
0.0
 11
1216.608139138693
 21
1262.905944365924
 31
0.0
  0
LINE
  5
3EA6
330
3E31
100
AcDbEntity
  8
0
 62
     0
370
    -2
100
AcDbLine
 10
1218.819332577515
 20
1247.655944365924
 30
0.0
 11
1216.608139138693
 21
1247.655944365924
 31
0.0
  0
LINE
  5
3EA7
330
3E31
100
AcDbEntity
  8
0
 62
     0
370
    -2
100
AcDbLine
 10
1216.808139138693
 20
1262.705944365924
 30
0.0
 11
1216.808139138693
 21
1247.855944365924
 31
0.0
  0
SOLID
  5
3EA8
330
3E31
100
AcDbEntity
  8
0
 62
     0
100
AcDbTrace
 10
1216.77480580536
 20
1262.705944365924
 30
0.0
 11
1216.841472472026
 21
1262.705944365924
 31
0.0
 12
1216.808139138693
 22
1262.905944365924
 32
0.0
 13
1216.808139138693
 23
1262.905944365924
 33
0.0
  0
SOLID
  5
3EA9
330
3E31
100
AcDbEntity
  8
0
 62
     0
100
AcDbTrace
 10
1216.77480580536
 20
1247.855944365924
 30
0.0
 11
1216.841472472026
 21
1247.855944365924
 31
0.0
 12
1216.808139138693
 22
1247.655944365924
 32
0.0
 13
1216.808139138693
 23
1247.655944365924
 33
0.0
  0
MTEXT
  5
3EAA
330
3E31
100
AcDbEntity
  8
0
 62
     0
100
AcDbMText
 10
1216.561289138693
 20
1255.280944365924
 30
0.0
 40
0.3937
 41
0.0
 46
0.0
 71
     5
 72
     1
  1
\A1;15.25
  7
스타일2
 11
0.0000000000000001
 21
1.0
 31
0.0
 73
     1
 44
1.0
  0
POINT
  5
3EAB
330
3E31
100
AcDbEntity
  8
Defpoints
 62
     0
100
AcDbPoint
 10
1218.919332577515
 20
1262.905944365924
 30
0.0
  0
POINT
  5
3EAC
330
3E31
100
AcDbEntity
  8
Defpoints
 62
     0
100
AcDbPoint
 10
1218.919332577515
 20
1247.655944365924
 30
0.0
  0
POINT
  5
3EAD
330
3E31
100
AcDbEntity
  8
Defpoints
 62
     0
100
AcDbPoint
 10
1216.808139138693
 20
1247.655944365924
 30
0.0
  0
ENDBLK
  5
3E3C
330
3E31
100
AcDbEntity
  8
0
100
AcDbBlockEnd
  0
BLOCK
  5
3E47
330
3E3D
100
AcDbEntity
  8
0
100
AcDbBlockBegin
  2
*D119
 70
     1
 10
0.0
 20
0.0
 30
0.0
  3
*D119
  1

  0
LINE
  5
3EEF
330
3E3D
100
AcDbEntity
  8
0
 62
     0
370
    -2
100
AcDbLine
 10
1192.741824962119
 20
1265.42505020215
 30
0.0
 11
1189.607589010486
 21
1265.42505020215
 31
0.0
  0
LINE
  5
3EF0
330
3E3D
100
AcDbEntity
  8
0
 62
     0
370
    -2
100
AcDbLine
 10
1192.741824962119
 20
1249.17505020215
 30
0.0
 11
1189.607589010486
 21
1249.17505020215
 31
0.0
  0
LINE
  5
3EF1
330
3E3D
100
AcDbEntity
  8
0
 62
     0
370
    -2
100
AcDbLine
 10
1189.807589010486
 20
1265.22505020215
 30
0.0
 11
1189.807589010486
 21
1249.37505020215
 31
0.0
  0
SOLID
  5
3EF2
330
3E3D
100
AcDbEntity
  8
0
 62
     0
100
AcDbTrace
 10
1189.774255677153
 20
1265.22505020215
 30
0.0
 11
1189.84092234382
 21
1265.22505020215
 31
0.0
 12
1189.807589010486
 22
1265.42505020215
 32
0.0
 13
1189.807589010486
 23
1265.42505020215
 33
0.0
  0
SOLID
  5
3EF3
330
3E3D
100
AcDbEntity
  8
0
 62
     0
100
AcDbTrace
 10
1189.774255677153
 20
1249.37505020215
 30
0.0
 11
1189.84092234382
 21
1249.37505020215
 31
0.0
 12
1189.807589010486
 22
1249.17505020215
 32
0.0
 13
1189.807589010486
 23
1249.17505020215
 33
0.0
  0
MTEXT
  5
3EF4
330
3E3D
100
AcDbEntity
  8
0
 62
     0
100
AcDbMText
 10
1189.560739010486
 20
1257.30005020215
 30
0.0
 40
0.3937
 41
0.0
 46
0.0
 71
     5
 72
     1
  1
\A1;16.25
  7
스타일2
 11
0.0000000000000001
 21
1.0
 31
0.0
 73
     1
 44
1.0
  0
POINT
  5
3EF5
330
3E3D
100
AcDbEntity
  8
Defpoints
 62
     0
100
AcDbPoint
 10
1192.841824962119
 20
1265.42505020215
 30
0.0
  0
POINT
  5
3EF6
330
3E3D
100
AcDbEntity
  8
Defpoints
 62
     0
100
AcDbPoint
 10
1192.841824962119
 20
1249.17505020215
 30
0.0
  0
POINT
  5
3EF7
330
3E3D
100
AcDbEntity
  8
Defpoints
 62
     0
100
AcDbPoint
 10
1189.807589010486
 20
1249.17505020215
 30
0.0
  0
ENDBLK
  5
3E48
330
3E3D
100
AcDbEntity
  8
0
100
AcDbBlockEnd
  0
BLOCK
  5
3E53
330
3E49
100
AcDbEntity
  8
0
100
AcDbBlockBegin
  2
*D120
 70
     1
 10
0.0
 20
0.0
 30
0.0
  3
*D120
  1

  0
LINE
  5
3EB7
330
3E49
100
AcDbEntity
  8
0
 62
     0
370
    -2
100
AcDbLine
 10
1217.639332577515
 20
1246.375944365924
 30
0.0
 11
1214.318717014284
 21
1246.375944365924
 31
0.0
  0
LINE
  5
3EB8
330
3E49
100
AcDbEntity
  8
0
 62
     0
370
    -2
100
AcDbLine
 10
1217.639332577515
 20
1264.185944365924
 30
0.0
 11
1214.318717014284
 21
1264.185944365924
 31
0.0
  0
LINE
  5
3EB9
330
3E49
100
AcDbEntity
  8
0
 62
     0
370
    -2
100
AcDbLine
 10
1214.518717014284
 20
1246.575944365924
 30
0.0
 11
1214.518717014284
 21
1263.985944365924
 31
0.0
  0
SOLID
  5
3EBA
330
3E49
100
AcDbEntity
  8
0
 62
     0
100
AcDbTrace
 10
1214.485383680951
 20
1246.575944365924
 30
0.0
 11
1214.552050347618
 21
1246.575944365924
 31
0.0
 12
1214.518717014284
 22
1246.375944365924
 32
0.0
 13
1214.518717014284
 23
1246.375944365924
 33
0.0
  0
SOLID
  5
3EBB
330
3E49
100
AcDbEntity
  8
0
 62
     0
100
AcDbTrace
 10
1214.485383680951
 20
1263.985944365924
 30
0.0
 11
1214.552050347618
 21
1263.985944365924
 31
0.0
 12
1214.518717014284
 22
1264.185944365924
 32
0.0
 13
1214.518717014284
 23
1264.185944365924
 33
0.0
  0
MTEXT
  5
3EBC
330
3E49
100
AcDbEntity
  8
0
 62
     0
100
AcDbMText
 10
1214.271867014284
 20
1255.280944365924
 30
0.0
 40
0.3937
 41
0.0
 46
0.0
 71
     5
 72
     1
  1
\A1;17.81
  7
스타일2
 11
0.0000000000000001
 21
1.0
 31
0.0
 73
     1
 44
1.0
  0
POINT
  5
3EBD
330
3E49
100
AcDbEntity
  8
Defpoints
 62
     0
100
AcDbPoint
 10
1217.739332577515
 20
1246.375944365924
 30
0.0
  0
POINT
  5
3EBE
330
3E49
100
AcDbEntity
  8
Defpoints
 62
     0
100
AcDbPoint
 10
1217.739332577515
 20
1264.185944365924
 30
0.0
  0
POINT
  5
3EBF
330
3E49
100
AcDbEntity
  8
Defpoints
 62
     0
100
AcDbPoint
 10
1214.518717014284
 20
1264.185944365924
 30
0.0
  0
ENDBLK
  5
3E54
330
3E49
100
AcDbEntity
  8
0
100
AcDbBlockEnd
  0
BLOCK
  5
3E60
330
3E55
100
AcDbEntity
  8
0
100
AcDbBlockBegin
  2
*D121
 70
     1
 10
0.0
 20
0.0
 30
0.0
  3
*D121
  1

  0
LINE
  5
3EC0
330
3E55
100
AcDbEntity
  8
0
 62
     0
370
    -2
100
AcDbLine
 10
1233.959332577514
 20
1255.180944365924
 30
0.0
 11
1233.959332577514
 21
1254.820071451189
 31
0.0
  0
LINE
  5
3EC1
330
3E55
100
AcDbEntity
  8
0
 62
     0
370
    -2
100
AcDbLine
 10
1234.739332577514
 20
1255.180944365924
 30
0.0
 11
1234.739332577514
 21
1254.820071451189
 31
0.0
  0
LINE
  5
3EC2
330
3E55
100
AcDbEntity
  8
0
 62
     0
370
    -2
100
AcDbLine
 10
1234.159332577514
 20
1255.020071451189
 30
0.0
 11
1234.539332577514
 21
1255.020071451189
 31
0.0
  0
LINE
  5
3EC3
330
3E55
100
AcDbEntity
  8
0
 62
     0
370
    -2
100
AcDbLine
 10
1234.739332577514
 20
1255.020071451189
 30
0.0
 11
1236.154815910848
 21
1255.020071451189
 31
0.0
  0
SOLID
  5
3EC4
330
3E55
100
AcDbEntity
  8
0
 62
     0
100
AcDbTrace
 10
1234.159332577514
 20
1255.053404784522
 30
0.0
 11
1234.159332577514
 21
1254.986738117856
 31
0.0
 12
1233.959332577514
 22
1255.020071451189
 32
0.0
 13
1233.959332577514
 23
1255.020071451189
 33
0.0
  0
SOLID
  5
3EC5
330
3E55
100
AcDbEntity
  8
0
 62
     0
100
AcDbTrace
 10
1234.539332577514
 20
1255.053404784522
 30
0.0
 11
1234.539332577514
 21
1254.986738117856
 31
0.0
 12
1234.739332577514
 22
1255.020071451189
 32
0.0
 13
1234.739332577514
 23
1255.020071451189
 33
0.0
  0
MTEXT
  5
3EC6
330
3E55
100
AcDbEntity
  8
0
 62
     0
100
AcDbMText
 10
1235.547074244181
 20
1255.266921451189
 30
0.0
 40
0.3937
 41
0.0
 46
0.0
 71
     5
 72
     1
  1
\A1;0.78
  7
스타일2
 73
     1
 44
1.0
  0
POINT
  5
3EC7
330
3E55
100
AcDbEntity
  8
Defpoints
 62
     0
100
AcDbPoint
 10
1233.959332577514
 20
1255.280944365924
 30
0.0
  0
POINT
  5
3EC8
330
3E55
100
AcDbEntity
  8
Defpoints
 62
     0
100
AcDbPoint
 10
1234.739332577514
 20
1255.280944365924
 30
0.0
  0
POINT
  5
3EC9
330
3E55
100
AcDbEntity
  8
Defpoints
 62
     0
100
AcDbPoint
 10
1234.739332577514
 20
1255.020071451189
 30
0.0
  0
ENDBLK
  5
3E61
330
3E55
100
AcDbEntity
  8
0
100
AcDbBlockEnd
  0
BLOCK
  5
3E69
330
3E62
100
AcDbEntity
  8
0
100
AcDbBlockBegin
  2
*D122
 70
     1
 10
0.0
 20
0.0
 30
0.0
  3
*D122
  1

  0
LINE
  5
3ECA
330
3E62
100
AcDbEntity
  8
0
 62
     0
370
    -2
100
AcDbLine
 10
1233.050603883867
 20
1250.006166964297
 30
0.0
 11
1233.407886415127
 21
1248.636516549118
 31
0.0
  0
MTEXT
  5
3ECB
330
3E62
100
AcDbEntity
  8
0
 62
     0
100
AcDbMText
 10
1233.442861194801
 20
1249.480411262549
 30
0.0
 40
0.3937
 41
0.0
 46
0.0
 71
     5
 72
     1
  1
\A1;R0.4
  7
스타일2
 11
0.252410270644622
 21
-0.967620305322862
 31
0.0
 73
     1
 44
1.0
  0
LINE
  5
3ECC
330
3E62
100
AcDbEntity
  8
0
 62
     0
370
    -2
100
AcDbLine
 10
1233.559332577513
 20
1248.055944365925
 30
0.0
 11
1233.458368469256
 21
1248.442992488053
 31
0.0
  0
SOLID
  5
3ECD
330
3E62
100
AcDbEntity
  8
0
 62
     0
100
AcDbTrace
 10
1233.440140425304
 20
1248.644930224806
 30
0.0
 11
1233.375632404949
 21
1248.62810287343
 31
0.0
 12
1233.458368469256
 22
1248.442992488053
 32
0.0
 13
1233.458368469256
 23
1248.442992488053
 33
0.0
  0
POINT
  5
3ECE
330
3E62
100
AcDbEntity
  8
Defpoints
 62
     0
100
AcDbPoint
 10
1233.458368469256
 20
1248.442992488053
 30
0.0
  0
POINT
  5
3ECF
330
3E62
100
AcDbEntity
  8
Defpoints
 62
     0
100
AcDbPoint
 10
1233.559332577513
 20
1248.055944365925
 30
0.0
  0
ENDBLK
  5
3E6A
330
3E62
100
AcDbEntity
  8
0
100
AcDbBlockEnd
  0
BLOCK
  5
3E72
330
3E6B
100
AcDbEntity
  8
0
100
AcDbBlockBegin
  2
*D123
 70
     1
 10
0.0
 20
0.0
 30
0.0
  3
*D123
  1

  0
LINE
  5
3EF8
330
3E6B
100
AcDbEntity
  8
0
 62
     0
370
    -2
100
AcDbLine
 10
1205.469640212358
 20
1250.512455634263
 30
0.0
 11
1206.937948007517
 21
1249.828423164899
 31
0.0
  0
MTEXT
  5
3EF9
330
3E6B
100
AcDbEntity
  8
0
 62
     0
100
AcDbMText
 10
1206.124776550202
 20
1250.47957350022
 30
0.0
 40
0.3937
 41
0.0
 46
0.0
 71
     5
 72
     1
  1
\A1;R0.4
  7
스타일2
 11
0.9064615910044055
 21
-0.4222882712481631
 31
0.0
 73
     1
 44
1.0
  0
LINE
  5
3EFA
330
3E6B
100
AcDbEntity
  8
0
 62
     0
370
    -2
100
AcDbLine
 10
1207.481824962119
 20
1249.57505020215
 30
0.0
 11
1207.119240325718
 21
1249.743965510649
 31
0.0
  0
SOLID
  5
3EFB
330
3E6B
100
AcDbEntity
  8
0
 62
     0
100
AcDbTrace
 10
1206.952024283225
 20
1249.858638551266
 30
0.0
 11
1206.923871731809
 21
1249.798207778532
 31
0.0
 12
1207.119240325718
 22
1249.743965510649
 32
0.0
 13
1207.119240325718
 23
1249.743965510649
 33
0.0
  0
POINT
  5
3EFC
330
3E6B
100
AcDbEntity
  8
Defpoints
 62
     0
100
AcDbPoint
 10
1207.119240325718
 20
1249.743965510649
 30
0.0
  0
POINT
  5
3EFD
330
3E6B
100
AcDbEntity
  8
Defpoints
 62
     0
100
AcDbPoint
 10
1207.481824962119
 20
1249.57505020215
 30
0.0
  0
ENDBLK
  5
3E73
330
3E6B
100
AcDbEntity
  8
0
100
AcDbBlockEnd
  0
BLOCK
  5
3E7D
330
3E74
100
AcDbEntity
  8
0
100
AcDbBlockBegin
  2
*D124
 70
     1
 10
0.0
 20
0.0
 30
0.0
  3
*D124
  1

  0
LINE
  5
3ED6
330
3E74
100
AcDbEntity
  8
0
 62
     0
370
    -2
100
AcDbLine
 10
1220.424679057239
 20
1253.684894817748
 30
0.0
 11
1224.152683381527
 21
1255.961613116646
 31
0.0
  0
LINE
  5
3ED7
330
3E74
100
AcDbEntity
  8
0
 62
     0
370
    -2
100
AcDbLine
 10
1228.325981773501
 20
1258.510275615203
 30
0.0
 11
1228.496668824297
 21
1258.614515390195
 31
0.0
  0
MTEXT
  5
3ED8
330
3E74
100
AcDbEntity
  8
0
 62
     0
100
AcDbMText
 10
1222.057580085278
 20
1255.009804360438
 30
0.0
 40
0.3937
 41
0.0
 46
0.0
 71
     5
 72
     1
  1
\A1;\U+22,054.49
  7
스타일2
 11
0.8534352539823949
 21
0.5211988749604176
 31
0.0
 73
     1
 44
1.0
  0
LINE
  5
3ED9
330
3E74
100
AcDbEntity
  8
0
 62
     0
370
    -2
100
AcDbLine
 10
1228.155294722704
 20
1258.40603584021
 30
0.0
 11
1224.323370432323
 21
1256.065852891638
 31
0.0
  0
SOLID
  5
3EDA
330
3E74
100
AcDbEntity
  8
0
 62
     0
100
AcDbTrace
 10
1228.308608477669
 20
1258.538723457002
 30
0.0
 11
1228.343355069333
 21
1258.481827773403
 31
0.0
 12
1228.155294722704
 22
1258.40603584021
 32
0.0
 13
1228.155294722704
 23
1258.40603584021
 33
0.0
  0
SOLID
  5
3EDB
330
3E74
100
AcDbEntity
  8
0
 62
     0
100
AcDbTrace
 10
1224.135310085695
 20
1255.990060958446
 30
0.0
 11
1224.170056677359
 21
1255.933165274847
 31
0.0
 12
1224.323370432323
 22
1256.065852891638
 32
0.0
 13
1224.323370432323
 23
1256.065852891638
 33
0.0
  0
POINT
  5
3EDC
330
3E74
100
AcDbEntity
  8
Defpoints
 62
     0
100
AcDbPoint
 10
1224.323370432323
 20
1256.065852891638
 30
0.0
  0
POINT
  5
3EDD
330
3E74
100
AcDbEntity
  8
Defpoints
 62
     0
100
AcDbPoint
 10
1228.155294722704
 20
1258.40603584021
 30
0.0
  0
ENDBLK
  5
3E7E
330
3E74
100
AcDbEntity
  8
0
100
AcDbBlockEnd
  0
BLOCK
  5
3E88
330
3E7F
100
AcDbEntity
  8
0
100
AcDbBlockBegin
  2
*D125
 70
     1
 10
0.0
 20
0.0
 30
0.0
  3
*D125
  1

  0
LINE
  5
3EDE
330
3E7F
100
AcDbEntity
  8
0
 62
     0
370
    -2
100
AcDbLine
 10
1231.849839700469
 20
1254.276414176118
 30
0.0
 11
1227.986194309623
 21
1256.314478637374
 31
0.0
  0
LINE
  5
3EDF
330
3E7F
100
AcDbEntity
  8
0
 62
     0
370
    -2
100
AcDbLine
 10
1224.492470845405
 20
1258.157410094475
 30
0.0
 11
1224.315573454812
 21
1258.250723079644
 31
0.0
  0
MTEXT
  5
3EE0
330
3E7F
100
AcDbEntity
  8
0
 62
     0
100
AcDbMText
 10
1230.136944469897
 20
1255.496144061283
 30
0.0
 40
0.3937
 41
0.0
 46
0.0
 71
     5
 72
     1
  1
\A1;\U+22,053.55
  7
스타일2
 11
0.8844869529665007
 21
-0.4665649258485204
 31
0.0
 73
     1
 44
1.0
  0
LINE
  5
3EE1
330
3E7F
100
AcDbEntity
  8
0
 62
     0
370
    -2
100
AcDbLine
 10
1224.669368235998
 20
1258.064097109305
 30
0.0
 11
1227.809296919029
 21
1256.407791622543
 31
0.0
  0
SOLID
  5
3EE2
330
3E7F
100
AcDbEntity
  8
0
 62
     0
100
AcDbTrace
 10
1224.5080230096
 20
1258.186892992907
 30
0.0
 11
1224.47691868121
 21
1258.127927196043
 31
0.0
 12
1224.669368235998
 22
1258.064097109305
 32
0.0
 13
1224.669368235998
 23
1258.064097109305
 33
0.0
  0
SOLID
  5
3EE3
330
3E7F
100
AcDbEntity
  8
0
 62
     0
100
AcDbTrace
 10
1228.001746473817
 20
1256.343961535806
 30
0.0
 11
1227.970642145428
 21
1256.284995738941
 31
0.0
 12
1227.809296919029
 22
1256.407791622543
 32
0.0
 13
1227.809296919029
 23
1256.407791622543
 33
0.0
  0
POINT
  5
3EE4
330
3E7F
100
AcDbEntity
  8
Defpoints
 62
     0
100
AcDbPoint
 10
1227.809296919029
 20
1256.407791622543
 30
0.0
  0
POINT
  5
3EE5
330
3E7F
100
AcDbEntity
  8
Defpoints
 62
     0
100
AcDbPoint
 10
1224.669368235998
 20
1258.064097109305
 30
0.0
  0
ENDBLK
  5
3E89
330
3E7F
100
AcDbEntity
  8
0
100
AcDbBlockEnd
  0
ENDSEC
  0
SECTION
  2
ENTITIES
  0
POINT
  5
37C
330
2
100
AcDbEntity
  8
0
 60
     1
100
AcDbPoint
 10
170.4737662487822
 20
-90.83440570086338
 30
0.0
1001
GENIUS_GENOBJ-N-TIT_13
1002
{
1000
OWNER
1000
GEN
1002
}
1001
GENIUS_GENOENT_13
1002
{
1000
MYREF
1005
37C
1002
}
1002
{
1000
GRP
1005
0
1002
}
1001
GENIUS_GENOLIS_13
1002
{
1000
ENT
1005
0
1005
0
1002
}
1001
GENIUS_GENTITLE_13
1002
{
1000
SCALE
1000
1:1
1002
}
1002
{
1000
BORDER
1000
GEN_A1
1002
}
1002
{
1000
TITLE
1000
GENTITLE
1002
}
1002
{
1000
UNCHG
1002
{
1000
GEN-TITLE-SCA
1000
GEN-TITLE-SIZ
1002
}
1002
}
1002
{
1000
HRA
1005
0
1002
}
1002
{
1000
HTIT
1005
0
1002
}
1002
{
1000
GENIUSID
1005
37C
1002
}
1001
GENIUS_GENODEF_13
1002
{
1000
HIER
1070
     1
1002
}
1002
{
1000
MANEDIT
1070
     0
1002
}
1002
{
1000
NOSEL
1070
     0
1002
}
1002
{
1000
BEHIND
1070
     0
1002
}
1002
{
1000
REACTOR
1002
}
  0
TEXT
  5
384
330
2
100
AcDbEntity
  8
0
 60
     1
100
AcDbText
 10
830.9999999999996
 20
-52.92726755347096
 30
0.0
 40
3.5
  1
!GENTITLE-INSERT
100
AcDbText
  0
TEXT
  5
385
330
2
100
AcDbEntity
  8
0
 60
     1
100
AcDbText
 10
10.0
 20
-47.92726755347096
 30
0.0
 40
3.5
  1
!GENTITLE-LL
100
AcDbText
  0
TEXT
  5
386
330
2
100
AcDbEntity
  8
0
 60
     1
100
AcDbText
 10
831.0
 20
526.072732446529
 30
0.0
 40
3.5
  1
!GENTITLE-RU
100
AcDbText
  0
TEXT
  5
387
330
2
100
AcDbEntity
  8
0
 60
     1
100
AcDbText
 10
841.0
 20
536.0727324465289
 30
0.0
 40
3.5
  1
!GENTITLE-MAX
100
AcDbText
  0
TEXT
  5
3FA
330
2
100
AcDbEntity
  8
0
 60
     1
100
AcDbText
 10
684.8812705983662
 20
141.8068575944205
 30
0.0
 40
3.5
  1
!GENTITLE-INSERT
100
AcDbText
  0
TEXT
  5
3FB
330
2
100
AcDbEntity
  8
0
 60
     1
100
AcDbText
 10
-136.1187294016335
 20
146.8068575944205
 30
0.0
 40
3.5
  1
!GENTITLE-LL
100
AcDbText
  0
TEXT
  5
3FC
330
2
100
AcDbEntity
  8
0
 60
     1
100
AcDbText
 10
684.8812705983664
 20
720.8068575944203
 30
0.0
 40
3.5
  1
!GENTITLE-RU
100
AcDbText
  0
TEXT
  5
3FD
330
2
100
AcDbEntity
  8
0
 60
     1
100
AcDbText
 10
694.8812705983664
 20
730.8068575944203
 30
0.0
 40
3.5
  1
!GENTITLE-MAX
100
AcDbText
  0
MTEXT
  5
3690
330
2
100
AcDbEntity
  8
0
100
AcDbMText
 10
1192.986420889044
 20
1257.94102054589
 30
0.0
 40
0.3937
 41
14.93397349915023
 46
0.0
 71
     1
 72
     5
  3
{\fTimes New Roman|b0|i0|c0|p18;\H1.27x;Model : REN-16-1516B    \H0.58x;IMPORTANT ! \PThis template is provided as a guide for Undermount cutout only. \PBefore beginning to cut countertop, compare physical dimension of the template and the cutout lin
  1
e with the actual sink unit for an accurate cut.\PHamatUSA is not responsible for any countertop, installation or labor charges due to failure to follow these instructions.\P\Lwww.Hamatusa.com }
  7
스타일2
 73
     1
 44
1.0
  0
LINE
  5
3DEB
330
2
100
AcDbEntity
  8
0
100
AcDbLine
 10
1192.841824962118
 20
1249.17505020215
 30
0.0
 11
1207.481824962119
 21
1249.17505020215
 31
0.0
  0
LINE
  5
3DEE
330
2
100
AcDbEntity
  8
0
100
AcDbLine
 10
1207.881824962119
 20
1249.57505020215
 30
0.0
 11
1207.881824962119
 21
1265.02505020215
 31
0.0
  0
ARC
  5
3DEF
330
2
100
AcDbEntity
  8
0
100
AcDbCircle
 10
1207.481824962119
 20
1249.57505020215
 30
0.0
 40
0.4
100
AcDbArc
 50
270.0
 51
0.0
  0
ARC
  5
3DF0
330
2
100
AcDbEntity
  8
0
100
AcDbCircle
 10
1207.481824962119
 20
1265.02505020215
 30
0.0
 40
0.4
100
AcDbArc
 50
0.0
 51
90.0
  0
LINE
  5
3DF4
330
2
100
AcDbEntity
  8
0
100
AcDbLine
 10
1207.481824962119
 20
1265.42505020215
 30
0.0
 11
1192.841824962119
 21
1265.42505020215
 31
0.0
  0
ARC
  5
3DF5
330
2
100
AcDbEntity
  8
0
100
AcDbCircle
 10
1192.841824962119
 20
1265.02505020215
 30
0.0
 40
0.4
100
AcDbArc
 50
90.0
 51
180.0
  0
LINE
  5
3DF8
330
2
100
AcDbEntity
  8
0
100
AcDbLine
 10
1192.441824962118
 20
1265.02505020215
 30
0.0
 11
1192.441824962118
 21
1249.57505020215
 31
0.0
  0
ARC
  5
3DF9
330
2
100
AcDbEntity
  8
0
100
AcDbCircle
 10
1192.841824962118
 20
1249.57505020215
 30
0.0
 40
0.4
100
AcDbArc
 50
180.0
 51
270.0
  0
DIMENSION
  5
3E02
330
2
100
AcDbEntity
  8
0
100
AcDbDimension
  2
*D115
 10
1207.881824962119
 20
1247.211073828802
 30
0.0
 11
1200.161824962119
 21
1247.457923828801
 31
0.0
 70
    32
 71
     5
 42
15.44000000000096
 73
     0
 74
     0
 75
     0
  3
DIN
100
AcDbAlignedDimension
 13
1192.441824962118
 23
1249.57505020215
 33
0.0
 14
1207.881824962119
 24
1249.57505020215
 34
0.0
100
AcDbRotatedDimension
1001
ACAD
1000
DSTYLE
1002
{
1070
    41
1040
0.2
1070
    42
1040
0.1
1070
    43
1040
0.039
1070
    44
1040
0.2
1070
    50
1040
1.570796326794896
1070
    73
1070
     0
1070
   141
1040
0.039
1070
   147
1040
0.05
1070
   340
1005
B97
1002
}
  0
DIMENSION
  5
3E06
330
2
100
AcDbEntity
  8
0
100
AcDbDimension
  2
*D119
 10
1189.807589010486
 20
1249.17505020215
 30
0.0
 11
1189.560739010486
 21
1257.30005020215
 31
0.0
 70
    32
 71
     5
 42
16.25
 73
     0
 74
     0
 75
     0
  3
DIN
100
AcDbAlignedDimension
 13
1192.841824962119
 23
1265.42505020215
 33
0.0
 14
1192.841824962119
 24
1249.17505020215
 34
0.0
 50
90.0
100
AcDbRotatedDimension
1001
ACAD
1000
DSTYLE
1002
{
1070
    41
1040
0.2
1070
    42
1040
0.1
1070
    43
1040
0.039
1070
    44
1040
0.2
1070
    50
1040
1.570796326794896
1070
    73
1070
     0
1070
   141
1040
0.039
1070
   147
1040
0.05
1070
   340
1005
B97
1002
}
  0
DIMENSION
  5
3E0A
330
2
100
AcDbEntity
  8
0
100
AcDbDimension
  2
*D123
 10
1207.481824962119
 20
1249.57505020215
 30
0.0
 11
1206.020534690444
 21
1250.25581345648
 31
0.0
 70
   164
 71
     5
 42
0.3999999999991814
 73
     0
 74
     0
 75
     0
  3
DIN
100
AcDbRadialDimension
 15
1207.119240325718
 25
1249.743965510649
 35
0.0
 40
0.0
1001
ACAD
1000
DSTYLE
1002
{
1070
    41
1040
0.2
1070
    42
1040
0.1
1070
    43
1040
0.039
1070
    44
1040
0.2
1070
    50
1040
1.570796326794896
1070
    73
1070
     0
1070
   141
1040
0.039
1070
   147
1040
0.05
1070
   288
1070
     1
1070
   340
1005
B97
1002
}
1001
ACAD_DSTYLE_DIMRADIAL_EXTENSION
1070
   387
1070
     1
1070
   388
1040
4.712388980384688
1070
   390
1040
0.0000000000000286
  0
VIEWPORT
  5
74
330
C
100
AcDbEntity
 67
     1
  8
0
100
AcDbViewport
 10
490.633788896909
 20
297.0009369707932
 30
0.0
 40
1115.370256166983
 41
599.3755656108596
 68
     1
 69
     1
 12
490.633788896909
 22
297.0009369707932
 13
0.0
 23
0.0
 14
10.0
 24
10.0
 15
10.0
 25
10.0
 16
0.0
 26
0.0
 36
1.0
 17
0.0
 27
0.0
 37
0.0
 42
50.0
 43
0.0
 44
0.0
 45
599.3755656108596
 50
0.0
 51
0.0
 72
  1000
 90
    32800
  1

281
     0
 71
     1
 74
     0
110
0.0
120
0.0
130
0.0
111
1.0
121
0.0
131
0.0
112
0.0
122
1.0
132
0.0
 79
     0
146
0.0
170
     0
 61
     5
348
317C
292
     1
282
     1
141
0.0
142
0.0
 63
   250
421
  3355443
  0
ENDSEC
  0
SECTION
  2
OBJECTS
  0
DICTIONARY
  5
7
330
0
100
AcDbDictionary
281
     1
  3
ACAD_COLOR
350
5A3
  3
ACAD_GROUP
350
20
  3
ACAD_LAYOUT
350
B
  3
ACAD_MATERIAL
350
5A2
  3
ACAD_MLEADERSTYLE
350
319C
  3
ACAD_MLINESTYLE
350
21
  3
ACAD_PLOTSETTINGS
350
22
  3
ACAD_PLOTSTYLENAME
350
6
  3
ACAD_SCALELIST
350
318A
  3
ACAD_TABLESTYLE
350
5C3
  3
ACAD_VISUALSTYLE
350
3176
  3
ACDB_RECOMPOSE_DATA
350
329C
  3
AcDbVariableDictionary
350
81
  0
DICTIONARY
  5
1CC0
330
10
100
AcDbDictionary
280
     1
281
     1
  3
ACAD_LAYERSTATES
360
1CC1
  0
DICTIONARY
  5
323C
330
4
100
AcDbDictionary
280
     1
281
     1
  3
ADSK_XREC_LAYER_RECONCILED
360
323D
  0
DICTIONARY
  5
323E
330
8E
100
AcDbDictionary
280
     1
281
     1
  3
ADSK_XREC_LAYER_RECONCILED
360
323F
  0
DICTIONARY
  5
3240
330
8F
100
AcDbDictionary
280
     1
281
     1
  3
ADSK_XREC_LAYER_RECONCILED
360
3241
  0
DICTIONARY
  5
3242
330
90
100
AcDbDictionary
280
     1
281
     1
  3
ADSK_XREC_LAYER_RECONCILED
360
3243
  0
DICTIONARY
  5
3244
330
91
100
AcDbDictionary
280
     1
281
     1
  3
ADSK_XREC_LAYER_RECONCILED
360
3245
  0
DICTIONARY
  5
3246
330
62B
100
AcDbDictionary
280
     1
281
     1
  3
ADSK_XREC_LAYER_RECONCILED
360
3247
  0
DICTIONARY
  5
3248
330
62C
100
AcDbDictionary
280
     1
281
     1
  3
ADSK_XREC_LAYER_RECONCILED
360
3249
  0
DICTIONARY
  5
324A
330
1812
100
AcDbDictionary
280
     1
281
     1
  3
ADSK_XREC_LAYER_RECONCILED
360
324B
  0
DICTIONARY
  5
324C
330
26BA
100
AcDbDictionary
280
     1
281
     1
  3
ADSK_XREC_LAYER_RECONCILED
360
324D
  0
DICTIONARY
  5
324E
330
26BB
100
AcDbDictionary
280
     1
281
     1
  3
ADSK_XREC_LAYER_RECONCILED
360
324F
  0
DICTIONARY
  5
3250
330
26BC
100
AcDbDictionary
280
     1
281
     1
  3
ADSK_XREC_LAYER_RECONCILED
360
3251
  0
DICTIONARY
  5
3252
330
26BD
100
AcDbDictionary
280
     1
281
     1
  3
ADSK_XREC_LAYER_RECONCILED
360
3253
  0
DICTIONARY
  5
3254
330
26BE
100
AcDbDictionary
280
     1
281
     1
  3
ADSK_XREC_LAYER_RECONCILED
360
3255
  0
DICTIONARY
  5
3256
330
2762
100
AcDbDictionary
280
     1
281
     1
  3
ADSK_XREC_LAYER_RECONCILED
360
3257
  0
DICTIONARY
  5
3258
330
2763
100
AcDbDictionary
280
     1
281
     1
  3
ADSK_XREC_LAYER_RECONCILED
360
3259
  0
DICTIONARY
  5
325A
330
2764
100
AcDbDictionary
280
     1
281
     1
  3
ADSK_XREC_LAYER_RECONCILED
360
325B
  0
DICTIONARY
  5
325C
330
29AA
100
AcDbDictionary
280
     1
281
     1
  3
ADSK_XREC_LAYER_RECONCILED
360
325D
  0
DICTIONARY
  5
325E
330
29AB
100
AcDbDictionary
280
     1
281
     1
  3
ADSK_XREC_LAYER_RECONCILED
360
325F
  0
DICTIONARY
  5
3260
330
2A31
100
AcDbDictionary
280
     1
281
     1
  3
ADSK_XREC_LAYER_RECONCILED
360
3261
  0
DICTIONARY
  5
3262
330
2A32
100
AcDbDictionary
280
     1
281
     1
  3
ADSK_XREC_LAYER_RECONCILED
360
3263
  0
DICTIONARY
  5
3264
330
2AD2
100
AcDbDictionary
280
     1
281
     1
  3
ADSK_XREC_LAYER_RECONCILED
360
3265
  0
DICTIONARY
  5
3266
330
2DCD
100
AcDbDictionary
280
     1
281
     1
  3
ADSK_XREC_LAYER_RECONCILED
360
3267
  0
DICTIONARY
  5
3268
330
2DCE
100
AcDbDictionary
280
     1
281
     1
  3
ADSK_XREC_LAYER_RECONCILED
360
3269
  0
DICTIONARY
  5
95E
330
2
100
AcDbDictionary
280
     1
281
     1
  3
ACAD_SORTENTS
360
95F
  0
DICTIONARY
  5
31AA
330
31A1
100
AcDbDictionary
280
     1
281
     1
  3
ACAD_SORTENTS
360
31AB
  0
DICTIONARY
  5
35F0
330
35EE
100
AcDbDictionary
280
     1
281
     1
  3
ACAD_SORTENTS
360
35F1
  0
DICTIONARY
  5
5A3
102
{ACAD_REACTORS
330
7
102
}
330
7
100
AcDbDictionary
281
     1
  0
DICTIONARY
  5
20
102
{ACAD_REACTORS
330
7
102
}
330
7
100
AcDbDictionary
281
     1
  0
DICTIONARY
  5
B
102
{ACAD_REACTORS
330
7
102
}
330
7
100
AcDbDictionary
281
     1
  3
DIN A1 Title Block
350
F
  3
Model
350
A
  0
DICTIONARY
  5
5A2
102
{ACAD_REACTORS
330
7
102
}
330
7
100
AcDbDictionary
281
     1
  3
ByBlock
350
3166
  3
ByLayer
350
315E
  3
Global
350
316E
  0
DICTIONARY
  5
319C
102
{ACAD_REACTORS
330
7
102
}
330
7
100
AcDbDictionary
281
     1
  3
Standard
350
319D
  0
DICTIONARY
  5
21
102
{ACAD_REACTORS
330
7
102
}
330
7
100
AcDbDictionary
281
     1
  3
Standard
350
23
  0
DICTIONARY
  5
22
102
{ACAD_REACTORS
330
7
102
}
330
7
100
AcDbDictionary
281
     1
  0
ACDBDICTIONARYWDFLT
  5
6
102
{ACAD_REACTORS
330
7
102
}
330
7
100
AcDbDictionary
281
     1
  3
Normal
350
5
100
AcDbDictionaryWithDefault
340
5
  0
DICTIONARY
  5
318A
102
{ACAD_REACTORS
330
7
102
}
330
7
100
AcDbDictionary
281
     1
  3
A0
350
318B
  3
A1
350
318C
  3
A2
350
318D
  3
A3
350
318E
  3
A4
350
318F
  3
A5
350
3190
  3
A6
350
3191
  3
A7
350
3192
  3
A8
350
3193
  3
A9
350
3194
  3
B0
350
3195
  3
B1
350
3196
  3
B2
350
3197
  3
B3
350
3198
  3
B4
350
3199
  3
B5
350
319A
  3
B6
350
319B
  0
DICTIONARY
  5
5C3
102
{ACAD_REACTORS
330
7
102
}
330
7
100
AcDbDictionary
281
     1
  3
Standard
350
5C4
  0
DICTIONARY
  5
3176
102
{ACAD_REACTORS
330
7
102
}
330
7
100
AcDbDictionary
281
     1
  3
2dWireframe
350
317C
  3
3D Hidden
350
317E
  3
3dWireframe
350
317D
  3
Basic
350
317B
  3
Brighten
350
3182
  3
ColorChange
350
3186
  3
Conceptual
350
317F
  3
Dim
350
3181
  3
EdgeColorOff
350
3189
  3
Facepattern
350
3185
  3
Flat
350
3177
  3
FlatWithEdges
350
3178
  3
Gouraud
350
3179
  3
GouraudWithEdges
350
317A
  3
JitterOff
350
3187
  3
Linepattern
350
3184
  3
OverhangOff
350
3188
  3
Realistic
350
3180
  3
Thicken
350
3183
  3
Wireframe
350
39BF
  0
XRECORD
  5
329C
102
{ACAD_REACTORS
330
7
102
}
330
7
100
AcDbXrecord
280
     1
 90
        1
330
5C4
  0
DICTIONARY
  5
81
102
{ACAD_REACTORS
330
7
102
}
330
7
100
AcDbDictionary
281
     1
  3
CANNOSCALE
350
326B
  3
CMLEADERSTYLE
350
326A
  3
CTABLESTYLE
350
5EE
  3
DIMASSOC
350
82
  3
PROJECTNAME
350
3137
  0
DICTIONARY
  5
1CC1
102
{ACAD_REACTORS
330
1CC0
102
}
330
1CC0
100
AcDbDictionary
281
     1
  0
XRECORD
  5
323D
102
{ACAD_REACTORS
330
323C
102
}
330
323C
100
AcDbXrecord
280
     1
290
     1
  0
XRECORD
  5
323F
102
{ACAD_REACTORS
330
323E
102
}
330
323E
100
AcDbXrecord
280
     1
290
     1
  0
XRECORD
  5
3241
102
{ACAD_REACTORS
330
3240
102
}
330
3240
100
AcDbXrecord
280
     1
290
     1
  0
XRECORD
  5
3243
102
{ACAD_REACTORS
330
3242
102
}
330
3242
100
AcDbXrecord
280
     1
290
     1
  0
XRECORD
  5
3245
102
{ACAD_REACTORS
330
3244
102
}
330
3244
100
AcDbXrecord
280
     1
290
     1
  0
XRECORD
  5
3247
102
{ACAD_REACTORS
330
3246
102
}
330
3246
100
AcDbXrecord
280
     1
290
     1
  0
XRECORD
  5
3249
102
{ACAD_REACTORS
330
3248
102
}
330
3248
100
AcDbXrecord
280
     1
290
     1
  0
XRECORD
  5
324B
102
{ACAD_REACTORS
330
324A
102
}
330
324A
100
AcDbXrecord
280
     1
290
     1
  0
XRECORD
  5
324D
102
{ACAD_REACTORS
330
324C
102
}
330
324C
100
AcDbXrecord
280
     1
290
     1
  0
XRECORD
  5
324F
102
{ACAD_REACTORS
330
324E
102
}
330
324E
100
AcDbXrecord
280
     1
290
     1
  0
XRECORD
  5
3251
102
{ACAD_REACTORS
330
3250
102
}
330
3250
100
AcDbXrecord
280
     1
290
     1
  0
XRECORD
  5
3253
102
{ACAD_REACTORS
330
3252
102
}
330
3252
100
AcDbXrecord
280
     1
290
     1
  0
XRECORD
  5
3255
102
{ACAD_REACTORS
330
3254
102
}
330
3254
100
AcDbXrecord
280
     1
290
     1
  0
XRECORD
  5
3257
102
{ACAD_REACTORS
330
3256
102
}
330
3256
100
AcDbXrecord
280
     1
290
     1
  0
XRECORD
  5
3259
102
{ACAD_REACTORS
330
3258
102
}
330
3258
100
AcDbXrecord
280
     1
290
     1
  0
XRECORD
  5
325B
102
{ACAD_REACTORS
330
325A
102
}
330
325A
100
AcDbXrecord
280
     1
290
     1
  0
XRECORD
  5
325D
102
{ACAD_REACTORS
330
325C
102
}
330
325C
100
AcDbXrecord
280
     1
290
     1
  0
XRECORD
  5
325F
102
{ACAD_REACTORS
330
325E
102
}
330
325E
100
AcDbXrecord
280
     1
290
     1
  0
XRECORD
  5
3261
102
{ACAD_REACTORS
330
3260
102
}
330
3260
100
AcDbXrecord
280
     1
290
     1
  0
XRECORD
  5
3263
102
{ACAD_REACTORS
330
3262
102
}
330
3262
100
AcDbXrecord
280
     1
290
     1
  0
XRECORD
  5
3265
102
{ACAD_REACTORS
330
3264
102
}
330
3264
100
AcDbXrecord
280
     1
290
     1
  0
XRECORD
  5
3267
102
{ACAD_REACTORS
330
3266
102
}
330
3266
100
AcDbXrecord
280
     1
290
     1
  0
XRECORD
  5
3269
102
{ACAD_REACTORS
330
3268
102
}
330
3268
100
AcDbXrecord
280
     1
290
     1
  0
SORTENTSTABLE
  5
95F
102
{ACAD_REACTORS
330
95E
102
}
330
95E
100
AcDbSortentsTable
330
2
331
387
  5
387
331
385
  5
385
331
3FC
  5
3FC
331
3FA
  5
3FA
331
386
  5
386
331
384
  5
384
331
3FD
  5
3FD
331
37C
  5
37C
331
3FB
  5
3FB
  0
SORTENTSTABLE
  5
31AB
102
{ACAD_REACTORS
330
31AA
102
}
330
31AA
100
AcDbSortentsTable
330
31A1
  0
SORTENTSTABLE
  5
35F1
102
{ACAD_REACTORS
330
35F0
102
}
330
35F0
100
AcDbSortentsTable
330
35EE
  0
LAYOUT
  5
F
102
{ACAD_REACTORS
330
B
102
}
330
B
100
AcDbPlotSettings
  1

  2
none_device
  4
ISO_A1_(841.00_x_594.00_MM)
  6

 40
7.549999999999998
 41
20.05
 42
7.549999999999998
 43
20.05
 44
841.0
 45
594.0
 46
-7.57
 47
-20.06
 48
0.0
 49
0.0
140
0.0
141
0.0
142
1.0
143
1.0
 70
   688
 72
     1
 73
     0
 74
     5
  7

 75
    16
147
1.0
 76
     0
 77
     2
 78
   300
148
0.0128164049386896
149
0.0090630292066862
100
AcDbLayout
  1
DIN A1 Title Block
 70
     1
 71
     1
 10
0.0071835950613108
 20
0.0009369707933118
 11
841.0071835950612
 21
594.0009369707931
 12
0.0
 22
0.0
 32
0.0
 14
1.000000000000000E+20
 24
1.000000000000000E+20
 34
1.000000000000000E+20
 15
-1.000000000000000E+20
 25
-1.000000000000000E+20
 35
-1.000000000000000E+20
146
0.0
 13
0.0
 23
0.0
 33
0.0
 16
1.0
 26
0.0
 36
0.0
 17
0.0
 27
1.0
 37
0.0
 76
     0
330
C
331
74
  0
LAYOUT
  5
A
102
{ACAD_REACTORS
330
B
102
}
330
B
100
AcDbPlotSettings
  1

  2
none_device
  4
ISO_A4_(297.00_x_210.00_MM)
  6

 40
7.5
 41
20.0
 42
7.5
 43
20.0
 44
297.0
 45
210.0
 46
0.0
 47
0.0
 48
969.1120635225747
 49
1410.089773188028
140
997.7071895623687
141
1431.243016253039
142
1.0
143
20.0
 70
 11952
 72
     1
 73
     0
 74
     4
  7

 75
    22
147
0.05
 76
     0
 77
     2
 78
   300
148
-969.1120635225747
149
-1410.089773188028
100
AcDbLayout
  1
Model
 70
     1
 71
     0
 10
0.0
 20
0.0
 11
12.0
 21
9.0
 12
0.0
 22
0.0
 32
0.0
 14
0.0
 24
0.0
 34
0.0
 15
0.0
 25
0.0
 35
0.0
146
0.0
 13
0.0
 23
0.0
 33
0.0
 16
1.0
 26
0.0
 36
0.0
 17
0.0
 27
1.0
 37
0.0
 76
     0
330
2
331
3158
1001
ACAD_PSEXT
1000
없음
1000
없음
1000
적용 가능하지 않음
1000
배치가 새로운 플로터 구성을 선택할 때까지 플롯되지 않습니다.
1070
     0
  0
MATERIAL
  5
3166
102
{ACAD_XDICTIONARY
360
3167
102
}
102
{ACAD_REACTORS
330
5A2
102
}
330
5A2
100
AcDbMaterial
  1
ByBlock
 72
     0
 43
0.0208333333333333
 43
0.0
 43
0.0
 43
0.0
 43
0.0
 43
0.0208333333333333
 43
0.0
 43
0.0
 43
0.0
 43
0.0
 43
1.0
 43
0.0
 43
0.0
 43
0.0
 43
0.0
 43
1.0
 77
     0
 47
0.0208333333333333
 47
0.0
 47
0.0
 47
0.0
 47
0.0
 47
0.0208333333333333
 47
0.0
 47
0.0
 47
0.0
 47
0.0
 47
1.0
 47
0.0
 47
0.0
 47
0.0
 47
0.0
 47
1.0
171
     0
 49
0.0208333333333333
 49
0.0
 49
0.0
 49
0.0
 49
0.0
 49
0.0208333333333333
 49
0.0
 49
0.0
 49
0.0
 49
0.0
 49
1.0
 49
0.0
 49
0.0
 49
0.0
 49
0.0
 49
1.0
175
     0
142
0.0208333333333333
142
0.0
142
0.0
142
0.0
142
0.0
142
0.0208333333333333
142
0.0
142
0.0
142
0.0
142
0.0
142
1.0
142
0.0
142
0.0
142
0.0
142
0.0
142
1.0
179
     0
144
0.0208333333333333
144
0.0
144
0.0
144
0.0
144
0.0
144
0.0208333333333333
144
0.0
144
0.0
144
0.0
144
0.0
144
1.0
144
0.0
144
0.0
144
0.0
144
0.0
144
1.0
147
0.0208333333333333
147
0.0
147
0.0
147
0.0
147
0.0
147
0.0208333333333333
147
0.0
147
0.0
147
0.0
147
0.0
147
1.0
147
0.0
147
0.0
147
0.0
147
0.0
147
1.0
  0
MATERIAL
  5
315E
102
{ACAD_XDICTIONARY
360
315F
102
}
102
{ACAD_REACTORS
330
5A2
102
}
330
5A2
100
AcDbMaterial
  1
ByLayer
 72
     0
 43
0.0208333333333333
 43
0.0
 43
0.0
 43
0.0
 43
0.0
 43
0.0208333333333333
 43
0.0
 43
0.0
 43
0.0
 43
0.0
 43
1.0
 43
0.0
 43
0.0
 43
0.0
 43
0.0
 43
1.0
 77
     0
 47
0.0208333333333333
 47
0.0
 47
0.0
 47
0.0
 47
0.0
 47
0.0208333333333333
 47
0.0
 47
0.0
 47
0.0
 47
0.0
 47
1.0
 47
0.0
 47
0.0
 47
0.0
 47
0.0
 47
1.0
171
     0
 49
0.0208333333333333
 49
0.0
 49
0.0
 49
0.0
 49
0.0
 49
0.0208333333333333
 49
0.0
 49
0.0
 49
0.0
 49
0.0
 49
1.0
 49
0.0
 49
0.0
 49
0.0
 49
0.0
 49
1.0
175
     0
142
0.0208333333333333
142
0.0
142
0.0
142
0.0
142
0.0
142
0.0208333333333333
142
0.0
142
0.0
142
0.0
142
0.0
142
1.0
142
0.0
142
0.0
142
0.0
142
0.0
142
1.0
179
     0
144
0.0208333333333333
144
0.0
144
0.0
144
0.0
144
0.0
144
0.0208333333333333
144
0.0
144
0.0
144
0.0
144
0.0
144
1.0
144
0.0
144
0.0
144
0.0
144
0.0
144
1.0
147
0.0208333333333333
147
0.0
147
0.0
147
0.0
147
0.0
147
0.0208333333333333
147
0.0
147
0.0
147
0.0
147
0.0
147
1.0
147
0.0
147
0.0
147
0.0
147
0.0
147
1.0
  0
MATERIAL
  5
316E
102
{ACAD_XDICTIONARY
360
316F
102
}
102
{ACAD_REACTORS
330
5A2
102
}
330
5A2
100
AcDbMaterial
  1
Global
 72
     0
 43
0.0208333333333333
 43
0.0
 43
0.0
 43
0.0
 43
0.0
 43
0.0208333333333333
 43
0.0
 43
0.0
 43
0.0
 43
0.0
 43
1.0
 43
0.0
 43
0.0
 43
0.0
 43
0.0
 43
1.0
 77
     0
 47
0.0208333333333333
 47
0.0
 47
0.0
 47
0.0
 47
0.0
 47
0.0208333333333333
 47
0.0
 47
0.0
 47
0.0
 47
0.0
 47
1.0
 47
0.0
 47
0.0
 47
0.0
 47
0.0
 47
1.0
171
     0
 49
0.0208333333333333
 49
0.0
 49
0.0
 49
0.0
 49
0.0
 49
0.0208333333333333
 49
0.0
 49
0.0
 49
0.0
 49
0.0
 49
1.0
 49
0.0
 49
0.0
 49
0.0
 49
0.0
 49
1.0
175
     0
142
0.0208333333333333
142
0.0
142
0.0
142
0.0
142
0.0
142
0.0208333333333333
142
0.0
142
0.0
142
0.0
142
0.0
142
1.0
142
0.0
142
0.0
142
0.0
142
0.0
142
1.0
179
     0
144
0.0208333333333333
144
0.0
144
0.0
144
0.0
144
0.0
144
0.0208333333333333
144
0.0
144
0.0
144
0.0
144
0.0
144
1.0
144
0.0
144
0.0
144
0.0
144
0.0
144
1.0
147
0.0208333333333333
147
0.0
147
0.0
147
0.0
147
0.0
147
0.0208333333333333
147
0.0
147
0.0
147
0.0
147
0.0
147
1.0
147
0.0
147
0.0
147
0.0
147
0.0
147
1.0
  0
ACAD_PROXY_OBJECT
  5
319D
102
{ACAD_REACTORS
330
319C
102
}
330
319C
100
AcDbProxyObject
 90
      499
 91
      509
 95
  6815769
 70
     1
100
AcDbMLeaderStyle
170
     2
171
     1
172
     0
 90
        2
 40
0.0
 41
0.0
173
     1
 91
-1056964608
340
15
 92
       -2
290
     1
 42
2.0
291
     1
 43
0.36
  3
Standard
 44
4.0
300

342
12
174
     1
178
     6
175
     1
176
     0
 93
-1056964608
 45
4.0
292
     0
297
     0
 46
4.0
 94
-1056964608
 47
1.0
 49
1.0
140
1.0
293
     1
141
0.0
294
     1
177
     0
142
1.0
295
     0
296
     0
143
0.125
1001
ACAD_MLEADERVER
1070
     2
  0
MLINESTYLE
  5
23
102
{ACAD_REACTORS
330
21
102
}
330
21
100
AcDbMlineStyle
  2
STANDARD
 70
     0
  3

 62
   256
 51
90.0
 52
90.0
 71
     2
 49
0.5
 62
   256
  6
BYLAYER
 49
-0.5
 62
   256
  6
BYLAYER
  0
ACDBPLACEHOLDER
  5
5
102
{ACAD_REACTORS
330
6
102
}
330
6
  0
ACAD_PROXY_OBJECT
  5
318B
102
{ACAD_REACTORS
330
318A
102
}
330
318A
100
AcDbProxyObject
 90
      499
 91
      508
 95
  6815769
 70
     1
100
AcDbScale
 70
     0
300
1:1
140
1.0
141
1.0
290
     1
  0
ACAD_PROXY_OBJECT
  5
318C
102
{ACAD_REACTORS
330
318A
102
}
330
318A
100
AcDbProxyObject
 90
      499
 91
      508
 95
  6815769
 70
     1
100
AcDbScale
 70
     0
300
1:2
140
1.0
141
2.0
290
     0
  0
ACAD_PROXY_OBJECT
  5
318D
102
{ACAD_REACTORS
330
318A
102
}
330
318A
100
AcDbProxyObject
 90
      499
 91
      508
 95
  6815769
 70
     1
100
AcDbScale
 70
     0
300
1:4
140
1.0
141
4.0
290
     0
  0
ACAD_PROXY_OBJECT
  5
318E
102
{ACAD_REACTORS
330
318A
102
}
330
318A
100
AcDbProxyObject
 90
      499
 91
      508
 95
  6815769
 70
     1
100
AcDbScale
 70
     0
300
1:5
140
1.0
141
5.0
290
     0
  0
ACAD_PROXY_OBJECT
  5
318F
102
{ACAD_REACTORS
330
318A
102
}
330
318A
100
AcDbProxyObject
 90
      499
 91
      508
 95
  6815769
 70
     1
100
AcDbScale
 70
     0
300
1:8
140
1.0
141
8.0
290
     0
  0
ACAD_PROXY_OBJECT
  5
3190
102
{ACAD_REACTORS
330
318A
102
}
330
318A
100
AcDbProxyObject
 90
      499
 91
      508
 95
  6815769
 70
     1
100
AcDbScale
 70
     0
300
1:10
140
1.0
141
10.0
290
     0
  0
ACAD_PROXY_OBJECT
  5
3191
102
{ACAD_REACTORS
330
318A
102
}
330
318A
100
AcDbProxyObject
 90
      499
 91
      508
 95
  6815769
 70
     1
100
AcDbScale
 70
     0
300
1:16
140
1.0
141
16.0
290
     0
  0
ACAD_PROXY_OBJECT
  5
3192
102
{ACAD_REACTORS
330
318A
102
}
330
318A
100
AcDbProxyObject
 90
      499
 91
      508
 95
  6815769
 70
     1
100
AcDbScale
 70
     0
300
1:20
140
1.0
141
20.0
290
     0
  0
ACAD_PROXY_OBJECT
  5
3193
102
{ACAD_REACTORS
330
318A
102
}
330
318A
100
AcDbProxyObject
 90
      499
 91
      508
 95
  6815769
 70
     1
100
AcDbScale
 70
     0
300
1:30
140
1.0
141
30.0
290
     0
  0
ACAD_PROXY_OBJECT
  5
3194
102
{ACAD_REACTORS
330
318A
102
}
330
318A
100
AcDbProxyObject
 90
      499
 91
      508
 95
  6815769
 70
     1
100
AcDbScale
 70
     0
300
1:40
140
1.0
141
40.0
290
     0
  0
ACAD_PROXY_OBJECT
  5
3195
102
{ACAD_REACTORS
330
318A
102
}
330
318A
100
AcDbProxyObject
 90
      499
 91
      508
 95
  6815769
 70
     1
100
AcDbScale
 70
     0
300
1:50
140
1.0
141
50.0
290
     0
  0
ACAD_PROXY_OBJECT
  5
3196
102
{ACAD_REACTORS
330
318A
102
}
330
318A
100
AcDbProxyObject
 90
      499
 91
      508
 95
  6815769
 70
     1
100
AcDbScale
 70
     0
300
1:100
140
1.0
141
100.0
290
     0
  0
ACAD_PROXY_OBJECT
  5
3197
102
{ACAD_REACTORS
330
318A
102
}
330
318A
100
AcDbProxyObject
 90
      499
 91
      508
 95
  6815769
 70
     1
100
AcDbScale
 70
     0
300
2:1
140
2.0
141
1.0
290
     0
  0
ACAD_PROXY_OBJECT
  5
3198
102
{ACAD_REACTORS
330
318A
102
}
330
318A
100
AcDbProxyObject
 90
      499
 91
      508
 95
  6815769
 70
     1
100
AcDbScale
 70
     0
300
4:1
140
4.0
141
1.0
290
     0
  0
ACAD_PROXY_OBJECT
  5
3199
102
{ACAD_REACTORS
330
318A
102
}
330
318A
100
AcDbProxyObject
 90
      499
 91
      508
 95
  6815769
 70
     1
100
AcDbScale
 70
     0
300
8:1
140
8.0
141
1.0
290
     0
  0
ACAD_PROXY_OBJECT
  5
319A
102
{ACAD_REACTORS
330
318A
102
}
330
318A
100
AcDbProxyObject
 90
      499
 91
      508
 95
  6815769
 70
     1
100
AcDbScale
 70
     0
300
10:1
140
10.0
141
1.0
290
     0
  0
ACAD_PROXY_OBJECT
  5
319B
102
{ACAD_REACTORS
330
318A
102
}
330
318A
100
AcDbProxyObject
 90
      499
 91
      508
 95
  6815769
 70
     1
100
AcDbScale
 70
     0
300
100:1
140
100.0
141
1.0
290
     0
  0
TABLESTYLE
  5
5C4
102
{ACAD_XDICTIONARY
360
329A
102
}
102
{ACAD_REACTORS
330
5C3
102
}
330
5C3
100
AcDbTableStyle
  3
Standard
 70
     0
 71
     0
 40
1.5
 41
1.5
280
     0
281
     0
  7
Standard
140
4.5
170
     2
 62
     0
 63
     7
283
     0
 90
        4
 91
        0
  1

274
    -2
284
     1
 64
     0
275
    -2
285
     1
 65
     0
276
    -2
286
     1
 66
     0
277
    -2
287
     1
 67
     0
278
    -2
288
     1
 68
     0
279
    -2
289
     1
 69
     0
  7
Standard
140
6.0
170
     5
 62
     0
 63
     7
283
     0
 90
        4
 91
        0
  1

274
    -2
284
     1
 64
     0
275
    -2
285
     1
 65
     0
276
    -2
286
     1
 66
     0
277
    -2
287
     1
 67
     0
278
    -2
288
     1
 68
     0
279
    -2
289
     1
 69
     0
  7
Standard
140
4.5
170
     5
 62
     0
 63
     7
283
     0
 90
        4
 91
        0
  1

274
    -2
284
     1
 64
     0
275
    -2
285
     1
 65
     0
276
    -2
286
     1
 66
     0
277
    -2
287
     1
 67
     0
278
    -2
288
     1
 68
     0
279
    -2
289
     1
 69
     0
  0
VISUALSTYLE
  5
317C
102
{ACAD_XDICTIONARY
360
32AB
102
}
102
{ACAD_REACTORS
330
3176
102
}
330
3176
100
AcDbVisualStyle
  2
2dWireframe
 70
     4
 71
     0
 72
     2
 73
     0
 90
        0
 40
-0.6
 41
-30.0
 62
     5
 63
     7
421
 16777215
 74
     1
 91
        4
 64
     7
 65
   257
 75
     1
175
     1
 42
1.0
 92
        0
 66
   257
 43
1.0
 76
     1
 77
     6
 78
     2
 67
     7
 79
     5
170
     0
171
     0
290
     0
174
     0
 93
        1
 44
0.0
173
     0
291
     0
 45
0.0
1001
ACAD
1000
AcDbSavedByObjectVersion
1070
     0
1000
AcDbSavedByObjectVersion
1070
     0
1000
AcDbSavedByObjectVersion
1070
     0
1000
AcDbSavedByObjectVersion
1070
     0
1000
AcDbSavedByObjectVersion
1070
     0
  0
VISUALSTYLE
  5
317E
102
{ACAD_XDICTIONARY
360
32AF
102
}
102
{ACAD_REACTORS
330
3176
102
}
330
3176
100
AcDbVisualStyle
  2
3D Hidden
 70
     6
 71
     1
 72
     2
 73
     2
 90
        0
 40
-0.6
 41
-30.0
 62
     5
 63
     7
421
 16777215
 74
     2
 91
        2
 64
     7
 65
   257
 75
     2
175
     1
 42
179.0
 92
        0
 66
   257
 43
1.0
 76
     1
 77
     6
 78
     2
 67
     7
 79
     3
170
     0
171
     0
290
     0
174
     0
 93
        1
 44
0.0
173
     0
291
     0
 45
0.0
1001
ACAD
1000
AcDbSavedByObjectVersion
1070
     0
1000
AcDbSavedByObjectVersion
1070
     0
1000
AcDbSavedByObjectVersion
1070
     0
1000
AcDbSavedByObjectVersion
1070
     0
1000
AcDbSavedByObjectVersion
1070
     0
  0
VISUALSTYLE
  5
317D
102
{ACAD_XDICTIONARY
360
32AD
102
}
102
{ACAD_REACTORS
330
3176
102
}
330
3176
100
AcDbVisualStyle
  2
3dWireframe
 70
     5
 71
     0
 72
     2
 73
     0
 90
        0
 40
-0.6
 41
-30.0
 62
     5
 63
     7
421
 16777215
 74
     1
 91
        4
 64
     7
 65
   257
 75
     1
175
     1
 42
1.0
 92
        0
 66
   257
 43
1.0
 76
     1
 77
     6
 78
     2
 67
     7
 79
     5
170
     0
171
     0
290
     0
174
     0
 93
        1
 44
0.0
173
     0
291
     0
 45
0.0
1001
ACAD
1000
AcDbSavedByObjectVersion
1070
     0
1000
AcDbSavedByObjectVersion
1070
     0
1000
AcDbSavedByObjectVersion
1070
     0
1000
AcDbSavedByObjectVersion
1070
     0
1000
AcDbSavedByObjectVersion
1070
     0
  0
VISUALSTYLE
  5
317B
102
{ACAD_XDICTIONARY
360
32A9
102
}
102
{ACAD_REACTORS
330
3176
102
}
330
3176
100
AcDbVisualStyle
  2
Basic
 70
     7
 71
     1
 72
     0
 73
     1
 90
        0
 40
-0.6
 41
-30.0
 62
     5
 63
     7
421
 16777215
 74
     0
 91
        4
 64
     7
 65
   257
 75
     1
175
     1
 42
1.0
 92
        8
 66
     7
 43
1.0
 76
     1
 77
     6
 78
     2
 67
     7
 79
     5
170
     0
171
     0
290
     0
174
     0
 93
        1
 44
0.0
173
     0
291
     1
 45
0.0
1001
ACAD
1000
AcDbSavedByObjectVersion
1070
     0
1000
AcDbSavedByObjectVersion
1070
     0
1000
AcDbSavedByObjectVersion
1070
     0
1000
AcDbSavedByObjectVersion
1070
     0
1000
AcDbSavedByObjectVersion
1070
     0
  0
VISUALSTYLE
  5
3182
102
{ACAD_XDICTIONARY
360
32B7
102
}
102
{ACAD_REACTORS
330
3176
102
}
330
3176
100
AcDbVisualStyle
  2
Brighten
 70
    12
 71
     2
 72
     2
 73
     0
 90
        0
 40
-0.6
 41
-30.0
 62
     5
 63
     7
421
 16777215
 74
     1
 91
        4
 64
     7
 65
   257
 75
     1
175
     1
 42
1.0
 92
        8
 66
     7
 43
1.0
 76
     1
 77
     6
 78
     2
 67
     7
 79
     5
170
     0
171
     0
290
     0
174
     0
 93
        1
 44
50.0
173
     0
291
     1
 45
0.0
1001
ACAD
1000
AcDbSavedByObjectVersion
1070
     0
1000
AcDbSavedByObjectVersion
1070
     0
1000
AcDbSavedByObjectVersion
1070
     0
1000
AcDbSavedByObjectVersion
1070
     0
1000
AcDbSavedByObjectVersion
1070
     0
  0
VISUALSTYLE
  5
3186
102
{ACAD_XDICTIONARY
360
32BF
102
}
102
{ACAD_REACTORS
330
3176
102
}
330
3176
100
AcDbVisualStyle
  2
ColorChange
 70
    16
 71
     2
 72
     2
 73
     3
 90
        0
 40
-0.6
 41
-30.0
 62
     5
 63
     8
421
  8421504
 74
     1
 91
        4
 64
     7
 65
   257
 75
     1
175
     1
 42
1.0
 92
        8
 66
     8
424
  8421504
 43
1.0
 76
     1
 77
     6
 78
     2
 67
     7
 79
     5
170
     0
171
     0
290
     0
174
     0
 93
        1
 44
0.0
173
     0
291
     1
 45
0.0
1001
ACAD
1000
AcDbSavedByObjectVersion
1070
     0
1000
AcDbSavedByObjectVersion
1070
     0
1000
AcDbSavedByObjectVersion
1070
     0
1000
AcDbSavedByObjectVersion
1070
     0
1000
AcDbSavedByObjectVersion
1070
     0
  0
VISUALSTYLE
  5
317F
102
{ACAD_XDICTIONARY
360
32B1
102
}
102
{ACAD_REACTORS
330
3176
102
}
330
3176
100
AcDbVisualStyle
  2
Conceptual
 70
     9
 71
     3
 72
     2
 73
     0
 90
        0
 40
-0.6
 41
-30.0
 62
     5
 63
     7
421
 16777215
 74
     2
 91
        2
 64
     7
 65
   257
 75
     1
175
     1
 42
179.0
 92
        8
 66
     7
 43
1.0
 76
     1
 77
     6
 78
     2
 67
     7
 79
     3
170
     0
171
     0
290
     0
174
     0
 93
        1
 44
0.0
173
     0
291
     0
 45
0.0
1001
ACAD
1000
AcDbSavedByObjectVersion
1070
     0
1000
AcDbSavedByObjectVersion
1070
     0
1000
AcDbSavedByObjectVersion
1070
     0
1000
AcDbSavedByObjectVersion
1070
     0
1000
AcDbSavedByObjectVersion
1070
     0
  0
VISUALSTYLE
  5
3181
102
{ACAD_XDICTIONARY
360
32B5
102
}
102
{ACAD_REACTORS
330
3176
102
}
330
3176
100
AcDbVisualStyle
  2
Dim
 70
    11
 71
     2
 72
     2
 73
     0
 90
        0
 40
-0.6
 41
-30.0
 62
     5
 63
     7
421
 16777215
 74
     1
 91
        4
 64
     7
 65
   257
 75
     1
175
     1
 42
1.0
 92
        8
 66
     7
 43
1.0
 76
     1
 77
     6
 78
     2
 67
     7
 79
     5
170
     0
171
     0
290
     0
174
     0
 93
        1
 44
-50.0
173
     0
291
     1
 45
0.0
1001
ACAD
1000
AcDbSavedByObjectVersion
1070
     0
1000
AcDbSavedByObjectVersion
1070
     0
1000
AcDbSavedByObjectVersion
1070
     0
1000
AcDbSavedByObjectVersion
1070
     0
1000
AcDbSavedByObjectVersion
1070
     0
  0
VISUALSTYLE
  5
3189
102
{ACAD_XDICTIONARY
360
32C5
102
}
102
{ACAD_REACTORS
330
3176
102
}
330
3176
100
AcDbVisualStyle
  2
EdgeColorOff
 70
    22
 71
     2
 72
     2
 73
     0
 90
        0
 40
-0.6
 41
-30.0
 62
     5
 63
     7
421
 16777215
 74
     1
 91
        4
 64
     7
 65
   257
 75
     1
175
     1
 42
1.0
 92
        8
 66
     7
 43
1.0
 76
     1
 77
     6
 78
     2
 67
     7
 79
     5
170
     0
171
     0
290
     0
174
     0
 93
        1
 44
0.0
173
     0
291
     1
 45
0.0
1001
ACAD
1000
AcDbSavedByObjectVersion
1070
     0
1000
AcDbSavedByObjectVersion
1070
     0
1000
AcDbSavedByObjectVersion
1070
     0
1000
AcDbSavedByObjectVersion
1070
     0
1000
AcDbSavedByObjectVersion
1070
     0
  0
VISUALSTYLE
  5
3185
102
{ACAD_XDICTIONARY
360
32BD
102
}
102
{ACAD_REACTORS
330
3176
102
}
330
3176
100
AcDbVisualStyle
  2
Facepattern
 70
    15
 71
     2
 72
     2
 73
     0
 90
        0
 40
-0.6
 41
-30.0
 62
     5
 63
     7
421
 16777215
 74
     1
 91
        4
 64
     7
 65
   257
 75
     1
175
     1
 42
1.0
 92
        8
 66
     7
 43
1.0
 76
     1
 77
     6
 78
     2
 67
     7
 79
     5
170
     0
171
     0
290
     0
174
     0
 93
        1
 44
0.0
173
     0
291
     1
 45
0.0
1001
ACAD
1000
AcDbSavedByObjectVersion
1070
     0
1000
AcDbSavedByObjectVersion
1070
     0
1000
AcDbSavedByObjectVersion
1070
     0
1000
AcDbSavedByObjectVersion
1070
     0
1000
AcDbSavedByObjectVersion
1070
     0
  0
VISUALSTYLE
  5
3177
102
{ACAD_XDICTIONARY
360
32A1
102
}
102
{ACAD_REACTORS
330
3176
102
}
330
3176
100
AcDbVisualStyle
  2
Flat
 70
     0
 71
     2
 72
     1
 73
     1
 90
        2
 40
-0.6
 41
30.0
 62
     5
 63
     7
421
 16777215
 74
     0
 91
        4
 64
     7
 65
   257
 75
     1
175
     1
 42
1.0
 92
        8
 66
     7
 43
1.0
 76
     1
 77
     6
 78
     2
 67
     7
 79
     5
170
     0
171
     0
290
     0
174
     0
 93
       13
 44
0.0
173
     0
291
     1
 45
0.0
1001
ACAD
1000
AcDbSavedByObjectVersion
1070
     0
1000
AcDbSavedByObjectVersion
1070
     0
1000
AcDbSavedByObjectVersion
1070
     0
1000
AcDbSavedByObjectVersion
1070
     0
1000
AcDbSavedByObjectVersion
1070
     0
  0
VISUALSTYLE
  5
3178
102
{ACAD_XDICTIONARY
360
32A3
102
}
102
{ACAD_REACTORS
330
3176
102
}
330
3176
100
AcDbVisualStyle
  2
FlatWithEdges
 70
     1
 71
     2
 72
     1
 73
     1
 90
        2
 40
-0.6
 41
30.0
 62
     5
 63
     7
421
 16777215
 74
     1
 91
        4
 64
     7
 65
   257
 75
     1
175
     1
 42
1.0
 92
        0
 66
   257
 43
1.0
 76
     1
 77
     6
 78
     2
 67
     7
 79
     5
170
     0
171
     0
290
     0
174
     0
 93
       13
 44
0.0
173
     0
291
     1
 45
0.0
1001
ACAD
1000
AcDbSavedByObjectVersion
1070
     0
1000
AcDbSavedByObjectVersion
1070
     0
1000
AcDbSavedByObjectVersion
1070
     0
1000
AcDbSavedByObjectVersion
1070
     0
1000
AcDbSavedByObjectVersion
1070
     0
  0
VISUALSTYLE
  5
3179
102
{ACAD_XDICTIONARY
360
32A5
102
}
102
{ACAD_REACTORS
330
3176
102
}
330
3176
100
AcDbVisualStyle
  2
Gouraud
 70
     2
 71
     2
 72
     2
 73
     1
 90
        2
 40
-0.6
 41
30.0
 62
     5
 63
     7
421
 16777215
 74
     0
 91
        4
 64
     7
 65
   257
 75
     1
175
     1
 42
1.0
 92
        0
 66
     7
 43
1.0
 76
     1
 77
     6
 78
     2
 67
     7
 79
     5
170
     0
171
     0
290
     0
174
     0
 93
       13
 44
0.0
173
     0
291
     1
 45
0.0
1001
ACAD
1000
AcDbSavedByObjectVersion
1070
     0
1000
AcDbSavedByObjectVersion
1070
     0
1000
AcDbSavedByObjectVersion
1070
     0
1000
AcDbSavedByObjectVersion
1070
     0
1000
AcDbSavedByObjectVersion
1070
     0
  0
VISUALSTYLE
  5
317A
102
{ACAD_XDICTIONARY
360
32A7
102
}
102
{ACAD_REACTORS
330
3176
102
}
330
3176
100
AcDbVisualStyle
  2
GouraudWithEdges
 70
     3
 71
     2
 72
     2
 73
     1
 90
        2
 40
-0.6
 41
30.0
 62
     5
 63
     7
421
 16777215
 74
     1
 91
        4
 64
     7
 65
   257
 75
     1
175
     1
 42
1.0
 92
        0
 66
   257
 43
1.0
 76
     1
 77
     6
 78
     2
 67
     7
 79
     5
170
     0
171
     0
290
     0
174
     0
 93
       13
 44
0.0
173
     0
291
     1
 45
0.0
1001
ACAD
1000
AcDbSavedByObjectVersion
1070
     0
1000
AcDbSavedByObjectVersion
1070
     0
1000
AcDbSavedByObjectVersion
1070
     0
1000
AcDbSavedByObjectVersion
1070
     0
1000
AcDbSavedByObjectVersion
1070
     0
  0
VISUALSTYLE
  5
3187
102
{ACAD_XDICTIONARY
360
32C1
102
}
102
{ACAD_REACTORS
330
3176
102
}
330
3176
100
AcDbVisualStyle
  2
JitterOff
 70
    20
 71
     2
 72
     2
 73
     0
 90
        0
 40
-0.6
 41
-30.0
 62
     5
 63
     7
421
 16777215
 74
     1
 91
        4
 64
     7
 65
   257
 75
     1
175
     1
 42
1.0
 92
       10
 66
     7
 43
1.0
 76
     1
 77
     6
 78
     2
 67
     7
 79
     5
170
     0
171
     0
290
     0
174
     0
 93
        1
 44
0.0
173
     0
291
     1
 45
0.0
1001
ACAD
1000
AcDbSavedByObjectVersion
1070
     0
1000
AcDbSavedByObjectVersion
1070
     0
1000
AcDbSavedByObjectVersion
1070
     0
1000
AcDbSavedByObjectVersion
1070
     0
1000
AcDbSavedByObjectVersion
1070
     0
  0
VISUALSTYLE
  5
3184
102
{ACAD_XDICTIONARY
360
32BB
102
}
102
{ACAD_REACTORS
330
3176
102
}
330
3176
100
AcDbVisualStyle
  2
Linepattern
 70
    14
 71
     2
 72
     2
 73
     0
 90
        0
 40
-0.6
 41
-30.0
 62
     5
 63
     7
421
 16777215
 74
     1
 91
        4
 64
     7
 65
   257
 75
     7
175
     7
 42
1.0
 92
        8
 66
     7
 43
1.0
 76
     1
 77
     6
 78
     2
 67
     7
 79
     5
170
     0
171
     0
290
     0
174
     0
 93
        1
 44
0.0
173
     0
291
     1
 45
0.0
1001
ACAD
1000
AcDbSavedByObjectVersion
1070
     0
1000
AcDbSavedByObjectVersion
1070
     0
1000
AcDbSavedByObjectVersion
1070
     0
1000
AcDbSavedByObjectVersion
1070
     0
1000
AcDbSavedByObjectVersion
1070
     0
  0
VISUALSTYLE
  5
3188
102
{ACAD_XDICTIONARY
360
32C3
102
}
102
{ACAD_REACTORS
330
3176
102
}
330
3176
100
AcDbVisualStyle
  2
OverhangOff
 70
    21
 71
     2
 72
     2
 73
     0
 90
        0
 40
-0.6
 41
-30.0
 62
     5
 63
     7
421
 16777215
 74
     1
 91
        4
 64
     7
 65
   257
 75
     1
175
     1
 42
1.0
 92
        9
 66
     7
 43
1.0
 76
     1
 77
     6
 78
     2
 67
     7
 79
     5
170
     0
171
     0
290
     0
174
     0
 93
        1
 44
0.0
173
     0
291
     1
 45
0.0
1001
ACAD
1000
AcDbSavedByObjectVersion
1070
     0
1000
AcDbSavedByObjectVersion
1070
     0
1000
AcDbSavedByObjectVersion
1070
     0
1000
AcDbSavedByObjectVersion
1070
     0
1000
AcDbSavedByObjectVersion
1070
     0
  0
VISUALSTYLE
  5
3180
102
{ACAD_XDICTIONARY
360
32B3
102
}
102
{ACAD_REACTORS
330
3176
102
}
330
3176
100
AcDbVisualStyle
  2
Realistic
 70
     8
 71
     2
 72
     2
 73
     0
 90
        0
 40
-0.6
 41
-30.0
 62
     5
 63
     7
421
 16777215
 74
     1
 91
        0
 64
     7
 65
   257
 75
     1
175
     1
 42
1.0
 92
        8
 66
     8
424
  7895160
 43
1.0
 76
     1
 77
     6
 78
     2
 67
     7
 79
     5
170
     0
171
     0
290
     0
174
     0
 93
       13
 44
0.0
173
     0
291
     0
 45
0.0
1001
ACAD
1000
AcDbSavedByObjectVersion
1070
     0
1000
AcDbSavedByObjectVersion
1070
     0
1000
AcDbSavedByObjectVersion
1070
     0
1000
AcDbSavedByObjectVersion
1070
     0
1000
AcDbSavedByObjectVersion
1070
     0
  0
VISUALSTYLE
  5
3183
102
{ACAD_XDICTIONARY
360
32B9
102
}
102
{ACAD_REACTORS
330
3176
102
}
330
3176
100
AcDbVisualStyle
  2
Thicken
 70
    13
 71
     2
 72
     2
 73
     0
 90
        0
 40
-0.6
 41
-30.0
 62
     5
 63
     7
421
 16777215
 74
     1
 91
        4
 64
     7
 65
   257
 75
     1
175
     1
 42
1.0
 92
       12
 66
     7
 43
1.0
 76
     1
 77
     6
 78
     2
 67
     7
 79
     5
170
     0
171
     0
290
     0
174
     0
 93
        1
 44
0.0
173
     0
291
     1
 45
0.0
1001
ACAD
1000
AcDbSavedByObjectVersion
1070
     0
1000
AcDbSavedByObjectVersion
1070
     0
1000
AcDbSavedByObjectVersion
1070
     0
1000
AcDbSavedByObjectVersion
1070
     0
1000
AcDbSavedByObjectVersion
1070
     0
  0
VISUALSTYLE
  5
39BF
102
{ACAD_XDICTIONARY
360
39C0
102
}
102
{ACAD_REACTORS
330
3176
102
}
330
3176
100
AcDbVisualStyle
  2
Wireframe
 70
     5
 71
     0
 72
     2
 73
     0
 90
        0
 40
-0.6
 41
-30.0
 62
     5
 63
     7
421
 16777215
 74
     1
 91
        4
 64
     7
 65
   257
 75
     1
175
     1
 42
1.0
 92
        0
 66
   257
 43
1.0
 76
     1
 77
     6
 78
     2
 67
     7
 79
     3
170
     0
171
     0
290
     0
174
     0
 93
        1
 44
0.0
173
     0
291
     0
 45
0.0
  0
DICTIONARYVAR
  5
326B
102
{ACAD_REACTORS
330
81
102
}
330
81
100
DictionaryVariables
280
     0
  1
1:1
  0
DICTIONARYVAR
  5
326A
102
{ACAD_REACTORS
330
81
102
}
330
81
100
DictionaryVariables
280
     0
  1
STANDARD
  0
DICTIONARYVAR
  5
5EE
102
{ACAD_REACTORS
330
81
102
}
330
81
100
DictionaryVariables
280
     0
  1
STANDARD
  0
DICTIONARYVAR
  5
82
102
{ACAD_REACTORS
330
81
102
}
330
81
100
DictionaryVariables
280
     0
  1
1
  0
DICTIONARYVAR
  5
3137
102
{ACAD_REACTORS
330
81
102
}
330
81
100
DictionaryVariables
280
     0
  1

  0
DICTIONARY
  5
3167
330
3166
100
AcDbDictionary
280
     1
281
     1
  3
ACAD_XREC_ROUNDTRIP
360
329F
  3
BUMPTILE
360
3169
  3
DIFFUSETILE
360
3168
  3
OPACITYTILE
360
316C
  3
REFLECTIONTILE
360
316B
  3
REFRACTIONTILE
360
316D
  3
SPECULARTILE
360
316A
  0
DICTIONARY
  5
315F
330
315E
100
AcDbDictionary
280
     1
281
     1
  3
ACAD_XREC_ROUNDTRIP
360
329E
  3
BUMPTILE
360
3161
  3
DIFFUSETILE
360
3160
  3
OPACITYTILE
360
3164
  3
REFLECTIONTILE
360
3163
  3
REFRACTIONTILE
360
3165
  3
SPECULARTILE
360
3162
  0
DICTIONARY
  5
316F
330
316E
100
AcDbDictionary
280
     1
281
     1
  3
ACAD_XREC_ROUNDTRIP
360
32A0
  3
BUMPTILE
360
3171
  3
DIFFUSETILE
360
3170
  3
OPACITYTILE
360
3174
  3
REFLECTIONTILE
360
3173
  3
REFRACTIONTILE
360
3175
  3
SPECULARTILE
360
3172
  0
DICTIONARY
  5
329A
330
5C4
100
AcDbDictionary
280
     1
281
     1
  3
ACAD_ROUNDTRIP_2008_TABLESTYLE_CELLSTYLEMAP
360
329B
  0
DICTIONARY
  5
32AB
330
317C
100
AcDbDictionary
280
     1
281
     1
  3
ACAD_XREC_ROUNDTRIP
360
32AC
  0
DICTIONARY
  5
32AF
330
317E
100
AcDbDictionary
280
     1
281
     1
  3
ACAD_XREC_ROUNDTRIP
360
32B0
  0
DICTIONARY
  5
32AD
330
317D
100
AcDbDictionary
280
     1
281
     1
  3
ACAD_XREC_ROUNDTRIP
360
32AE
  0
DICTIONARY
  5
32A9
330
317B
100
AcDbDictionary
280
     1
281
     1
  3
ACAD_XREC_ROUNDTRIP
360
32AA
  0
DICTIONARY
  5
32B7
330
3182
100
AcDbDictionary
280
     1
281
     1
  3
ACAD_XREC_ROUNDTRIP
360
32B8
  0
DICTIONARY
  5
32BF
330
3186
100
AcDbDictionary
280
     1
281
     1
  3
ACAD_XREC_ROUNDTRIP
360
32C0
  0
DICTIONARY
  5
32B1
330
317F
100
AcDbDictionary
280
     1
281
     1
  3
ACAD_XREC_ROUNDTRIP
360
32B2
  0
DICTIONARY
  5
32B5
330
3181
100
AcDbDictionary
280
     1
281
     1
  3
ACAD_XREC_ROUNDTRIP
360
32B6
  0
DICTIONARY
  5
32C5
330
3189
100
AcDbDictionary
280
     1
281
     1
  3
ACAD_XREC_ROUNDTRIP
360
32C6
  0
DICTIONARY
  5
32BD
330
3185
100
AcDbDictionary
280
     1
281
     1
  3
ACAD_XREC_ROUNDTRIP
360
32BE
  0
DICTIONARY
  5
32A1
330
3177
100
AcDbDictionary
280
     1
281
     1
  3
ACAD_XREC_ROUNDTRIP
360
32A2
  0
DICTIONARY
  5
32A3
330
3178
100
AcDbDictionary
280
     1
281
     1
  3
ACAD_XREC_ROUNDTRIP
360
32A4
  0
DICTIONARY
  5
32A5
330
3179
100
AcDbDictionary
280
     1
281
     1
  3
ACAD_XREC_ROUNDTRIP
360
32A6
  0
DICTIONARY
  5
32A7
330
317A
100
AcDbDictionary
280
     1
281
     1
  3
ACAD_XREC_ROUNDTRIP
360
32A8
  0
DICTIONARY
  5
32C1
330
3187
100
AcDbDictionary
280
     1
281
     1
  3
ACAD_XREC_ROUNDTRIP
360
32C2
  0
DICTIONARY
  5
32BB
330
3184
100
AcDbDictionary
280
     1
281
     1
  3
ACAD_XREC_ROUNDTRIP
360
32BC
  0
DICTIONARY
  5
32C3
330
3188
100
AcDbDictionary
280
     1
281
     1
  3
ACAD_XREC_ROUNDTRIP
360
32C4
  0
DICTIONARY
  5
32B3
330
3180
100
AcDbDictionary
280
     1
281
     1
  3
ACAD_XREC_ROUNDTRIP
360
32B4
  0
DICTIONARY
  5
32B9
330
3183
100
AcDbDictionary
280
     1
281
     1
  3
ACAD_XREC_ROUNDTRIP
360
32BA
  0
DICTIONARY
  5
39C0
330
39BF
100
AcDbDictionary
280
     1
281
     1
  3
ACAD_XREC_ROUNDTRIP
360
39C1
  0
XRECORD
  5
329F
102
{ACAD_REACTORS
330
3167
102
}
330
3167
100
AcDbXrecord
280
     1
102
MATERIAL
148
0.0
149
0.0
149
0.0
 93
        0
 94
       63
282
     0
 72
     0
 77
     0
171
     0
175
     0
179
     0
273
     0
  0
XRECORD
  5
3169
102
{ACAD_REACTORS
330
3167
102
}
330
3167
100
AcDbXrecord
280
     1
270
     1
271
     1
  0
XRECORD
  5
3168
102
{ACAD_REACTORS
330
3167
102
}
330
3167
100
AcDbXrecord
280
     1
270
     1
271
     1
  0
XRECORD
  5
316C
102
{ACAD_REACTORS
330
3167
102
}
330
3167
100
AcDbXrecord
280
     1
270
     1
271
     1
  0
XRECORD
  5
316B
102
{ACAD_REACTORS
330
3167
102
}
330
3167
100
AcDbXrecord
280
     1
270
     1
271
     1
  0
XRECORD
  5
316D
102
{ACAD_REACTORS
330
3167
102
}
330
3167
100
AcDbXrecord
280
     1
270
     1
271
     1
  0
XRECORD
  5
316A
102
{ACAD_REACTORS
330
3167
102
}
330
3167
100
AcDbXrecord
280
     1
270
     1
271
     1
  0
XRECORD
  5
329E
102
{ACAD_REACTORS
330
315F
102
}
330
315F
100
AcDbXrecord
280
     1
102
MATERIAL
148
0.0
149
0.0
149
0.0
 93
        0
 94
       63
282
     0
 72
     0
 77
     0
171
     0
175
     0
179
     0
273
     0
  0
XRECORD
  5
3161
102
{ACAD_REACTORS
330
315F
102
}
330
315F
100
AcDbXrecord
280
     1
270
     1
271
     1
  0
XRECORD
  5
3160
102
{ACAD_REACTORS
330
315F
102
}
330
315F
100
AcDbXrecord
280
     1
270
     1
271
     1
  0
XRECORD
  5
3164
102
{ACAD_REACTORS
330
315F
102
}
330
315F
100
AcDbXrecord
280
     1
270
     1
271
     1
  0
XRECORD
  5
3163
102
{ACAD_REACTORS
330
315F
102
}
330
315F
100
AcDbXrecord
280
     1
270
     1
271
     1
  0
XRECORD
  5
3165
102
{ACAD_REACTORS
330
315F
102
}
330
315F
100
AcDbXrecord
280
     1
270
     1
271
     1
  0
XRECORD
  5
3162
102
{ACAD_REACTORS
330
315F
102
}
330
315F
100
AcDbXrecord
280
     1
270
     1
271
     1
  0
XRECORD
  5
32A0
102
{ACAD_REACTORS
330
316F
102
}
330
316F
100
AcDbXrecord
280
     1
102
MATERIAL
148
0.0
149
0.0
149
0.0
 93
        0
 94
       63
282
     0
 72
     0
 77
     0
171
     0
175
     0
179
     0
273
     0
  0
XRECORD
  5
3171
102
{ACAD_REACTORS
330
316F
102
}
330
316F
100
AcDbXrecord
280
     1
270
     1
271
     1
  0
XRECORD
  5
3170
102
{ACAD_REACTORS
330
316F
102
}
330
316F
100
AcDbXrecord
280
     1
270
     1
271
     1
  0
XRECORD
  5
3174
102
{ACAD_REACTORS
330
316F
102
}
330
316F
100
AcDbXrecord
280
     1
270
     1
271
     1
  0
XRECORD
  5
3173
102
{ACAD_REACTORS
330
316F
102
}
330
316F
100
AcDbXrecord
280
     1
270
     1
271
     1
  0
XRECORD
  5
3175
102
{ACAD_REACTORS
330
316F
102
}
330
316F
100
AcDbXrecord
280
     1
270
     1
271
     1
  0
XRECORD
  5
3172
102
{ACAD_REACTORS
330
316F
102
}
330
316F
100
AcDbXrecord
280
     1
270
     1
271
     1
  0
ACAD_PROXY_OBJECT
  5
329B
102
{ACAD_REACTORS
330
329A
102
}
330
329A
100
AcDbProxyObject
 90
      499
 91
      510
 95
  6815769
 70
     1
100
AcDbCellStyleMap
 90
        3
300
CELLSTYLE
  1
TABLEFORMAT_BEGIN
 90
        5
170
     1
 91
        0
 92
    32768
 62
   257
 93
        1
300
CONTENTFORMAT
  1
CONTENTFORMAT_BEGIN
 90
        0
 91
        0
 92
        4
 93
        0
300

 40
0.0
140
1.0
 94
        5
 62
     0
340
12
144
6.0
309
CONTENTFORMAT_END
171
     1
301
MARGIN
  1
CELLMARGIN_BEGIN
 40
1.5
 40
1.5
 40
1.5
 40
1.5
 40
0.18
 40
0.18
309
CELLMARGIN_END
 94
        6
 95
        1
302
GRIDFORMAT
  1
GRIDFORMAT_BEGIN
 90
        0
 91
        1
 62
     0
 92
       -2
340
0
 93
        0
 40
0.045
309
GRIDFORMAT_END
 95
        2
302
GRIDFORMAT
  1
GRIDFORMAT_BEGIN
 90
        0
 91
        1
 62
     0
 92
       -2
340
0
 93
        0
 40
0.045
309
GRIDFORMAT_END
 95
        4
302
GRIDFORMAT
  1
GRIDFORMAT_BEGIN
 90
        0
 91
        1
 62
     0
 92
       -2
340
0
 93
        0
 40
0.045
309
GRIDFORMAT_END
 95
        8
302
GRIDFORMAT
  1
GRIDFORMAT_BEGIN
 90
        0
 91
        1
 62
     0
 92
       -2
340
0
 93
        0
 40
0.045
309
GRIDFORMAT_END
 95
       16
302
GRIDFORMAT
  1
GRIDFORMAT_BEGIN
 90
        0
 91
        1
 62
     0
 92
       -2
340
0
 93
        0
 40
0.045
309
GRIDFORMAT_END
 95
       32
302
GRIDFORMAT
  1
GRIDFORMAT_BEGIN
 90
        0
 91
        1
 62
     0
 92
       -2
340
0
 93
        0
 40
0.045
309
GRIDFORMAT_END
309
TABLEFORMAT_END
  1
CELLSTYLE_BEGIN
 90
        1
 91
        1
300
_TITLE
309
CELLSTYLE_END
300
CELLSTYLE
  1
TABLEFORMAT_BEGIN
 90
        5
170
     1
 91
        0
 92
        0
 62
   257
 93
        1
300
CONTENTFORMAT
  1
CONTENTFORMAT_BEGIN
 90
        0
 91
        0
 92
        4
 93
        0
300

 40
0.0
140
1.0
 94
        5
 62
     0
340
12
144
4.5
309
CONTENTFORMAT_END
171
     1
301
MARGIN
  1
CELLMARGIN_BEGIN
 40
1.5
 40
1.5
 40
1.5
 40
1.5
 40
0.18
 40
0.18
309
CELLMARGIN_END
 94
        6
 95
        1
302
GRIDFORMAT
  1
GRIDFORMAT_BEGIN
 90
        0
 91
        1
 62
     0
 92
       -2
340
0
 93
        0
 40
0.045
309
GRIDFORMAT_END
 95
        2
302
GRIDFORMAT
  1
GRIDFORMAT_BEGIN
 90
        0
 91
        1
 62
     0
 92
       -2
340
0
 93
        0
 40
0.045
309
GRIDFORMAT_END
 95
        4
302
GRIDFORMAT
  1
GRIDFORMAT_BEGIN
 90
        0
 91
        1
 62
     0
 92
       -2
340
0
 93
        0
 40
0.045
309
GRIDFORMAT_END
 95
        8
302
GRIDFORMAT
  1
GRIDFORMAT_BEGIN
 90
        0
 91
        1
 62
     0
 92
       -2
340
0
 93
        0
 40
0.045
309
GRIDFORMAT_END
 95
       16
302
GRIDFORMAT
  1
GRIDFORMAT_BEGIN
 90
        0
 91
        1
 62
     0
 92
       -2
340
0
 93
        0
 40
0.045
309
GRIDFORMAT_END
 95
       32
302
GRIDFORMAT
  1
GRIDFORMAT_BEGIN
 90
        0
 91
        1
 62
     0
 92
       -2
340
0
 93
        0
 40
0.045
309
GRIDFORMAT_END
309
TABLEFORMAT_END
  1
CELLSTYLE_BEGIN
 90
        2
 91
        1
300
_HEADER
309
CELLSTYLE_END
300
CELLSTYLE
  1
TABLEFORMAT_BEGIN
 90
        5
170
     1
 91
        0
 92
        0
 62
   257
 93
        1
300
CONTENTFORMAT
  1
CONTENTFORMAT_BEGIN
 90
        0
 91
        0
 92
        4
 93
        0
300

 40
0.0
140
1.0
 94
        2
 62
     0
340
12
144
4.5
309
CONTENTFORMAT_END
171
     1
301
MARGIN
  1
CELLMARGIN_BEGIN
 40
1.5
 40
1.5
 40
1.5
 40
1.5
 40
0.18
 40
0.18
309
CELLMARGIN_END
 94
        6
 95
        1
302
GRIDFORMAT
  1
GRIDFORMAT_BEGIN
 90
        0
 91
        1
 62
     0
 92
       -2
340
0
 93
        0
 40
0.045
309
GRIDFORMAT_END
 95
        2
302
GRIDFORMAT
  1
GRIDFORMAT_BEGIN
 90
        0
 91
        1
 62
     0
 92
       -2
340
0
 93
        0
 40
0.045
309
GRIDFORMAT_END
 95
        4
302
GRIDFORMAT
  1
GRIDFORMAT_BEGIN
 90
        0
 91
        1
 62
     0
 92
       -2
340
0
 93
        0
 40
0.045
309
GRIDFORMAT_END
 95
        8
302
GRIDFORMAT
  1
GRIDFORMAT_BEGIN
 90
        0
 91
        1
 62
     0
 92
       -2
340
0
 93
        0
 40
0.045
309
GRIDFORMAT_END
 95
       16
302
GRIDFORMAT
  1
GRIDFORMAT_BEGIN
 90
        0
 91
        1
 62
     0
 92
       -2
340
0
 93
        0
 40
0.045
309
GRIDFORMAT_END
 95
       32
302
GRIDFORMAT
  1
GRIDFORMAT_BEGIN
 90
        0
 91
        1
 62
     0
 92
       -2
340
0
 93
        0
 40
0.045
309
GRIDFORMAT_END
309
TABLEFORMAT_END
  1
CELLSTYLE_BEGIN
 90
        3
 91
        2
300
_DATA
309
CELLSTYLE_END
  0
XRECORD
  5
32AC
102
{ACAD_REACTORS
330
32AB
102
}
330
32AB
100
AcDbXrecord
280
     1
102
RTVSPropertyOp0
 70
     1
102
RTVSPropertyOp1
 70
     1
102
RTVSPropertyOp2
 70
     1
102
RTVSPropertyOp3
 70
     1
102
RTVSPropertyOp4
 70
     1
102
RTVSPropertyOp5
 70
     1
102
RTVSPropertyOp6
 70
     1
102
RTVSPropertyOp7
 70
     1
102
RTVSPropertyOp8
 70
     1
102
RTVSPropertyOp9
 70
     1
102
RTVSPropertyOp10
 70
     1
102
RTVSPropertyOp11
 70
     1
102
RTVSPropertyOp12
 70
     1
102
RTVSPropertyOp13
 70
     1
102
RTVSPropertyOp14
 70
     1
102
RTVSPropertyOp15
 70
     1
102
RTVSPropertyOp16
 70
     1
102
RTVSPropertyOp17
 70
     1
102
RTVSPropertyOp18
 70
     1
102
RTVSPropertyOp19
 70
     1
102
RTVSPropertyOp20
 70
     1
102
RTVSPropertyOp21
 70
     1
102
RTVSPropertyOp22
 70
     1
102
RTVSPropertyOp23
 70
     1
102
RTVSPropertyOp24
 70
     1
102
RTVSPropertyOp25
 70
     1
102
RTVSPropertyOp26
 70
     1
102
RTVSPropertyOp27
 70
     1
  0
XRECORD
  5
32B0
102
{ACAD_REACTORS
330
32AF
102
}
330
32AF
100
AcDbXrecord
280
     1
102
RTVSPropertyOp0
 70
     1
102
RTVSPropertyOp1
 70
     1
102
RTVSPropertyOp2
 70
     1
102
RTVSPropertyOp3
 70
     1
102
RTVSPropertyOp4
 70
     1
102
RTVSPropertyOp5
 70
     1
102
RTVSPropertyOp6
 70
     1
102
RTVSPropertyOp7
 70
     1
102
RTVSPropertyOp8
 70
     1
102
RTVSPropertyOp9
 70
     1
102
RTVSPropertyOp10
 70
     1
102
RTVSPropertyOp11
 70
     1
102
RTVSPropertyOp12
 70
     1
102
RTVSPropertyOp13
 70
     1
102
RTVSPropertyOp14
 70
     1
102
RTVSPropertyOp15
 70
     1
102
RTVSPropertyOp16
 70
     1
102
RTVSPropertyOp17
 70
     1
102
RTVSPropertyOp18
 70
     1
102
RTVSPropertyOp19
 70
     1
102
RTVSPropertyOp20
 70
     1
102
RTVSPropertyOp21
 70
     1
102
RTVSPropertyOp22
 70
     1
102
RTVSPropertyOp23
 70
     1
102
RTVSPropertyOp24
 70
     1
102
RTVSPropertyOp25
 70
     1
102
RTVSPropertyOp26
 70
     1
102
RTVSPropertyOp27
 70
     1
  0
XRECORD
  5
32AE
102
{ACAD_REACTORS
330
32AD
102
}
330
32AD
100
AcDbXrecord
280
     1
102
RTVSPropertyOp0
 70
     1
102
RTVSPropertyOp1
 70
     1
102
RTVSPropertyOp2
 70
     1
102
RTVSPropertyOp3
 70
     1
102
RTVSPropertyOp4
 70
     1
102
RTVSPropertyOp5
 70
     1
102
RTVSPropertyOp6
 70
     1
102
RTVSPropertyOp7
 70
     1
102
RTVSPropertyOp8
 70
     1
102
RTVSPropertyOp9
 70
     1
102
RTVSPropertyOp10
 70
     1
102
RTVSPropertyOp11
 70
     1
102
RTVSPropertyOp12
 70
     1
102
RTVSPropertyOp13
 70
     1
102
RTVSPropertyOp14
 70
     1
102
RTVSPropertyOp15
 70
     1
102
RTVSPropertyOp16
 70
     1
102
RTVSPropertyOp17
 70
     1
102
RTVSPropertyOp18
 70
     1
102
RTVSPropertyOp19
 70
     1
102
RTVSPropertyOp20
 70
     1
102
RTVSPropertyOp21
 70
     1
102
RTVSPropertyOp22
 70
     1
102
RTVSPropertyOp23
 70
     1
102
RTVSPropertyOp24
 70
     1
102
RTVSPropertyOp25
 70
     1
102
RTVSPropertyOp26
 70
     1
102
RTVSPropertyOp27
 70
     1
  0
XRECORD
  5
32AA
102
{ACAD_REACTORS
330
32A9
102
}
330
32A9
100
AcDbXrecord
280
     1
102
RTVSPropertyOp0
 70
     1
102
RTVSPropertyOp1
 70
     1
102
RTVSPropertyOp2
 70
     1
102
RTVSPropertyOp3
 70
     1
102
RTVSPropertyOp4
 70
     1
102
RTVSPropertyOp5
 70
     1
102
RTVSPropertyOp6
 70
     1
102
RTVSPropertyOp7
 70
     1
102
RTVSPropertyOp8
 70
     1
102
RTVSPropertyOp9
 70
     1
102
RTVSPropertyOp10
 70
     1
102
RTVSPropertyOp11
 70
     1
102
RTVSPropertyOp12
 70
     1
102
RTVSPropertyOp13
 70
     1
102
RTVSPropertyOp14
 70
     1
102
RTVSPropertyOp15
 70
     1
102
RTVSPropertyOp16
 70
     1
102
RTVSPropertyOp17
 70
     1
102
RTVSPropertyOp18
 70
     1
102
RTVSPropertyOp19
 70
     1
102
RTVSPropertyOp20
 70
     1
102
RTVSPropertyOp21
 70
     1
102
RTVSPropertyOp22
 70
     1
102
RTVSPropertyOp23
 70
     1
102
RTVSPropertyOp24
 70
     1
102
RTVSPropertyOp25
 70
     1
102
RTVSPropertyOp26
 70
     1
102
RTVSPropertyOp27
 70
     1
  0
XRECORD
  5
32B8
102
{ACAD_REACTORS
330
32B7
102
}
330
32B7
100
AcDbXrecord
280
     1
102
RTVSPropertyOp0
 70
     1
102
RTVSPropertyOp1
 70
     1
102
RTVSPropertyOp2
 70
     1
102
RTVSPropertyOp3
 70
     1
102
RTVSPropertyOp4
 70
     1
102
RTVSPropertyOp5
 70
     1
102
RTVSPropertyOp6
 70
     1
102
RTVSPropertyOp7
 70
     1
102
RTVSPropertyOp8
 70
     1
102
RTVSPropertyOp9
 70
     1
102
RTVSPropertyOp10
 70
     1
102
RTVSPropertyOp11
 70
     1
102
RTVSPropertyOp12
 70
     1
102
RTVSPropertyOp13
 70
     1
102
RTVSPropertyOp14
 70
     1
102
RTVSPropertyOp15
 70
     1
102
RTVSPropertyOp16
 70
     1
102
RTVSPropertyOp17
 70
     1
102
RTVSPropertyOp18
 70
     1
102
RTVSPropertyOp19
 70
     1
102
RTVSPropertyOp20
 70
     1
102
RTVSPropertyOp21
 70
     1
102
RTVSPropertyOp22
 70
     1
102
RTVSPropertyOp23
 70
     1
102
RTVSPropertyOp24
 70
     1
102
RTVSPropertyOp25
 70
     1
102
RTVSPropertyOp26
 70
     1
102
RTVSPropertyOp27
 70
     1
  0
XRECORD
  5
32C0
102
{ACAD_REACTORS
330
32BF
102
}
330
32BF
100
AcDbXrecord
280
     1
102
RTVSPropertyOp0
 70
     1
102
RTVSPropertyOp1
 70
     1
102
RTVSPropertyOp2
 70
     1
102
RTVSPropertyOp3
 70
     1
102
RTVSPropertyOp4
 70
     1
102
RTVSPropertyOp5
 70
     1
102
RTVSPropertyOp6
 70
     1
102
RTVSPropertyOp7
 70
     1
102
RTVSPropertyOp8
 70
     1
102
RTVSPropertyOp9
 70
     1
102
RTVSPropertyOp10
 70
     1
102
RTVSPropertyOp11
 70
     1
102
RTVSPropertyOp12
 70
     1
102
RTVSPropertyOp13
 70
     1
102
RTVSPropertyOp14
 70
     1
102
RTVSPropertyOp15
 70
     1
102
RTVSPropertyOp16
 70
     1
102
RTVSPropertyOp17
 70
     1
102
RTVSPropertyOp18
 70
     1
102
RTVSPropertyOp19
 70
     1
102
RTVSPropertyOp20
 70
     1
102
RTVSPropertyOp21
 70
     1
102
RTVSPropertyOp22
 70
     1
102
RTVSPropertyOp23
 70
     1
102
RTVSPropertyOp24
 70
     1
102
RTVSPropertyOp25
 70
     1
102
RTVSPropertyOp26
 70
     1
102
RTVSPropertyOp27
 70
     1
  0
XRECORD
  5
32B2
102
{ACAD_REACTORS
330
32B1
102
}
330
32B1
100
AcDbXrecord
280
     1
102
RTVSPropertyOp0
 70
     1
102
RTVSPropertyOp1
 70
     1
102
RTVSPropertyOp2
 70
     1
102
RTVSPropertyOp3
 70
     1
102
RTVSPropertyOp4
 70
     1
102
RTVSPropertyOp5
 70
     1
102
RTVSPropertyOp6
 70
     1
102
RTVSPropertyOp7
 70
     1
102
RTVSPropertyOp8
 70
     1
102
RTVSPropertyOp9
 70
     1
102
RTVSPropertyOp10
 70
     1
102
RTVSPropertyOp11
 70
     1
102
RTVSPropertyOp12
 70
     1
102
RTVSPropertyOp13
 70
     1
102
RTVSPropertyOp14
 70
     1
102
RTVSPropertyOp15
 70
     1
102
RTVSPropertyOp16
 70
     1
102
RTVSPropertyOp17
 70
     1
102
RTVSPropertyOp18
 70
     1
102
RTVSPropertyOp19
 70
     1
102
RTVSPropertyOp20
 70
     1
102
RTVSPropertyOp21
 70
     1
102
RTVSPropertyOp22
 70
     1
102
RTVSPropertyOp23
 70
     1
102
RTVSPropertyOp24
 70
     1
102
RTVSPropertyOp25
 70
     1
102
RTVSPropertyOp26
 70
     1
102
RTVSPropertyOp27
 70
     1
  0
XRECORD
  5
32B6
102
{ACAD_REACTORS
330
32B5
102
}
330
32B5
100
AcDbXrecord
280
     1
102
RTVSPropertyOp0
 70
     1
102
RTVSPropertyOp1
 70
     1
102
RTVSPropertyOp2
 70
     1
102
RTVSPropertyOp3
 70
     1
102
RTVSPropertyOp4
 70
     1
102
RTVSPropertyOp5
 70
     1
102
RTVSPropertyOp6
 70
     1
102
RTVSPropertyOp7
 70
     1
102
RTVSPropertyOp8
 70
     1
102
RTVSPropertyOp9
 70
     1
102
RTVSPropertyOp10
 70
     1
102
RTVSPropertyOp11
 70
     1
102
RTVSPropertyOp12
 70
     1
102
RTVSPropertyOp13
 70
     1
102
RTVSPropertyOp14
 70
     1
102
RTVSPropertyOp15
 70
     1
102
RTVSPropertyOp16
 70
     1
102
RTVSPropertyOp17
 70
     1
102
RTVSPropertyOp18
 70
     1
102
RTVSPropertyOp19
 70
     1
102
RTVSPropertyOp20
 70
     1
102
RTVSPropertyOp21
 70
     1
102
RTVSPropertyOp22
 70
     1
102
RTVSPropertyOp23
 70
     1
102
RTVSPropertyOp24
 70
     1
102
RTVSPropertyOp25
 70
     1
102
RTVSPropertyOp26
 70
     1
102
RTVSPropertyOp27
 70
     1
  0
XRECORD
  5
32C6
102
{ACAD_REACTORS
330
32C5
102
}
330
32C5
100
AcDbXrecord
280
     1
102
RTVSPropertyOp0
 70
     0
102
RTVSPropertyOp1
 70
     0
102
RTVSPropertyOp2
 70
     0
102
RTVSPropertyOp3
 70
     0
102
RTVSPropertyOp4
 70
     0
102
RTVSPropertyOp5
 70
     0
102
RTVSPropertyOp6
 70
     0
102
RTVSPropertyOp7
 70
     0
102
RTVSPropertyOp8
 70
     0
102
RTVSPropertyOp9
 70
     0
102
RTVSPropertyOp10
 70
     0
102
RTVSPropertyOp11
 70
     0
102
RTVSPropertyOp12
 70
     0
102
RTVSPropertyOp13
 70
     0
102
RTVSPropertyOp14
 70
     2
102
RTVSPropertyOp15
 70
     0
102
RTVSPropertyOp16
 70
     0
102
RTVSPropertyOp17
 70
     0
102
RTVSPropertyOp18
 70
     0
102
RTVSPropertyOp19
 70
     0
102
RTVSPropertyOp20
 70
     0
102
RTVSPropertyOp21
 70
     0
102
RTVSPropertyOp22
 70
     0
102
RTVSPropertyOp23
 70
     0
102
RTVSPropertyOp24
 70
     0
102
RTVSPropertyOp25
 70
     0
102
RTVSPropertyOp26
 70
     0
102
RTVSPropertyOp27
 70
     0
  0
XRECORD
  5
32BE
102
{ACAD_REACTORS
330
32BD
102
}
330
32BD
100
AcDbXrecord
280
     1
102
RTVSPropertyOp0
 70
     1
102
RTVSPropertyOp1
 70
     1
102
RTVSPropertyOp2
 70
     1
102
RTVSPropertyOp3
 70
     1
102
RTVSPropertyOp4
 70
     1
102
RTVSPropertyOp5
 70
     1
102
RTVSPropertyOp6
 70
     1
102
RTVSPropertyOp7
 70
     1
102
RTVSPropertyOp8
 70
     1
102
RTVSPropertyOp9
 70
     1
102
RTVSPropertyOp10
 70
     1
102
RTVSPropertyOp11
 70
     1
102
RTVSPropertyOp12
 70
     1
102
RTVSPropertyOp13
 70
     1
102
RTVSPropertyOp14
 70
     1
102
RTVSPropertyOp15
 70
     1
102
RTVSPropertyOp16
 70
     1
102
RTVSPropertyOp17
 70
     1
102
RTVSPropertyOp18
 70
     1
102
RTVSPropertyOp19
 70
     1
102
RTVSPropertyOp20
 70
     1
102
RTVSPropertyOp21
 70
     1
102
RTVSPropertyOp22
 70
     1
102
RTVSPropertyOp23
 70
     1
102
RTVSPropertyOp24
 70
     1
102
RTVSPropertyOp25
 70
     1
102
RTVSPropertyOp26
 70
     1
102
RTVSPropertyOp27
 70
     1
  0
XRECORD
  5
32A2
102
{ACAD_REACTORS
330
32A1
102
}
330
32A1
100
AcDbXrecord
280
     1
102
RTVSPropertyOp0
 70
     1
102
RTVSPropertyOp1
 70
     1
102
RTVSPropertyOp2
 70
     1
102
RTVSPropertyOp3
 70
     1
102
RTVSPropertyOp4
 70
     1
102
RTVSPropertyOp5
 70
     1
102
RTVSPropertyOp6
 70
     1
102
RTVSPropertyOp7
 70
     1
102
RTVSPropertyOp8
 70
     1
102
RTVSPropertyOp9
 70
     1
102
RTVSPropertyOp10
 70
     1
102
RTVSPropertyOp11
 70
     1
102
RTVSPropertyOp12
 70
     1
102
RTVSPropertyOp13
 70
     1
102
RTVSPropertyOp14
 70
     1
102
RTVSPropertyOp15
 70
     1
102
RTVSPropertyOp16
 70
     1
102
RTVSPropertyOp17
 70
     1
102
RTVSPropertyOp18
 70
     1
102
RTVSPropertyOp19
 70
     1
102
RTVSPropertyOp20
 70
     1
102
RTVSPropertyOp21
 70
     1
102
RTVSPropertyOp22
 70
     1
102
RTVSPropertyOp23
 70
     1
102
RTVSPropertyOp24
 70
     1
102
RTVSPropertyOp25
 70
     1
102
RTVSPropertyOp26
 70
     1
102
RTVSPropertyOp27
 70
     1
  0
XRECORD
  5
32A4
102
{ACAD_REACTORS
330
32A3
102
}
330
32A3
100
AcDbXrecord
280
     1
102
RTVSPropertyOp0
 70
     1
102
RTVSPropertyOp1
 70
     1
102
RTVSPropertyOp2
 70
     1
102
RTVSPropertyOp3
 70
     1
102
RTVSPropertyOp4
 70
     1
102
RTVSPropertyOp5
 70
     1
102
RTVSPropertyOp6
 70
     1
102
RTVSPropertyOp7
 70
     1
102
RTVSPropertyOp8
 70
     1
102
RTVSPropertyOp9
 70
     1
102
RTVSPropertyOp10
 70
     1
102
RTVSPropertyOp11
 70
     1
102
RTVSPropertyOp12
 70
     1
102
RTVSPropertyOp13
 70
     1
102
RTVSPropertyOp14
 70
     1
102
RTVSPropertyOp15
 70
     1
102
RTVSPropertyOp16
 70
     1
102
RTVSPropertyOp17
 70
     1
102
RTVSPropertyOp18
 70
     1
102
RTVSPropertyOp19
 70
     1
102
RTVSPropertyOp20
 70
     1
102
RTVSPropertyOp21
 70
     1
102
RTVSPropertyOp22
 70
     1
102
RTVSPropertyOp23
 70
     1
102
RTVSPropertyOp24
 70
     1
102
RTVSPropertyOp25
 70
     1
102
RTVSPropertyOp26
 70
     1
102
RTVSPropertyOp27
 70
     1
  0
XRECORD
  5
32A6
102
{ACAD_REACTORS
330
32A5
102
}
330
32A5
100
AcDbXrecord
280
     1
102
RTVSPropertyOp0
 70
     1
102
RTVSPropertyOp1
 70
     1
102
RTVSPropertyOp2
 70
     1
102
RTVSPropertyOp3
 70
     1
102
RTVSPropertyOp4
 70
     1
102
RTVSPropertyOp5
 70
     1
102
RTVSPropertyOp6
 70
     1
102
RTVSPropertyOp7
 70
     1
102
RTVSPropertyOp8
 70
     1
102
RTVSPropertyOp9
 70
     1
102
RTVSPropertyOp10
 70
     1
102
RTVSPropertyOp11
 70
     1
102
RTVSPropertyOp12
 70
     1
102
RTVSPropertyOp13
 70
     1
102
RTVSPropertyOp14
 70
     1
102
RTVSPropertyOp15
 70
     1
102
RTVSPropertyOp16
 70
     1
102
RTVSPropertyOp17
 70
     1
102
RTVSPropertyOp18
 70
     1
102
RTVSPropertyOp19
 70
     1
102
RTVSPropertyOp20
 70
     1
102
RTVSPropertyOp21
 70
     1
102
RTVSPropertyOp22
 70
     1
102
RTVSPropertyOp23
 70
     1
102
RTVSPropertyOp24
 70
     1
102
RTVSPropertyOp25
 70
     1
102
RTVSPropertyOp26
 70
     1
102
RTVSPropertyOp27
 70
     1
  0
XRECORD
  5
32A8
102
{ACAD_REACTORS
330
32A7
102
}
330
32A7
100
AcDbXrecord
280
     1
102
RTVSPropertyOp0
 70
     1
102
RTVSPropertyOp1
 70
     1
102
RTVSPropertyOp2
 70
     1
102
RTVSPropertyOp3
 70
     1
102
RTVSPropertyOp4
 70
     1
102
RTVSPropertyOp5
 70
     1
102
RTVSPropertyOp6
 70
     1
102
RTVSPropertyOp7
 70
     1
102
RTVSPropertyOp8
 70
     1
102
RTVSPropertyOp9
 70
     1
102
RTVSPropertyOp10
 70
     1
102
RTVSPropertyOp11
 70
     1
102
RTVSPropertyOp12
 70
     1
102
RTVSPropertyOp13
 70
     1
102
RTVSPropertyOp14
 70
     1
102
RTVSPropertyOp15
 70
     1
102
RTVSPropertyOp16
 70
     1
102
RTVSPropertyOp17
 70
     1
102
RTVSPropertyOp18
 70
     1
102
RTVSPropertyOp19
 70
     1
102
RTVSPropertyOp20
 70
     1
102
RTVSPropertyOp21
 70
     1
102
RTVSPropertyOp22
 70
     1
102
RTVSPropertyOp23
 70
     1
102
RTVSPropertyOp24
 70
     1
102
RTVSPropertyOp25
 70
     1
102
RTVSPropertyOp26
 70
     1
102
RTVSPropertyOp27
 70
     1
  0
XRECORD
  5
32C2
102
{ACAD_REACTORS
330
32C1
102
}
330
32C1
100
AcDbXrecord
280
     1
102
RTVSPropertyOp0
 70
     0
102
RTVSPropertyOp1
 70
     0
102
RTVSPropertyOp2
 70
     0
102
RTVSPropertyOp3
 70
     0
102
RTVSPropertyOp4
 70
     0
102
RTVSPropertyOp5
 70
     0
102
RTVSPropertyOp6
 70
     0
102
RTVSPropertyOp7
 70
     0
102
RTVSPropertyOp8
 70
     0
102
RTVSPropertyOp9
 70
     0
102
RTVSPropertyOp10
 70
     0
102
RTVSPropertyOp11
 70
     0
102
RTVSPropertyOp12
 70
     0
102
RTVSPropertyOp13
 70
     0
102
RTVSPropertyOp14
 70
     2
102
RTVSPropertyOp15
 70
     0
102
RTVSPropertyOp16
 70
     0
102
RTVSPropertyOp17
 70
     0
102
RTVSPropertyOp18
 70
     0
102
RTVSPropertyOp19
 70
     0
102
RTVSPropertyOp20
 70
     0
102
RTVSPropertyOp21
 70
     0
102
RTVSPropertyOp22
 70
     0
102
RTVSPropertyOp23
 70
     0
102
RTVSPropertyOp24
 70
     0
102
RTVSPropertyOp25
 70
     0
102
RTVSPropertyOp26
 70
     0
102
RTVSPropertyOp27
 70
     0
  0
XRECORD
  5
32BC
102
{ACAD_REACTORS
330
32BB
102
}
330
32BB
100
AcDbXrecord
280
     1
102
RTVSPropertyOp0
 70
     1
102
RTVSPropertyOp1
 70
     1
102
RTVSPropertyOp2
 70
     1
102
RTVSPropertyOp3
 70
     1
102
RTVSPropertyOp4
 70
     1
102
RTVSPropertyOp5
 70
     1
102
RTVSPropertyOp6
 70
     1
102
RTVSPropertyOp7
 70
     1
102
RTVSPropertyOp8
 70
     1
102
RTVSPropertyOp9
 70
     1
102
RTVSPropertyOp10
 70
     1
102
RTVSPropertyOp11
 70
     1
102
RTVSPropertyOp12
 70
     1
102
RTVSPropertyOp13
 70
     1
102
RTVSPropertyOp14
 70
     1
102
RTVSPropertyOp15
 70
     1
102
RTVSPropertyOp16
 70
     1
102
RTVSPropertyOp17
 70
     1
102
RTVSPropertyOp18
 70
     1
102
RTVSPropertyOp19
 70
     1
102
RTVSPropertyOp20
 70
     1
102
RTVSPropertyOp21
 70
     1
102
RTVSPropertyOp22
 70
     1
102
RTVSPropertyOp23
 70
     1
102
RTVSPropertyOp24
 70
     1
102
RTVSPropertyOp25
 70
     1
102
RTVSPropertyOp26
 70
     1
102
RTVSPropertyOp27
 70
     1
  0
XRECORD
  5
32C4
102
{ACAD_REACTORS
330
32C3
102
}
330
32C3
100
AcDbXrecord
280
     1
102
RTVSPropertyOp0
 70
     0
102
RTVSPropertyOp1
 70
     0
102
RTVSPropertyOp2
 70
     0
102
RTVSPropertyOp3
 70
     0
102
RTVSPropertyOp4
 70
     0
102
RTVSPropertyOp5
 70
     0
102
RTVSPropertyOp6
 70
     0
102
RTVSPropertyOp7
 70
     0
102
RTVSPropertyOp8
 70
     0
102
RTVSPropertyOp9
 70
     0
102
RTVSPropertyOp10
 70
     0
102
RTVSPropertyOp11
 70
     0
102
RTVSPropertyOp12
 70
     0
102
RTVSPropertyOp13
 70
     0
102
RTVSPropertyOp14
 70
     2
102
RTVSPropertyOp15
 70
     0
102
RTVSPropertyOp16
 70
     0
102
RTVSPropertyOp17
 70
     0
102
RTVSPropertyOp18
 70
     0
102
RTVSPropertyOp19
 70
     0
102
RTVSPropertyOp20
 70
     0
102
RTVSPropertyOp21
 70
     0
102
RTVSPropertyOp22
 70
     0
102
RTVSPropertyOp23
 70
     0
102
RTVSPropertyOp24
 70
     0
102
RTVSPropertyOp25
 70
     0
102
RTVSPropertyOp26
 70
     0
102
RTVSPropertyOp27
 70
     0
  0
XRECORD
  5
32B4
102
{ACAD_REACTORS
330
32B3
102
}
330
32B3
100
AcDbXrecord
280
     1
102
RTVSPropertyOp0
 70
     1
102
RTVSPropertyOp1
 70
     1
102
RTVSPropertyOp2
 70
     1
102
RTVSPropertyOp3
 70
     1
102
RTVSPropertyOp4
 70
     1
102
RTVSPropertyOp5
 70
     1
102
RTVSPropertyOp6
 70
     1
102
RTVSPropertyOp7
 70
     1
102
RTVSPropertyOp8
 70
     1
102
RTVSPropertyOp9
 70
     1
102
RTVSPropertyOp10
 70
     1
102
RTVSPropertyOp11
 70
     1
102
RTVSPropertyOp12
 70
     1
102
RTVSPropertyOp13
 70
     1
102
RTVSPropertyOp14
 70
     1
102
RTVSPropertyOp15
 70
     1
102
RTVSPropertyOp16
 70
     1
102
RTVSPropertyOp17
 70
     1
102
RTVSPropertyOp18
 70
     1
102
RTVSPropertyOp19
 70
     1
102
RTVSPropertyOp20
 70
     1
102
RTVSPropertyOp21
 70
     1
102
RTVSPropertyOp22
 70
     1
102
RTVSPropertyOp23
 70
     1
102
RTVSPropertyOp24
 70
     1
102
RTVSPropertyOp25
 70
     1
102
RTVSPropertyOp26
 70
     1
102
RTVSPropertyOp27
 70
     1
  0
XRECORD
  5
32BA
102
{ACAD_REACTORS
330
32B9
102
}
330
32B9
100
AcDbXrecord
280
     1
102
RTVSPropertyOp0
 70
     1
102
RTVSPropertyOp1
 70
     1
102
RTVSPropertyOp2
 70
     1
102
RTVSPropertyOp3
 70
     1
102
RTVSPropertyOp4
 70
     1
102
RTVSPropertyOp5
 70
     1
102
RTVSPropertyOp6
 70
     1
102
RTVSPropertyOp7
 70
     1
102
RTVSPropertyOp8
 70
     1
102
RTVSPropertyOp9
 70
     1
102
RTVSPropertyOp10
 70
     1
102
RTVSPropertyOp11
 70
     1
102
RTVSPropertyOp12
 70
     1
102
RTVSPropertyOp13
 70
     1
102
RTVSPropertyOp14
 70
     1
102
RTVSPropertyOp15
 70
     1
102
RTVSPropertyOp16
 70
     1
102
RTVSPropertyOp17
 70
     1
102
RTVSPropertyOp18
 70
     1
102
RTVSPropertyOp19
 70
     1
102
RTVSPropertyOp20
 70
     1
102
RTVSPropertyOp21
 70
     1
102
RTVSPropertyOp22
 70
     1
102
RTVSPropertyOp23
 70
     1
102
RTVSPropertyOp24
 70
     1
102
RTVSPropertyOp25
 70
     1
102
RTVSPropertyOp26
 70
     1
102
RTVSPropertyOp27
 70
     1
  0
XRECORD
  5
39C1
102
{ACAD_REACTORS
330
39C0
102
}
330
39C0
100
AcDbXrecord
280
     1
102
RTVSPost2010Prop28
280
     0
102
RTVSPost2010PropOp28
 70
     1
102
RTVSPost2010Prop29
280
     1
102
RTVSPost2010PropOp29
 70
     1
102
RTVSPost2010Prop30
280
     1
102
RTVSPost2010PropOp30
 70
     1
102
RTVSPost2010Prop31
280
     0
102
RTVSPost2010PropOp31
 70
     1
102
RTVSPost2010Prop32
280
     0
102
RTVSPost2010PropOp32
 70
     1
102
RTVSPost2010Prop33
280
     0
102
RTVSPost2010PropOp33
 70
     1
102
RTVSPost2010Prop34
280
     0
102
RTVSPost2010PropOp34
 70
     1
102
RTVSPost2010Prop35
280
     0
102
RTVSPost2010PropOp35
 70
     1
102
RTVSPost2010Prop36
280
     0
102
RTVSPost2010PropOp36
 70
     1
102
RTVSPost2010Prop37
 90
       50
102
RTVSPost2010PropOp37
 70
     1
102
RTVSPost2010Prop38
140
0.0
102
RTVSPost2010PropOp38
 70
     1
102
RTVSPost2010Prop39
140
1.0
102
RTVSPost2010PropOp39
 70
     1
102
RTVSPost2010Prop40
 90
        0
102
RTVSPost2010PropOp40
 70
     1
102
RTVSPost2010Prop41ColorIndex
 90
       18
102
RTVSPost2010Prop41ColorRGB
 90
        0
102
RTVSPost2010PropOp41
 70
     1
102
RTVSPost2010Prop42
 90
       50
102
RTVSPost2010PropOp42
 70
     1
102
RTVSPost2010Prop43
 90
        3
102
RTVSPost2010PropOp43
 70
     1
102
RTVSPost2010Prop44ColorIndex
 90
        5
102
RTVSPost2010Prop44ColorRGB
 90
      255
102
RTVSPost2010PropOp44
 70
     1
102
RTVSPost2010Prop45
280
     0
102
RTVSPost2010PropOp45
 70
     1
102
RTVSPost2010Prop46
 90
       50
102
RTVSPost2010PropOp46
 70
     1
102
RTVSPost2010Prop47
 90
       50
102
RTVSPost2010PropOp47
 70
     1
102
RTVSPost2010Prop48
 90
       50
102
RTVSPost2010PropOp48
 70
     1
102
RTVSPost2010Prop49
280
     0
102
RTVSPost2010PropOp49
 70
     1
102
RTVSPost2010Prop50
 90
       50
102
RTVSPost2010PropOp50
 70
     1
102
RTVSPost2010Prop51ColorIndex
 90
      256
102
RTVSPost2010Prop51ColorRGB
 90
-16777216
102
RTVSPost2010PropOp51
 70
     0
102
RTVSPost2010Prop52
140
1.0
102
RTVSPost2010PropOp52
 70
     0
102
RTVSPost2010Prop53
 90
        2
102
RTVSPost2010PropOp53
 70
     1
102
RTVSPost2010Prop54
  1
strokes_ogs.tif
102
RTVSPost2010PropOp54
 70
     1
102
RTVSPost2010Prop55
280
     0
102
RTVSPost2010PropOp55
 70
     1
102
RTVSPost2010Prop56
140
1.0
102
RTVSPost2010PropOp56
 70
     1
102
RTVSPost2010Prop57
140
1.0
102
RTVSPost2010PropOp57
 70
     1
102
RTVSPropertyOp0
 70
     1
102
RTVSPropertyOp1
 70
     1
102
RTVSPropertyOp2
 70
     1
102
RTVSPropertyOp3
 70
     1
102
RTVSPropertyOp4
 70
     1
102
RTVSPropertyOp5
 70
     1
102
RTVSPropertyOp6
 70
     1
102
RTVSPropertyOp7
 70
     1
102
RTVSPropertyOp8
 70
     1
102
RTVSPropertyOp9
 70
     1
102
RTVSPropertyOp10
 70
     1
102
RTVSPropertyOp11
 70
     1
102
RTVSPropertyOp12
 70
     1
102
RTVSPropertyOp13
 70
     1
102
RTVSPropertyOp14
 70
     1
102
RTVSPropertyOp15
 70
     1
102
RTVSPropertyOp16
 70
     1
102
RTVSPropertyOp17
 70
     1
102
RTVSPropertyOp18
 70
     1
102
RTVSPropertyOp19
 70
     1
102
RTVSPropertyOp20
 70
     1
102
RTVSPropertyOp21
 70
     1
102
RTVSPropertyOp22
 70
     1
102
RTVSPropertyOp23
 70
     1
102
RTVSPropertyOp24
 70
     1
102
RTVSPropertyOp25
 70
     1
102
RTVSPropertyOp26
 70
     1
102
RTVSPropertyOp27
 70
     1
102
RTVSPropertyOp28
 70
     1
102
RTVSPropertyOp29
 70
     1
102
RTVSPropertyOp30
 70
     1
102
RTVSPropertyOp31
 70
     1
102
RTVSPropertyOp32
 70
     1
102
RTVSPropertyOp33
 70
     1
102
RTVSPropertyOp34
 70
     1
102
RTVSPropertyOp35
 70
     1
102
RTVSPropertyOp36
 70
     1
102
RTVSPropertyOp37
 70
     1
102
RTVSPropertyOp38
 70
     1
102
RTVSPropertyOp39
 70
     1
102
RTVSPropertyOp40
 70
     1
102
RTVSPropertyOp41
 70
     1
102
RTVSPropertyOp42
 70
     1
102
RTVSPropertyOp43
 70
     1
102
RTVSPropertyOp44
 70
     1
102
RTVSPropertyOp45
 70
     1
102
RTVSPropertyOp46
 70
     1
102
RTVSPropertyOp47
 70
     1
102
RTVSPropertyOp48
 70
     1
102
RTVSPropertyOp49
 70
     1
102
RTVSPropertyOp50
 70
     1
102
RTVSPropertyOp51
 70
     0
102
RTVSPropertyOp52
 70
     0
102
RTVSPropertyOp53
 70
     1
102
RTVSPropertyOp54
 70
     1
102
RTVSPropertyOp55
 70
     1
102
RTVSPropertyOp56
 70
     1
102
RTVSPropertyOp57
 70
     1
102
RTVSPropertyOp58
 70
     1
102
RTVSPropertyOp59
 70
     1
102
RTVSPropertyOp60
 70
     1
102
RTVSPropertyOp61
 70
     1
102
RTVSPropertyOp62
 70
     1
  0
ENDSEC
  0
EOF
