  0
SECTION
  2
HEADER
  9
$ACADVER
  1
AC1018
  9
$ACADMAINTVER
 70
   104
  9
$DWGCODEPAGE
  3
ANSI_1252
  9
$LASTSAVEDBY
  1
user
  9
$INSBASE
 10
0.0
 20
0.0
 30
0.0
  9
$EXTMIN
 10
1293.339576858908
 20
1276.612416019897
 30
0.0
  9
$EXTMAX
 10
1329.750289344921
 20
1298.467785269278
 30
0.0
  9
$LIMMIN
 10
0.0
 20
0.0
  9
$LIMMAX
 10
420.0
 20
297.0
  9
$ORTHOMODE
 70
     1
  9
$REGENMODE
 70
     1
  9
$FILLMODE
 70
     1
  9
$QTEXTMODE
 70
     0
  9
$MIRRTEXT
 70
     0
  9
$LTSCALE
 40
1.0
  9
$ATTMODE
 70
     1
  9
$TEXTSIZE
 40
0.3937
  9
$TRACEWID
 40
1.0
  9
$TEXTSTYLE
  7
\U+C2A4\U+D0C0\U+C77C2
  9
$CLAYER
  8
0
  9
$CELTYPE
  6
ByLayer
  9
$CECOLOR
 62
   256
  9
$CELTSCALE
 40
1.0
  9
$DISPSILH
 70
     0
  9
$DIMSCALE
 40
1.0
  9
$DIMASZ
 40
0.2
  9
$DIMEXO
 40
0.1
  9
$DIMDLI
 40
0.039
  9
$DIMRND
 40
0.0
  9
$DIMDLE
 40
0.0
  9
$DIMEXE
 40
0.2
  9
$DIMTP
 40
0.0
  9
$DIMTM
 40
0.0
  9
$DIMTXT
 40
2.5
  9
$DIMCEN
 40
0.039
  9
$DIMTSZ
 40
0.0
  9
$DIMTOL
 70
     0
  9
$DIMLIM
 70
     0
  9
$DIMTIH
 70
     0
  9
$DIMTOH
 70
     0
  9
$DIMSE1
 70
     0
  9
$DIMSE2
 70
     0
  9
$DIMTAD
 70
     1
  9
$DIMZIN
 70
     8
  9
$DIMBLK
  1

  9
$DIMASO
 70
     1
  9
$DIMSHO
 70
     1
  9
$DIMPOST
  1

  9
$DIMAPOST
  1

  9
$DIMALT
 70
     0
  9
$DIMALTD
 70
     2
  9
$DIMALTF
 40
0.0394
  9
$DIMLFAC
 40
1.0
  9
$DIMTOFL
 70
     1
  9
$DIMTVP
 40
1.0
  9
$DIMTIX
 70
     0
  9
$DIMSOXD
 70
     0
  9
$DIMSAH
 70
     0
  9
$DIMBLK1
  1

  9
$DIMBLK2
  1

  9
$DIMSTYLE
  2
DIN
  9
$DIMCLRD
 70
     0
  9
$DIMCLRE
 70
     0
  9
$DIMCLRT
 70
     0
  9
$DIMTFAC
 40
1.0
  9
$DIMGAP
 40
0.05
  9
$DIMJUST
 70
     0
  9
$DIMSD1
 70
     0
  9
$DIMSD2
 70
     0
  9
$DIMTOLJ
 70
     1
  9
$DIMTZIN
 70
     0
  9
$DIMALTZ
 70
     0
  9
$DIMALTTZ
 70
     0
  9
$DIMUPT
 70
     0
  9
$DIMDEC
 70
     4
  9
$DIMTDEC
 70
     4
  9
$DIMALTU
 70
     8
  9
$DIMALTTD
 70
     2
  9
$DIMTXSTY
  7
\U+C2A4\U+D0C0\U+C77C2
  9
$DIMAUNIT
 70
     0
  9
$DIMADEC
 70
     0
  9
$DIMALTRND
 40
0.0
  9
$DIMAZIN
 70
     0
  9
$DIMDSEP
 70
    46
  9
$DIMATFIT
 70
     3
  9
$DIMFRAC
 70
     0
  9
$DIMLDRBLK
  1

  9
$DIMLUNIT
 70
     6
  9
$DIMLWD
 70
    -2
  9
$DIMLWE
 70
    -2
  9
$DIMTMOVE
 70
     0
  9
$LUNITS
 70
     3
  9
$LUPREC
 70
     4
  9
$SKETCHINC
 40
1.0
  9
$FILLETRAD
 40
3.0
  9
$AUNITS
 70
     0
  9
$AUPREC
 70
     0
  9
$MENU
  1
.
  9
$ELEVATION
 40
0.0
  9
$PELEVATION
 40
0.0
  9
$THICKNESS
 40
0.0
  9
$LIMCHECK
 70
     0
  9
$CHAMFERA
 40
0.0
  9
$CHAMFERB
 40
0.0
  9
$CHAMFERC
 40
0.0
  9
$CHAMFERD
 40
0.0
  9
$SKPOLY
 70
     0
  9
$TDCREATE
 40
2454393.137688252
  9
$TDUCREATE
 40
2454393.346021586
  9
$TDUPDATE
 40
2458464.590921181
  9
$TDUUPDATE
 40
2458464.799254514
  9
$TDINDWG
 40
0.9400459144
  9
$TDUSRTIMER
 40
0.9400435648
  9
$USRTIMER
 70
     1
  9
$ANGBASE
 50
0.0
  9
$ANGDIR
 70
     0
  9
$PDMODE
 70
     0
  9
$PDSIZE
 40
0.0
  9
$PLINEWID
 40
0.0
  9
$SPLFRAME
 70
     0
  9
$SPLINETYPE
 70
     6
  9
$SPLINESEGS
 70
     8
  9
$HANDSEED
  5
378F
  9
$SURFTAB1
 70
     6
  9
$SURFTAB2
 70
     6
  9
$SURFTYPE
 70
     6
  9
$SURFU
 70
     6
  9
$SURFV
 70
     6
  9
$UCSBASE
  2

  9
$UCSNAME
  2

  9
$UCSORG
 10
0.0
 20
0.0
 30
0.0
  9
$UCSXDIR
 10
1.0
 20
0.0
 30
0.0
  9
$UCSYDIR
 10
0.0
 20
1.0
 30
0.0
  9
$UCSORTHOREF
  2

  9
$UCSORTHOVIEW
 70
     0
  9
$UCSORGTOP
 10
0.0
 20
0.0
 30
0.0
  9
$UCSORGBOTTOM
 10
0.0
 20
0.0
 30
0.0
  9
$UCSORGLEFT
 10
0.0
 20
0.0
 30
0.0
  9
$UCSORGRIGHT
 10
0.0
 20
0.0
 30
0.0
  9
$UCSORGFRONT
 10
0.0
 20
0.0
 30
0.0
  9
$UCSORGBACK
 10
0.0
 20
0.0
 30
0.0
  9
$PUCSBASE
  2

  9
$PUCSNAME
  2

  9
$PUCSORG
 10
0.0
 20
0.0
 30
0.0
  9
$PUCSXDIR
 10
1.0
 20
0.0
 30
0.0
  9
$PUCSYDIR
 10
0.0
 20
1.0
 30
0.0
  9
$PUCSORTHOREF
  2

  9
$PUCSORTHOVIEW
 70
     0
  9
$PUCSORGTOP
 10
0.0
 20
0.0
 30
0.0
  9
$PUCSORGBOTTOM
 10
0.0
 20
0.0
 30
0.0
  9
$PUCSORGLEFT
 10
0.0
 20
0.0
 30
0.0
  9
$PUCSORGRIGHT
 10
0.0
 20
0.0
 30
0.0
  9
$PUCSORGFRONT
 10
0.0
 20
0.0
 30
0.0
  9
$PUCSORGBACK
 10
0.0
 20
0.0
 30
0.0
  9
$USERI1
 70
     0
  9
$USERI2
 70
     0
  9
$USERI3
 70
     0
  9
$USERI4
 70
     0
  9
$USERI5
 70
     0
  9
$USERR1
 40
0.0
  9
$USERR2
 40
0.0
  9
$USERR3
 40
0.0
  9
$USERR4
 40
0.0
  9
$USERR5
 40
0.0
  9
$WORLDVIEW
 70
     1
  9
$SHADEDGE
 70
     3
  9
$SHADEDIF
 70
    70
  9
$TILEMODE
 70
     1
  9
$MAXACTVP
 70
    64
  9
$PINSBASE
 10
0.0
 20
0.0
 30
0.0
  9
$PLIMCHECK
 70
     0
  9
$PEXTMIN
 10
1.000000000000000E+20
 20
1.000000000000000E+20
 30
1.000000000000000E+20
  9
$PEXTMAX
 10
-1.000000000000000E+20
 20
-1.000000000000000E+20
 30
-1.000000000000000E+20
  9
$PLIMMIN
 10
0.0071835950613108
 20
0.0009369707933118
  9
$PLIMMAX
 10
841.0071835950612
 20
594.0009369707931
  9
$UNITMODE
 70
     0
  9
$VISRETAIN
 70
     1
  9
$PLINEGEN
 70
     0
  9
$PSLTSCALE
 70
     1
  9
$TREEDEPTH
 70
  3020
  9
$CMLSTYLE
  2
Standard
  9
$CMLJUST
 70
     0
  9
$CMLSCALE
 40
20.0
  9
$PROXYGRAPHICS
 70
     1
  9
$MEASUREMENT
 70
     1
  9
$CELWEIGHT
370
    -1
  9
$ENDCAPS
280
     0
  9
$JOINSTYLE
280
     0
  9
$LWDISPLAY
290
     0
  9
$INSUNITS
 70
     1
  9
$HYPERLINKBASE
  1

  9
$STYLESHEET
  1

  9
$XEDIT
290
     1
  9
$CEPSNTYPE
380
     0
  9
$PSTYLEMODE
290
     1
  9
$FINGERPRINTGUID
  2
{AC2FA5CB-6F18-4BC2-9C5F-F25C10372E5B}
  9
$VERSIONGUID
  2
{B8E92824-9032-42DA-90CB-50D47D51920F}
  9
$EXTNAMES
290
     1
  9
$PSVPSCALE
 40
0.0
  9
$OLESTARTUP
290
     0
  9
$SORTENTS
280
   127
  9
$INDEXCTL
280
     0
  9
$HIDETEXT
280
     0
  9
$XCLIPFRAME
290
     0
  9
$HALOGAP
280
     0
  9
$OBSCOLOR
 70
   257
  9
$OBSLTYPE
280
     0
  9
$INTERSECTIONDISPLAY
280
     0
  9
$INTERSECTIONCOLOR
 70
   257
  9
$DIMASSOC
280
     1
  9
$PROJECTNAME
  1

  0
ENDSEC
  0
SECTION
  2
CLASSES
  0
CLASS
  1
ACDBDICTIONARYWDFLT
  2
AcDbDictionaryWithDefault
  3
ObjectDBX Classes
 90
        0
 91
        1
280
     0
281
     0
  0
CLASS
  1
PLOTSETTINGS
  2
AcDbPlotSettings
  3
ObjectDBX Classes
 90
        0
 91
        0
280
     0
281
     0
  0
CLASS
  1
DICTIONARYVAR
  2
AcDbDictionaryVar
  3
ObjectDBX Classes
 90
        0
 91
        5
280
     0
281
     0
  0
CLASS
  1
TABLESTYLE
  2
AcDbTableStyle
  3
ObjectDBX Classes
 90
     4095
 91
        1
280
     0
281
     0
  0
CLASS
  1
DIMASSOC
  2
AcDbDimAssoc
  3
"AcDbDimAssoc|Product Desc:     AcDim ARX App For Dimension|Company:          Autodesk, Inc.|WEB Address:      www.autodesk.com"
 90
        0
 91
        0
280
     0
281
     0
  0
CLASS
  1
SORTENTSTABLE
  2
AcDbSortentsTable
  3
ObjectDBX Classes
 90
        0
 91
        2
280
     0
281
     0
  0
CLASS
  1
MATERIAL
  2
AcDbMaterial
  3
ObjectDBX Classes
 90
     1024
 91
        3
280
     0
281
     0
  0
CLASS
  1
VISUALSTYLE
  2
AcDbVisualStyle
  3
ObjectDBX Classes
 90
     4095
 91
       16
280
     0
281
     0
  0
ENDSEC
  0
SECTION
  2
TABLES
  0
TABLE
  2
VPORT
  5
19
330
0
100
AcDbSymbolTable
 70
     1
  0
VPORT
  5
3158
330
19
100
AcDbSymbolTableRecord
100
AcDbViewportTableRecord
  2
*Active
 70
     0
 10
0.0
 20
0.0
 11
1.0
 21
1.0
 12
1314.7363780919
 22
1285.688820977857
 13
0.0
 23
0.0
 14
10.0
 24
10.0
 15
10.0
 25
10.0
 16
0.0
 26
0.0
 36
1.0
 17
0.0
 27
0.0
 37
0.0
 40
12.55948291260952
 41
3.557324840764331
 42
50.0
 43
0.0
 44
0.0
 50
0.0
 51
0.0
 71
     0
 72
  1000
 73
     1
 74
     3
 75
     0
 76
     0
 77
     0
 78
     0
281
     0
 65
     1
110
0.0
120
0.0
130
0.0
111
1.0
121
0.0
131
0.0
112
0.0
122
1.0
132
0.0
 79
     0
146
0.0
  0
ENDTAB
  0
TABLE
  2
LTYPE
  5
14
330
0
100
AcDbSymbolTable
 70
     2
  0
LTYPE
  5
15
330
14
100
AcDbSymbolTableRecord
100
AcDbLinetypeTableRecord
  2
ByBlock
 70
     0
  3

 72
    65
 73
     0
 40
0.0
  0
LTYPE
  5
16
330
14
100
AcDbSymbolTableRecord
100
AcDbLinetypeTableRecord
  2
ByLayer
 70
     0
  3

 72
    65
 73
     0
 40
0.0
  0
LTYPE
  5
8
330
14
100
AcDbSymbolTableRecord
100
AcDbLinetypeTableRecord
  2
Continuous
 70
     0
  3
Solid line
 72
    65
 73
     0
 40
0.0
  0
LTYPE
  5
1811
330
14
100
AcDbSymbolTableRecord
100
AcDbLinetypeTableRecord
  2
ACAD_ISO04W100
 70
     0
  3
ISO long-dash dot ____ . ____ . ____ . ____ . _
 72
    65
 73
     4
 40
30.0
 49
24.0
 74
     0
 49
-3.0
 74
     0
 49
0.0
 74
     0
 49
-3.0
 74
     0
  0
ENDTAB
  0
TABLE
  2
LAYER
  5
10
102
{ACAD_XDICTIONARY
360
1CC0
102
}
330
0
100
AcDbSymbolTable
 70
    25
  0
LAYER
  5
4
330
10
100
AcDbSymbolTableRecord
100
AcDbLayerTableRecord
  2
0
 70
     0
 62
     7
  6
Continuous
370
    -3
390
5
  0
LAYER
  5
8E
330
10
100
AcDbSymbolTableRecord
100
AcDbLayerTableRecord
  2
07
 70
     0
 62
     7
  6
Continuous
370
    -3
390
5
  0
LAYER
  5
8F
330
10
100
AcDbSymbolTableRecord
100
AcDbLayerTableRecord
  2
035
 70
     0
 62
     5
  6
Continuous
370
    -3
390
5
  0
LAYER
  5
90
330
10
100
AcDbSymbolTableRecord
100
AcDbLayerTableRecord
  2
05
 70
     0
 62
     6
  6
Continuous
370
    -3
390
5
  0
LAYER
  5
91
330
10
100
AcDbSymbolTableRecord
100
AcDbLayerTableRecord
  2
025
 70
     0
 62
     1
  6
Continuous
370
    -3
390
5
  0
LAYER
  5
5CE
330
10
100
AcDbSymbolTableRecord
100
AcDbLayerTableRecord
  2
Defpoints
 70
     0
 62
     7
  6
Continuous
290
     0
370
    -3
390
5
  0
LAYER
  5
62B
330
10
100
AcDbSymbolTableRecord
100
AcDbLayerTableRecord
  2
\U+7C97\U+5B9E\U+7EBF
 70
     0
 62
     7
  6
Continuous
370
    30
390
5
  0
LAYER
  5
62C
330
10
100
AcDbSymbolTableRecord
100
AcDbLayerTableRecord
  2
\U+6807\U+6CE8\U+7EBF
 70
     0
 62
     7
  6
Continuous
370
    13
390
5
  0
LAYER
  5
1812
330
10
100
AcDbSymbolTableRecord
100
AcDbLayerTableRecord
  2
\U+4E2D\U+5FC3\U+7EBF
 70
     0
 62
     7
  6
ACAD_ISO04W100
370
    18
390
5
  0
LAYER
  5
26BA
330
10
100
AcDbSymbolTableRecord
100
AcDbLayerTableRecord
  2
LC-001-002-----0
 70
     0
 62
     1
  6
ByBlock
370
    -3
390
5
  0
LAYER
  5
26BB
330
10
100
AcDbSymbolTableRecord
100
AcDbLayerTableRecord
  2
LC-002-002-RND-0
 70
     0
 62
     1
  6
ByBlock
370
    -3
390
5
  0
LAYER
  5
26BC
330
10
100
AcDbSymbolTableRecord
100
AcDbLayerTableRecord
  2
LC-003-001-RND-0
 70
     0
 62
     1
  6
ByBlock
370
    -3
390
5
  0
LAYER
  5
26BD
330
10
100
AcDbSymbolTableRecord
100
AcDbLayerTableRecord
  2
LC-004-001-----0
 70
     0
 62
     1
  6
ByBlock
370
    -3
390
5
  0
LAYER
  5
26BE
330
10
100
AcDbSymbolTableRecord
100
AcDbLayerTableRecord
  2
LC-005-005-----0
 70
     0
 62
     2
  6
ByBlock
370
    -3
390
5
  0
LAYER
  5
2762
330
10
100
AcDbSymbolTableRecord
100
AcDbLayerTableRecord
  2
LC-002-001-RND-0
 70
     0
 62
     1
  6
ByBlock
370
    -3
390
5
  0
LAYER
  5
2763
330
10
100
AcDbSymbolTableRecord
100
AcDbLayerTableRecord
  2
LC-003-001-----0
 70
     0
 62
     1
  6
ByBlock
370
    -3
390
5
  0
LAYER
  5
2764
330
10
100
AcDbSymbolTableRecord
100
AcDbLayerTableRecord
  2
LC-004-005-----0
 70
     0
 62
     2
  6
ByBlock
370
    -3
390
5
  0
LAYER
  5
29AA
330
10
100
AcDbSymbolTableRecord
100
AcDbLayerTableRecord
  2
LC-002-020-----0
 70
     0
 62
     1
  6
ByBlock
370
    -3
390
5
  0
LAYER
  5
29AB
330
10
100
AcDbSymbolTableRecord
100
AcDbLayerTableRecord
  2
LC-003-005-----0
 70
     0
 62
     2
  6
ByBlock
370
    -3
390
5
  0
LAYER
  5
2A31
330
10
100
AcDbSymbolTableRecord
100
AcDbLayerTableRecord
  2
LC-004-003-MTG-0
 70
     0
 62
     2
  6
ByBlock
370
    -3
390
5
  0
LAYER
  5
2A32
330
10
100
AcDbSymbolTableRecord
100
AcDbLayerTableRecord
  2
LC-005-003-----0
 70
     0
 62
     2
  6
ByBlock
370
    -3
390
5
  0
LAYER
  5
2AD2
330
10
100
AcDbSymbolTableRecord
100
AcDbLayerTableRecord
  2
LC-004-003-----0
 70
     0
 62
     2
  6
ByBlock
370
    -3
390
5
  0
LAYER
  5
2DCD
330
10
100
AcDbSymbolTableRecord
100
AcDbLayerTableRecord
  2
LC-001-002-RND-0
 70
     0
 62
     1
  6
ByBlock
370
    -3
390
5
  0
LAYER
  5
2DCE
330
10
100
AcDbSymbolTableRecord
100
AcDbLayerTableRecord
  2
LC-002-002-----0
 70
     0
 62
     1
  6
ByBlock
370
    -3
390
5
  0
LAYER
  5
31A5
330
10
100
AcDbSymbolTableRecord
100
AcDbLayerTableRecord
  2
1
 70
     0
 62
     7
  6
Continuous
370
    -3
390
5
  0
ENDTAB
  0
TABLE
  2
STYLE
  5
11
330
0
100
AcDbSymbolTable
 70
     8
  0
STYLE
  5
12
330
11
100
AcDbSymbolTableRecord
100
AcDbTextStyleTableRecord
  2
Standard
 70
     0
 40
0.0
 41
1.0
 50
0.0
 71
     0
 42
2.5
  3
txt
  4

  0
STYLE
  5
31
330
11
100
AcDbSymbolTableRecord
100
AcDbTextStyleTableRecord
  2
ISO Proportional
 70
     0
 40
0.0
 41
1.0
 50
0.0
 71
     0
 42
2.5
  3
isocp.shx
  4

  0
STYLE
  5
B96
330
11
100
AcDbSymbolTableRecord
100
AcDbTextStyleTableRecord
  2
\U+C2A4\U+D0C0\U+C77C1
 70
     0
 40
0.1968
 41
1.0
 50
0.0
 71
     0
 42
2.5
  3
txt.shx
  4

  0
STYLE
  5
B97
330
11
100
AcDbSymbolTableRecord
100
AcDbTextStyleTableRecord
  2
\U+C2A4\U+D0C0\U+C77C2
 70
     0
 40
0.3937
 41
1.0
 50
0.0
 71
     0
 42
0.3937
  3
txt.shx
  4

  0
STYLE
  5
2A33
330
11
100
AcDbSymbolTableRecord
100
AcDbTextStyleTableRecord
  2
LCTX0-400-0-0pDIN-Schrift
 70
     0
 40
0.0
 41
0.7
 50
0.0
 71
     0
 42
3.5
  3
TXT
  4

  0
STYLE
  5
3571
330
11
100
AcDbSymbolTableRecord
100
AcDbTextStyleTableRecord
  2
Default
 70
     0
 40
0.0
 41
1.0
 50
0.0
 71
     0
 42
0.2
  3
txt_____.ttf
  4

1001
ACAD
1000
txt
1071
        0
  0
STYLE
  5
3572
330
11
100
AcDbSymbolTableRecord
100
AcDbTextStyleTableRecord
  2
ANSI
 70
     0
 40
0.0
 41
1.0
 50
0.0
 71
     0
 42
0.2
  3
txt_____.ttf
  4

1001
ACAD
1000
txt
1071
        0
  0
STYLE
  5
373F
330
11
100
AcDbSymbolTableRecord
100
AcDbTextStyleTableRecord
  2
TSTYLE10
 70
     0
 40
0.0
 41
1.0
 50
0.0
 71
     0
 42
0.2
  3
arial.ttf
  4

1001
ACAD
1000
Arial
1071
        0
  0
ENDTAB
  0
TABLE
  2
VIEW
  5
17
330
0
100
AcDbSymbolTable
 70
     0
  0
ENDTAB
  0
TABLE
  2
UCS
  5
18
330
0
100
AcDbSymbolTable
 70
     0
  0
ENDTAB
  0
TABLE
  2
APPID
  5
1B
330
0
100
AcDbSymbolTable
 70
    13
  0
APPID
  5
1C
330
1B
100
AcDbSymbolTableRecord
100
AcDbRegAppTableRecord
  2
ACAD
 70
     0
  0
APPID
  5
346
330
1B
100
AcDbSymbolTableRecord
100
AcDbRegAppTableRecord
  2
GENIUS_GENTRA_14
 70
     0
  0
APPID
  5
347
330
1B
100
AcDbSymbolTableRecord
100
AcDbRegAppTableRecord
  2
GENIUS_GENODEF_13
 70
     0
  0
APPID
  5
348
330
1B
100
AcDbSymbolTableRecord
100
AcDbRegAppTableRecord
  2
GENIUS_GENOBJ-N-TIT_13
 70
     0
  0
APPID
  5
349
330
1B
100
AcDbSymbolTableRecord
100
AcDbRegAppTableRecord
  2
GENIUS_GENTITLE_13
 70
     0
  0
APPID
  5
34A
330
1B
100
AcDbSymbolTableRecord
100
AcDbRegAppTableRecord
  2
GENIUS_GENOENT_13
 70
     0
  0
APPID
  5
34B
330
1B
100
AcDbSymbolTableRecord
100
AcDbRegAppTableRecord
  2
GENIUS_GENOREF_13
 70
     0
  0
APPID
  5
34C
330
1B
100
AcDbSymbolTableRecord
100
AcDbRegAppTableRecord
  2
GENIUS_GENOLIS_13
 70
     0
  0
APPID
  5
34D
330
1B
100
AcDbSymbolTableRecord
100
AcDbRegAppTableRecord
  2
GENIUS_GENOBJ-N-SDF_13
 70
     0
  0
APPID
  5
34E
330
1B
100
AcDbSymbolTableRecord
100
AcDbRegAppTableRecord
  2
GENIUS_GENSCREG_13
 70
     0
  0
APPID
  5
886
330
1B
100
AcDbSymbolTableRecord
100
AcDbRegAppTableRecord
  2
ACAD_DSTYLE_DIMTEXT_FILL
 70
     0
  0
APPID
  5
B8B
330
1B
100
AcDbSymbolTableRecord
100
AcDbRegAppTableRecord
  2
ACAD_PSEXT
 70
     0
  0
APPID
  5
378E
330
1B
100
AcDbSymbolTableRecord
100
AcDbRegAppTableRecord
  2
ACAD_DSTYLE_DIMEXT_LENGTH
 70
     0
  0
ENDTAB
  0
TABLE
  2
DIMSTYLE
  5
1D
330
0
100
AcDbSymbolTable
 70
     9
100
AcDbDimStyleTable
 71
     1
340
1E
  0
DIMSTYLE
105
1E
330
1D
100
AcDbSymbolTableRecord
100
AcDbDimStyleTableRecord
  2
DIN
 70
     0
 41
2.5
 42
0.625
 43
3.75
 44
1.25
 74
     0
 77
     1
 78
     8
140
2.5
141
2.5
143
0.0394
145
1.0
147
0.625
172
     1
273
     8
277
     6
340
12
  0
DIMSTYLE
105
62D
330
1D
100
AcDbSymbolTableRecord
100
AcDbDimStyleTableRecord
  2
ISO-25
 70
     0
 41
10.0
 42
0.625
 43
3.75
 44
10.0
 73
     0
 74
     0
 77
     1
 78
     8
140
20.0
141
2.5
143
0.03937007874016
147
10.0
171
     3
172
     1
271
     2
272
     2
274
     3
278
    44
279
     1
283
     0
284
     8
340
12
  0
DIMSTYLE
105
62E
330
1D
100
AcDbSymbolTableRecord
100
AcDbDimStyleTableRecord
  2
\U+526F\U+672CISO-25
 70
     0
 41
15.0
 42
0.625
 43
3.75
 44
2.0
 73
     0
 74
     0
 77
     1
 78
     8
140
22.0
141
2.5
143
0.03937007874016
147
10.0
171
     3
179
     1
271
     1
272
     1
274
     3
278
    44
279
     1
283
     0
284
     8
340
12
  0
DIMSTYLE
105
62F
330
1D
100
AcDbSymbolTableRecord
100
AcDbDimStyleTableRecord
  2
\U+526F\U+672C (2)ISO-25
 70
     0
 41
10.0
 42
0.625
 43
3.75
 44
10.0
 73
     0
 74
     0
 77
     1
 78
     8
140
10.0
141
2.5
143
0.03937007874016
147
10.0
171
     3
172
     1
271
     2
272
     2
274
     3
278
    44
283
     0
284
     8
340
12
  0
DIMSTYLE
105
1FA0
330
1D
100
AcDbSymbolTableRecord
100
AcDbDimStyleTableRecord
  2
Standard
 70
     0
 41
25.0
 42
5.0
 43
2.0
 44
5.0
 73
     0
 74
     0
 77
     1
 78
    12
 79
     3
140
30.0
141
4.0
147
4.0
179
     2
340
12
  0
DIMSTYLE
105
2AD3
330
1D
100
AcDbSymbolTableRecord
100
AcDbDimStyleTableRecord
  2
LC-DIM-L-0025-02-02
 70
     0
 41
2.5
 42
0.0
 43
7.5
 44
1.8
 73
     0
 74
     0
 77
     1
 78
     8
 79
     2
140
2.5
141
0.0
146
0.71
147
1.5
172
     1
176
     2
177
     2
178
     2
179
     2
271
     2
278
    44
289
     1
340
2A33
  0
DIMSTYLE
105
2AD4
330
1D
100
AcDbSymbolTableRecord
100
AcDbDimStyleTableRecord
  2
LC-DIM-R-0025-02-02
 70
     0
 41
2.5
 42
0.0
 43
7.5
 44
1.8
 73
     0
 74
     0
 77
     1
 78
     8
 79
     2
140
2.5
141
0.0
146
0.71
147
1.5
176
     2
177
     2
178
     2
179
     2
271
     2
278
    44
289
     1
340
2A33
  0
DIMSTYLE
105
3573
102
{ACAD_REACTORS
330
361B
330
361C
102
}
330
1D
100
AcDbSymbolTableRecord
100
AcDbDimStyleTableRecord
  2
Default
 70
     0
  3
<>
 41
4.375
 42
1.05
 44
2.1
 73
     0
 74
     0
 77
     1
 78
     8
140
3.5
146
0.4
147
1.75
172
     1
178
     2
271
     2
272
     3
284
     8
340
3571
341
3554
342
3554
1001
ACAD_DSTYLE_DIMEXT_LENGTH
1070
   378
1040
10.01
  0
DIMSTYLE
105
3740
102
{ACAD_REACTORS
330
3749
102
}
330
1D
100
AcDbSymbolTableRecord
100
AcDbDimStyleTableRecord
  2
DSTYLE8
 70
     0
  3
<>
 41
35.0
 42
58.242514
 44
16.666667
 73
     0
 74
     0
 77
     1
140
50.0
146
0.6
147
17.5
172
     1
178
     2
271
     0
340
373F
1001
ACAD_DSTYLE_DIMEXT_LENGTH
1070
   378
1040
143.0
  0
ENDTAB
  0
TABLE
  2
BLOCK_RECORD
  5
1
330
0
100
AcDbSymbolTable
 70
    30
  0
BLOCK_RECORD
  5
2
102
{ACAD_XDICTIONARY
360
95E
102
}
330
1
100
AcDbSymbolTableRecord
100
AcDbBlockTableRecord
  2
*Model_Space
340
A
  0
BLOCK_RECORD
  5
C
330
1
100
AcDbSymbolTableRecord
100
AcDbBlockTableRecord
  2
*Paper_Space
340
F
  0
BLOCK_RECORD
  5
2A1A
330
1
100
AcDbSymbolTableRecord
100
AcDbBlockTableRecord
  2
LCDIM1
340
0
  0
BLOCK_RECORD
  5
3062
330
1
100
AcDbSymbolTableRecord
100
AcDbBlockTableRecord
  2
*X1
340
0
  0
BLOCK_RECORD
  5
307C
330
1
100
AcDbSymbolTableRecord
100
AcDbBlockTableRecord
  2
*X2
340
0
  0
BLOCK_RECORD
  5
30F5
330
1
100
AcDbSymbolTableRecord
100
AcDbBlockTableRecord
  2
*D3
340
0
  0
BLOCK_RECORD
  5
3102
330
1
100
AcDbSymbolTableRecord
100
AcDbBlockTableRecord
  2
*D4
340
0
  0
BLOCK_RECORD
  5
310F
330
1
100
AcDbSymbolTableRecord
100
AcDbBlockTableRecord
  2
*D5
340
0
  0
BLOCK_RECORD
  5
3118
330
1
100
AcDbSymbolTableRecord
100
AcDbBlockTableRecord
  2
*D6
340
0
  0
BLOCK_RECORD
  5
3175
330
1
100
AcDbSymbolTableRecord
100
AcDbBlockTableRecord
  2
*D7
340
0
  0
BLOCK_RECORD
  5
3182
330
1
100
AcDbSymbolTableRecord
100
AcDbBlockTableRecord
  2
*D8
340
0
  0
BLOCK_RECORD
  5
318F
330
1
100
AcDbSymbolTableRecord
100
AcDbBlockTableRecord
  2
*D9
340
0
  0
BLOCK_RECORD
  5
319A
330
1
100
AcDbSymbolTableRecord
100
AcDbBlockTableRecord
  2
*D10
340
0
  0
BLOCK_RECORD
  5
31D6
330
1
100
AcDbSymbolTableRecord
100
AcDbBlockTableRecord
  2
*D11
340
0
  0
BLOCK_RECORD
  5
31E2
330
1
100
AcDbSymbolTableRecord
100
AcDbBlockTableRecord
  2
*D12
340
0
  0
BLOCK_RECORD
  5
31EC
330
1
100
AcDbSymbolTableRecord
100
AcDbBlockTableRecord
  2
*D13
340
0
  0
BLOCK_RECORD
  5
31F6
330
1
100
AcDbSymbolTableRecord
100
AcDbBlockTableRecord
  2
*D14
340
0
  0
BLOCK_RECORD
  5
3259
330
1
100
AcDbSymbolTableRecord
100
AcDbBlockTableRecord
  2
*D15
340
0
  0
BLOCK_RECORD
  5
3266
330
1
100
AcDbSymbolTableRecord
100
AcDbBlockTableRecord
  2
*D16
340
0
  0
BLOCK_RECORD
  5
32AF
330
1
100
AcDbSymbolTableRecord
100
AcDbBlockTableRecord
  2
*D17
340
0
  0
BLOCK_RECORD
  5
32BB
330
1
100
AcDbSymbolTableRecord
100
AcDbBlockTableRecord
  2
*D18
340
0
  0
BLOCK_RECORD
  5
3554
330
1
100
AcDbSymbolTableRecord
100
AcDbBlockTableRecord
  2
_CLOSED
340
0
102
{BLKREFS
331
356A
331
356B
331
35E0
331
35E1
331
35ED
331
35EE
331
35FB
331
35FC
331
3720
331
3721
331
3729
331
372A
102
}
  0
BLOCK_RECORD
  5
355B
330
1
100
AcDbSymbolTableRecord
100
AcDbBlockTableRecord
  2
.TD_DIMENSION_1
340
0
  0
BLOCK_RECORD
  5
3563
330
1
100
AcDbSymbolTableRecord
100
AcDbBlockTableRecord
  2
*D21
340
0
  0
BLOCK_RECORD
  5
3591
330
1
100
AcDbSymbolTableRecord
100
AcDbBlockTableRecord
  2
*D22
340
0
  0
BLOCK_RECORD
  5
35E6
330
1
100
AcDbSymbolTableRecord
100
AcDbBlockTableRecord
  2
*D23
340
0
  0
BLOCK_RECORD
  5
35F4
330
1
100
AcDbSymbolTableRecord
100
AcDbBlockTableRecord
  2
*D24
340
0
  0
BLOCK_RECORD
  5
361E
330
1
100
AcDbSymbolTableRecord
100
AcDbBlockTableRecord
  2
*D25
340
0
  0
BLOCK_RECORD
  5
362C
330
1
100
AcDbSymbolTableRecord
100
AcDbBlockTableRecord
  2
*D26
340
0
  0
BLOCK_RECORD
  5
3735
330
1
100
AcDbSymbolTableRecord
100
AcDbBlockTableRecord
  2
*D27
340
0
  0
BLOCK_RECORD
  5
374A
330
1
100
AcDbSymbolTableRecord
100
AcDbBlockTableRecord
  2
*D28
340
0
  0
ENDTAB
  0
ENDSEC
  0
SECTION
  2
BLOCKS
  0
BLOCK
  5
3
330
2
100
AcDbEntity
  8
0
100
AcDbBlockBegin
  2
*Model_Space
 70
     2
 10
0.0
 20
0.0
 30
0.0
  3
*Model_Space
  1

  0
ENDBLK
  5
9
330
2
100
AcDbEntity
  8
0
100
AcDbBlockEnd
  0
BLOCK
  5
D
330
C
100
AcDbEntity
 67
     1
  8
0
100
AcDbBlockBegin
  2
*Paper_Space
 70
     0
 10
0.0
 20
0.0
 30
0.0
  3
*Paper_Space
  1

  0
ENDBLK
  5
E
330
C
100
AcDbEntity
 67
     1
  8
0
100
AcDbBlockEnd
  0
BLOCK
  5
2A1B
330
2A1A
100
AcDbEntity
  8
0
100
AcDbBlockBegin
  2
LCDIM1
 70
     0
 10
0.0
 20
0.0
 30
0.0
  3
LCDIM1
  1

  4
LCDIM1
  0
LINE
  5
2A1C
330
2A1A
100
AcDbEntity
  8
LC-004-003-MTG-0
 62
     7
370
    25
100
AcDbLine
 10
530.6772829999998
 20
541.813267
 30
0.0
 11
572.0219369999997
 21
549.203774
 31
0.0
  0
LINE
  5
2A1D
330
2A1A
100
AcDbEntity
  8
LC-005-003-----0
 62
     7
370
    25
100
AcDbLine
 10
533.0598
 20
542.5706389999998
 30
0.0
 11
530.6772829999998
 21
541.813267
 31
0.0
  0
LINE
  5
2A1E
330
2A1A
100
AcDbEntity
  8
LC-005-003-----0
 62
     7
370
    25
100
AcDbLine
 10
530.6772829999998
 20
541.813267
 30
0.0
 11
533.17464
 21
541.9281909999998
 31
0.0
  0
LINE
  5
2A1F
330
2A1A
100
AcDbEntity
  8
LC-005-003-----0
 62
     7
370
    25
100
AcDbLine
 10
533.17464
 20
541.9281909999998
 30
0.0
 11
533.0598
 21
542.5706389999998
 31
0.0
  0
LINE
  5
2A20
330
2A1A
100
AcDbEntity
  8
LC-005-003-----0
 62
     7
370
    25
100
AcDbLine
 10
533.080204
 20
542.488099
 30
0.0
 11
531.3171409999998
 21
541.9276439999999
 31
0.0
  0
LINE
  5
2A21
330
2A1A
100
AcDbEntity
  8
LC-005-003-----0
 62
     7
370
    25
100
AcDbLine
 10
531.3171409999998
 20
541.9276439999999
 30
0.0
 11
533.1651849999998
 21
542.012688
 31
0.0
  0
LINE
  5
2A22
330
2A1A
100
AcDbEntity
  8
LC-005-003-----0
 62
     7
370
    25
100
AcDbLine
 10
533.100607
 20
542.405559
 30
0.0
 11
531.9569979999998
 21
542.0420209999998
 31
0.0
  0
LINE
  5
2A23
330
2A1A
100
AcDbEntity
  8
LC-005-003-----0
 62
     7
370
    25
100
AcDbLine
 10
531.9569979999998
 20
542.0420209999998
 30
0.0
 11
533.1557299999998
 21
542.0971839999999
 31
0.0
  0
LINE
  5
2A24
330
2A1A
100
AcDbEntity
  8
LC-005-003-----0
 62
     7
370
    25
100
AcDbLine
 10
533.1210099999998
 20
542.32302
 30
0.0
 11
532.5968559999998
 21
542.1563980000001
 31
0.0
  0
LINE
  5
2A25
330
2A1A
100
AcDbEntity
  8
LC-005-003-----0
 62
     7
370
    25
100
AcDbLine
 10
532.5968559999998
 20
542.1563980000001
 30
0.0
 11
533.1462749999998
 21
542.1816809999998
 31
0.0
  0
LINE
  5
2A26
330
2A1A
100
AcDbEntity
  8
LC-005-003-----0
 62
     7
370
    25
100
AcDbLine
 10
569.6394199999997
 20
548.4464019999998
 30
0.0
 11
572.0219369999997
 21
549.203774
 31
0.0
  0
LINE
  5
2A27
330
2A1A
100
AcDbEntity
  8
LC-005-003-----0
 62
     7
370
    25
100
AcDbLine
 10
572.0219369999997
 20
549.203774
 30
0.0
 11
569.52458
 21
549.0888499999998
 31
0.0
  0
LINE
  5
2A28
330
2A1A
100
AcDbEntity
  8
LC-005-003-----0
 62
     7
370
    25
100
AcDbLine
 10
569.52458
 20
549.0888499999998
 30
0.0
 11
569.6394199999997
 21
548.4464019999998
 31
0.0
  0
LINE
  5
2A29
330
2A1A
100
AcDbEntity
  8
LC-005-003-----0
 62
     7
370
    25
100
AcDbLine
 10
569.6190159999997
 20
548.5289419999998
 30
0.0
 11
571.3820789999997
 21
549.089397
 31
0.0
  0
LINE
  5
2A2A
330
2A1A
100
AcDbEntity
  8
LC-005-003-----0
 62
     7
370
    25
100
AcDbLine
 10
571.3820789999997
 20
549.089397
 30
0.0
 11
569.534035
 21
549.004353
 31
0.0
  0
LINE
  5
2A2B
330
2A1A
100
AcDbEntity
  8
LC-005-003-----0
 62
     7
370
    25
100
AcDbLine
 10
569.598613
 20
548.611482
 30
0.0
 11
570.7422209999997
 21
548.9750199999998
 31
0.0
  0
LINE
  5
2A2C
330
2A1A
100
AcDbEntity
  8
LC-005-003-----0
 62
     7
370
    25
100
AcDbLine
 10
570.7422209999997
 20
548.9750199999998
 30
0.0
 11
569.54349
 21
548.919856
 31
0.0
  0
LINE
  5
2A2D
330
2A1A
100
AcDbEntity
  8
LC-005-003-----0
 62
     7
370
    25
100
AcDbLine
 10
569.57821
 20
548.694021
 30
0.0
 11
570.1023639999997
 21
548.8606429999999
 31
0.0
  0
LINE
  5
2A2E
330
2A1A
100
AcDbEntity
  8
LC-005-003-----0
 62
     7
370
    25
100
AcDbLine
 10
570.1023639999997
 20
548.8606429999999
 30
0.0
 11
569.552945
 21
548.8353599999998
 31
0.0
  0
TEXT
  5
2A2F
330
2A1A
100
AcDbEntity
  8
LC-005-003-----0
 62
     7
370
    25
100
AcDbText
 10
540.1123619545855
 20
545.0235976179942
 30
0.0
 40
2.5
  1
%%c420 (16.54")
 50
10.134788
 41
0.7
  7
LCTX0-400-0-0pDIN-Schrift
 72
     1
 11
549.1565049999998
 21
546.6402709999998
 31
0.0
100
AcDbText
  0
ENDBLK
  5
2A30
330
2A1A
100
AcDbEntity
  8
0
100
AcDbBlockEnd
  0
BLOCK
  5
3063
330
3062
100
AcDbEntity
  8
0
100
AcDbBlockBegin
  2
*X1
 70
     1
 10
0.0
 20
0.0
 30
0.0
  3
*X1
  1

  4
*X1
  0
LINE
  5
3064
330
3062
100
AcDbEntity
  8
LC-003-005-----0
 62
     7
370
    25
100
AcDbLine
 10
703.080211
 20
411.7522169999999
 30
0.0
 11
704.1397809999997
 21
412.811787
 31
0.0
  0
LINE
  5
3065
330
3062
100
AcDbEntity
  8
LC-003-005-----0
 62
     7
370
    25
100
AcDbLine
 10
700.8973089999997
 20
412.397742
 30
0.0
 11
704.410961
 21
415.911394
 31
0.0
  0
LINE
  5
3066
330
3062
100
AcDbEntity
  8
LC-003-005-----0
 62
     7
370
    25
100
AcDbLine
 10
732.696777
 20
444.197211
 30
0.0
 11
733.498909
 21
444.9993429999998
 31
0.0
  0
LINE
  5
3067
330
3062
100
AcDbEntity
  8
LC-003-005-----0
 62
     7
370
    25
100
AcDbLine
 10
698.7144059999997
 20
413.043267
 30
0.0
 11
704.682142
 21
419.011002
 31
0.0
  0
LINE
  5
3068
330
3062
100
AcDbEntity
  8
LC-003-005-----0
 62
     7
370
    25
100
AcDbLine
 10
729.86835
 20
444.197211
 30
0.0
 11
733.314053
 21
447.6429129999998
 31
0.0
  0
LINE
  5
3069
330
3062
100
AcDbEntity
  8
LC-003-005-----0
 62
     7
370
    25
100
AcDbLine
 10
696.531504
 20
413.688791
 30
0.0
 11
704.9533219999997
 21
422.1106099999998
 31
0.0
  0
LINE
  5
306A
330
3062
100
AcDbEntity
  8
LC-003-005-----0
 62
     7
370
    25
100
AcDbLine
 10
727.039923
 20
444.197211
 30
0.0
 11
732.8384039999997
 21
449.995692
 31
0.0
  0
LINE
  5
306B
330
3062
100
AcDbEntity
  8
LC-003-005-----0
 62
     7
370
    25
100
AcDbLine
 10
696.424
 20
416.4097139999998
 30
0.0
 11
705.224503
 21
425.2102169999998
 31
0.0
  0
LINE
  5
306C
330
3062
100
AcDbEntity
  8
LC-003-005-----0
 62
     7
370
    25
100
AcDbLine
 10
724.211496
 20
444.197211
 30
0.0
 11
731.5174049999996
 21
451.50312
 31
0.0
  0
LINE
  5
306D
330
3062
100
AcDbEntity
  8
LC-003-005-----0
 62
     7
370
    25
100
AcDbLine
 10
696.6951799999996
 20
419.509322
 30
0.0
 11
705.495683
 21
428.309825
 31
0.0
  0
LINE
  5
306E
330
3062
100
AcDbEntity
  8
LC-003-005-----0
 62
     7
370
    25
100
AcDbLine
 10
721.383069
 20
444.197211
 30
0.0
 11
729.3813899999999
 21
452.195532
 31
0.0
  0
LINE
  5
306F
330
3062
100
AcDbEntity
  8
LC-003-005-----0
 62
     7
370
    25
100
AcDbLine
 10
696.966361
 20
422.6089299999999
 30
0.0
 11
705.7668639999997
 21
431.409433
 31
0.0
  0
LINE
  5
3070
330
3062
100
AcDbEntity
  8
LC-003-005-----0
 62
     7
370
    25
100
AcDbLine
 10
717.0546419999997
 20
442.697211
 30
0.0
 11
726.5546419999997
 21
452.197211
 31
0.0
  0
LINE
  5
3071
330
3062
100
AcDbEntity
  8
LC-003-005-----0
 62
     7
370
    25
100
AcDbLine
 10
697.2375409999997
 20
425.708537
 30
0.0
 11
706.038044
 21
434.50904
 31
0.0
  0
LINE
  5
3072
330
3062
100
AcDbEntity
  8
LC-003-005-----0
 62
     7
370
    25
100
AcDbLine
 10
714.226215
 20
442.697211
 30
0.0
 11
723.726215
 21
452.197211
 31
0.0
  0
LINE
  5
3073
330
3062
100
AcDbEntity
  8
LC-003-005-----0
 62
     7
370
    25
100
AcDbLine
 10
697.5087219999997
 20
428.8081449999999
 30
0.0
 11
706.3092249999997
 21
437.608648
 31
0.0
  0
LINE
  5
3074
330
3062
100
AcDbEntity
  8
LC-003-005-----0
 62
     7
370
    25
100
AcDbLine
 10
711.397699
 20
442.6971219999998
 30
0.0
 11
720.897787
 21
452.197211
 31
0.0
  0
LINE
  5
3075
330
3062
100
AcDbEntity
  8
LC-003-005-----0
 62
     7
370
    25
100
AcDbLine
 10
697.7799019999999
 20
431.907753
 30
0.0
 11
718.0693599999997
 21
452.197211
 31
0.0
  0
LINE
  5
3076
330
3062
100
AcDbEntity
  8
LC-003-005-----0
 62
     7
370
    25
100
AcDbLine
 10
698.051083
 20
435.0073599999998
 30
0.0
 11
715.240933
 21
452.197211
 31
0.0
  0
LINE
  5
3077
330
3062
100
AcDbEntity
  8
LC-003-005-----0
 62
     7
370
    25
100
AcDbLine
 10
698.322264
 20
438.106968
 30
0.0
 11
712.4125059999999
 21
452.197211
 31
0.0
  0
LINE
  5
3078
330
3062
100
AcDbEntity
  8
LC-003-005-----0
 62
     7
370
    25
100
AcDbLine
 10
698.5934440000002
 20
441.2065759999999
 30
0.0
 11
709.5840789999997
 21
452.197211
 31
0.0
  0
LINE
  5
3079
330
3062
100
AcDbEntity
  8
LC-003-005-----0
 62
     7
370
    25
100
AcDbLine
 10
698.864625
 20
444.306183
 30
0.0
 11
706.7556519999997
 21
452.197211
 31
0.0
  0
LINE
  5
307A
330
3062
100
AcDbEntity
  8
LC-003-005-----0
 62
     7
370
    25
100
AcDbLine
 10
699.135805
 20
447.4057909999998
 30
0.0
 11
703.922642
 21
452.192628
 31
0.0
  0
ENDBLK
  5
307B
330
3062
100
AcDbEntity
  8
0
100
AcDbBlockEnd
  0
BLOCK
  5
307D
330
307C
100
AcDbEntity
  8
0
100
AcDbBlockBegin
  2
*X2
 70
     1
 10
0.0
 20
0.0
 30
0.0
  3
*X2
  1

  4
*X2
  0
LINE
  5
307E
330
307C
100
AcDbEntity
  8
LC-003-005-----0
 62
     7
370
    25
100
AcDbLine
 10
745.455
 20
402.886413
 30
0.0
 11
747.602259
 21
400.7391539999998
 31
0.0
  0
LINE
  5
307F
330
307C
100
AcDbEntity
  8
LC-003-005-----0
 62
     7
370
    25
100
AcDbLine
 10
745.455
 20
405.7148399999999
 30
0.0
 11
750.6721309999996
 21
400.4977089999998
 31
0.0
  0
LINE
  5
3080
330
307C
100
AcDbEntity
  8
LC-003-005-----0
 62
     7
370
    25
100
AcDbLine
 10
745.455
 20
408.543267
 30
0.0
 11
753.742003
 21
400.2562639999998
 31
0.0
  0
LINE
  5
3081
330
307C
100
AcDbEntity
  8
LC-003-005-----0
 62
     7
370
    25
100
AcDbLine
 10
745.455
 20
411.3716939999997
 30
0.0
 11
756.811875
 21
400.0148189999999
 31
0.0
  0
LINE
  5
3082
330
307C
100
AcDbEntity
  8
LC-003-005-----0
 62
     7
370
    25
100
AcDbLine
 10
707.455
 20
452.2001209999998
 30
0.0
 11
707.4579110000001
 21
452.197211
 31
0.0
  0
LINE
  5
3083
330
307C
100
AcDbEntity
  8
LC-003-005-----0
 62
     7
370
    25
100
AcDbLine
 10
745.455
 20
414.200121
 30
0.0
 11
759.881747
 21
399.7733740000001
 31
0.0
  0
LINE
  5
3084
330
307C
100
AcDbEntity
  8
LC-003-005-----0
 62
     7
370
    25
100
AcDbLine
 10
707.455
 20
455.028548
 30
0.0
 11
710.286338
 21
452.197211
 31
0.0
  0
LINE
  5
3085
330
307C
100
AcDbEntity
  8
LC-003-005-----0
 62
     7
370
    25
100
AcDbLine
 10
745.455
 20
417.028548
 30
0.0
 11
762.951619
 21
399.531929
 31
0.0
  0
LINE
  5
3086
330
307C
100
AcDbEntity
  8
LC-003-005-----0
 62
     7
370
    25
100
AcDbLine
 10
707.455
 20
457.8569749999998
 30
0.0
 11
713.114765
 21
452.197211
 31
0.0
  0
LINE
  5
3087
330
307C
100
AcDbEntity
  8
LC-003-005-----0
 62
     7
370
    25
100
AcDbLine
 10
745.455
 20
419.8569749999998
 30
0.0
 11
764.455
 21
400.8569749999998
 31
0.0
  0
LINE
  5
3088
330
307C
100
AcDbEntity
  8
LC-003-005-----0
 62
     7
370
    25
100
AcDbLine
 10
707.455
 20
460.685403
 30
0.0
 11
715.9431919999997
 21
452.197211
 31
0.0
  0
LINE
  5
3089
330
307C
100
AcDbEntity
  8
LC-003-005-----0
 62
     7
370
    25
100
AcDbLine
 10
745.455
 20
422.685403
 30
0.0
 11
764.455
 21
403.6854029999998
 31
0.0
  0
LINE
  5
308A
330
307C
100
AcDbEntity
  8
LC-003-005-----0
 62
     7
370
    25
100
AcDbLine
 10
707.455
 20
463.51383
 30
0.0
 11
718.7716189999996
 21
452.197211
 31
0.0
  0
LINE
  5
308B
330
307C
100
AcDbEntity
  8
LC-003-005-----0
 62
     7
370
    25
100
AcDbLine
 10
745.455
 20
425.5138299999998
 30
0.0
 11
764.455
 21
406.51383
 31
0.0
  0
LINE
  5
308C
330
307C
100
AcDbEntity
  8
LC-003-005-----0
 62
     7
370
    25
100
AcDbLine
 10
707.455
 20
466.342257
 30
0.0
 11
721.600046
 21
452.197211
 31
0.0
  0
LINE
  5
308D
330
307C
100
AcDbEntity
  8
LC-003-005-----0
 62
     7
370
    25
100
AcDbLine
 10
745.455
 20
428.3422569999998
 30
0.0
 11
764.455
 21
409.3422569999998
 31
0.0
  0
LINE
  5
308E
330
307C
100
AcDbEntity
  8
LC-003-005-----0
 62
     7
370
    25
100
AcDbLine
 10
707.455
 20
469.170684
 30
0.0
 11
724.428473
 21
452.197211
 31
0.0
  0
LINE
  5
308F
330
307C
100
AcDbEntity
  8
LC-003-005-----0
 62
     7
370
    25
100
AcDbLine
 10
745.455
 20
431.170684
 30
0.0
 11
764.455
 21
412.1706839999998
 31
0.0
  0
LINE
  5
3090
330
307C
100
AcDbEntity
  8
LC-003-005-----0
 62
     7
370
    25
100
AcDbLine
 10
707.455
 20
471.999111
 30
0.0
 11
727.2568999999997
 21
452.197211
 31
0.0
  0
LINE
  5
3091
330
307C
100
AcDbEntity
  8
LC-003-005-----0
 62
     7
370
    25
100
AcDbLine
 10
745.455
 20
433.999111
 30
0.0
 11
764.455
 21
414.999111
 31
0.0
  0
LINE
  5
3092
330
307C
100
AcDbEntity
  8
LC-003-005-----0
 62
     7
370
    25
100
AcDbLine
 10
707.455
 20
474.8275379999998
 30
0.0
 11
730.085328
 21
452.197211
 31
0.0
  0
LINE
  5
3093
330
307C
100
AcDbEntity
  8
LC-003-005-----0
 62
     7
370
    25
100
AcDbLine
 10
745.455
 20
436.827538
 30
0.0
 11
764.455
 21
417.827538
 31
0.0
  0
LINE
  5
3094
330
307C
100
AcDbEntity
  8
LC-003-005-----0
 62
     7
370
    25
100
AcDbLine
 10
707.455
 20
477.655965
 30
0.0
 11
732.913755
 21
452.197211
 31
0.0
  0
LINE
  5
3095
330
307C
100
AcDbEntity
  8
LC-003-005-----0
 62
     7
370
    25
100
AcDbLine
 10
745.455
 20
439.655965
 30
0.0
 11
764.455
 21
420.655965
 31
0.0
  0
LINE
  5
3096
330
307C
100
AcDbEntity
  8
LC-003-005-----0
 62
     7
370
    25
100
AcDbLine
 10
707.455
 20
480.484392
 30
0.0
 11
735.742182
 21
452.197211
 31
0.0
  0
LINE
  5
3097
330
307C
100
AcDbEntity
  8
LC-003-005-----0
 62
     7
370
    25
100
AcDbLine
 10
745.455
 20
442.4843919999998
 30
0.0
 11
764.455
 21
423.484392
 31
0.0
  0
LINE
  5
3098
330
307C
100
AcDbEntity
  8
LC-003-005-----0
 62
     7
370
    25
100
AcDbLine
 10
707.455
 20
483.31282
 30
0.0
 11
738.570609
 21
452.197211
 31
0.0
  0
LINE
  5
3099
330
307C
100
AcDbEntity
  8
LC-003-005-----0
 62
     7
370
    25
100
AcDbLine
 10
745.455
 20
445.31282
 30
0.0
 11
764.455
 21
426.31282
 31
0.0
  0
LINE
  5
309A
330
307C
100
AcDbEntity
  8
LC-003-005-----0
 62
     7
370
    25
100
AcDbLine
 10
707.455
 20
486.1412469999998
 30
0.0
 11
741.399036
 21
452.197211
 31
0.0
  0
LINE
  5
309B
330
307C
100
AcDbEntity
  8
LC-003-005-----0
 62
     7
370
    25
100
AcDbLine
 10
745.455
 20
448.1412469999998
 30
0.0
 11
764.455
 21
429.141247
 31
0.0
  0
LINE
  5
309C
330
307C
100
AcDbEntity
  8
LC-003-005-----0
 62
     7
370
    25
100
AcDbLine
 10
707.455
 20
488.9696739999997
 30
0.0
 11
744.227463
 21
452.197211
 31
0.0
  0
LINE
  5
309D
330
307C
100
AcDbEntity
  8
LC-003-005-----0
 62
     7
370
    25
100
AcDbLine
 10
745.455
 20
450.9696739999998
 30
0.0
 11
764.455
 21
431.969674
 31
0.0
  0
LINE
  5
309E
330
307C
100
AcDbEntity
  8
LC-003-005-----0
 62
     7
370
    25
100
AcDbLine
 10
709.0558900000003
 20
490.197211
 30
0.0
 11
764.455
 21
434.7981009999998
 31
0.0
  0
LINE
  5
309F
330
307C
100
AcDbEntity
  8
LC-003-005-----0
 62
     7
370
    25
100
AcDbLine
 10
711.8843169999997
 20
490.197211
 30
0.0
 11
764.455
 21
437.626528
 31
0.0
  0
LINE
  5
30A0
330
307C
100
AcDbEntity
  8
LC-003-005-----0
 62
     7
370
    25
100
AcDbLine
 10
714.712745
 20
490.197211
 30
0.0
 11
764.455
 21
440.4549549999998
 31
0.0
  0
LINE
  5
30A1
330
307C
100
AcDbEntity
  8
LC-003-005-----0
 62
     7
370
    25
100
AcDbLine
 10
717.5411719999997
 20
490.197211
 30
0.0
 11
764.455
 21
443.2833819999998
 31
0.0
  0
LINE
  5
30A2
330
307C
100
AcDbEntity
  8
LC-003-005-----0
 62
     7
370
    25
100
AcDbLine
 10
720.3695989999999
 20
490.197211
 30
0.0
 11
764.455
 21
446.111809
 31
0.0
  0
LINE
  5
30A3
330
307C
100
AcDbEntity
  8
LC-003-005-----0
 62
     7
370
    25
100
AcDbLine
 10
723.198026
 20
490.197211
 30
0.0
 11
764.455
 21
448.940237
 31
0.0
  0
LINE
  5
30A4
330
307C
100
AcDbEntity
  8
LC-003-005-----0
 62
     7
370
    25
100
AcDbLine
 10
726.026453
 20
490.197211
 30
0.0
 11
764.455
 21
451.7686639999998
 31
0.0
  0
LINE
  5
30A5
330
307C
100
AcDbEntity
  8
LC-003-005-----0
 62
     7
370
    25
100
AcDbLine
 10
728.85488
 20
490.197211
 30
0.0
 11
766.8548799999999
 21
452.197211
 31
0.0
  0
LINE
  5
30A6
330
307C
100
AcDbEntity
  8
LC-003-005-----0
 62
     7
370
    25
100
AcDbLine
 10
731.683307
 20
490.197211
 30
0.0
 11
769.683307
 21
452.197211
 31
0.0
  0
LINE
  5
30A7
330
307C
100
AcDbEntity
  8
LC-003-005-----0
 62
     7
370
    25
100
AcDbLine
 10
734.5117339999997
 20
490.197211
 30
0.0
 11
772.5117339999997
 21
452.197211
 31
0.0
  0
LINE
  5
30A8
330
307C
100
AcDbEntity
  8
LC-003-005-----0
 62
     7
370
    25
100
AcDbLine
 10
737.340162
 20
490.197211
 30
0.0
 11
775.3401619999999
 21
452.197211
 31
0.0
  0
LINE
  5
30A9
330
307C
100
AcDbEntity
  8
LC-003-005-----0
 62
     7
370
    25
100
AcDbLine
 10
740.168589
 20
490.197211
 30
0.0
 11
777.693341
 21
452.6724579999998
 31
0.0
  0
LINE
  5
30AA
330
307C
100
AcDbEntity
  8
LC-003-005-----0
 62
     7
370
    25
100
AcDbLine
 10
742.997016
 20
490.197211
 30
0.0
 11
777.693341
 21
455.500885
 31
0.0
  0
LINE
  5
30AB
330
307C
100
AcDbEntity
  8
LC-003-005-----0
 62
     7
370
    25
100
AcDbLine
 10
745.8254429999997
 20
490.197211
 30
0.0
 11
777.693341
 21
458.329312
 31
0.0
  0
LINE
  5
30AC
330
307C
100
AcDbEntity
  8
LC-003-005-----0
 62
     7
370
    25
100
AcDbLine
 10
748.6538699999996
 20
490.197211
 30
0.0
 11
777.693341
 21
461.1577389999998
 31
0.0
  0
LINE
  5
30AD
330
307C
100
AcDbEntity
  8
LC-003-005-----0
 62
     7
370
    25
100
AcDbLine
 10
751.4822969999999
 20
490.197211
 30
0.0
 11
777.693341
 21
463.986166
 31
0.0
  0
LINE
  5
30AE
330
307C
100
AcDbEntity
  8
LC-003-005-----0
 62
     7
370
    25
100
AcDbLine
 10
754.310724
 20
490.197211
 30
0.0
 11
777.693341
 21
466.814594
 31
0.0
  0
LINE
  5
30AF
330
307C
100
AcDbEntity
  8
LC-003-005-----0
 62
     7
370
    25
100
AcDbLine
 10
757.1391509999997
 20
490.197211
 30
0.0
 11
777.693341
 21
469.6430209999999
 31
0.0
  0
LINE
  5
30B0
330
307C
100
AcDbEntity
  8
LC-003-005-----0
 62
     7
370
    25
100
AcDbLine
 10
759.967579
 20
490.197211
 30
0.0
 11
777.693341
 21
472.4714480000002
 31
0.0
  0
LINE
  5
30B1
330
307C
100
AcDbEntity
  8
LC-003-005-----0
 62
     7
370
    25
100
AcDbLine
 10
762.7960059999996
 20
490.197211
 30
0.0
 11
777.693341
 21
475.2998749999998
 31
0.0
  0
LINE
  5
30B2
330
307C
100
AcDbEntity
  8
LC-003-005-----0
 62
     7
370
    25
100
AcDbLine
 10
765.6244329999997
 20
490.197211
 30
0.0
 11
777.693341
 21
478.128302
 31
0.0
  0
LINE
  5
30B3
330
307C
100
AcDbEntity
  8
LC-003-005-----0
 62
     7
370
    25
100
AcDbLine
 10
768.45286
 20
490.197211
 30
0.0
 11
777.693341
 21
480.956729
 31
0.0
  0
LINE
  5
30B4
330
307C
100
AcDbEntity
  8
LC-003-005-----0
 62
     7
370
    25
100
AcDbLine
 10
771.281287
 20
490.197211
 30
0.0
 11
777.693341
 21
483.7851559999998
 31
0.0
  0
LINE
  5
30B5
330
307C
100
AcDbEntity
  8
LC-003-005-----0
 62
     7
370
    25
100
AcDbLine
 10
774.1097139999997
 20
490.197211
 30
0.0
 11
777.693341
 21
486.613583
 31
0.0
  0
LINE
  5
30B6
330
307C
100
AcDbEntity
  8
LC-003-005-----0
 62
     7
370
    25
100
AcDbLine
 10
776.938141
 20
490.197211
 30
0.0
 11
777.693341
 21
489.442011
 31
0.0
  0
ENDBLK
  5
30B7
330
307C
100
AcDbEntity
  8
0
100
AcDbBlockEnd
  0
BLOCK
  5
30FF
330
30F5
100
AcDbEntity
  8
0
100
AcDbBlockBegin
  2
*D3
 70
     1
 10
0.0
 20
0.0
 30
0.0
  3
*D3
  1

  0
LINE
  5
30F6
330
30F5
100
AcDbEntity
  8
0
 62
     0
370
    -2
100
AcDbLine
 10
1279.26169097301
 20
1280.51736308066
 30
0.0
 11
1281.544120119735
 21
1280.51736308066
 31
0.0
  0
LINE
  5
30F7
330
30F5
100
AcDbEntity
  8
0
 62
     0
370
    -2
100
AcDbLine
 10
1279.26169097301
 20
1297.52520308066
 30
0.0
 11
1281.544120119735
 21
1297.52520308066
 31
0.0
  0
LINE
  5
30F8
330
30F5
100
AcDbEntity
  8
0
 62
     0
370
    -2
100
AcDbLine
 10
1281.344120119735
 20
1280.71736308066
 30
0.0
 11
1281.344120119735
 21
1297.32520308066
 31
0.0
  0
SOLID
  5
30F9
330
30F5
100
AcDbEntity
  8
0
 62
     0
100
AcDbTrace
 10
1281.310786786401
 20
1280.71736308066
 30
0.0
 11
1281.377453453068
 21
1280.71736308066
 31
0.0
 12
1281.344120119735
 22
1280.51736308066
 32
0.0
 13
1281.344120119735
 23
1280.51736308066
 33
0.0
  0
SOLID
  5
30FA
330
30F5
100
AcDbEntity
  8
0
 62
     0
100
AcDbTrace
 10
1281.310786786401
 20
1297.32520308066
 30
0.0
 11
1281.377453453068
 21
1297.32520308066
 31
0.0
 12
1281.344120119735
 22
1297.52520308066
 32
0.0
 13
1281.344120119735
 23
1297.52520308066
 33
0.0
  0
MTEXT
  5
30FB
330
30F5
100
AcDbEntity
  8
0
 62
     0
100
AcDbMText
 10
1281.097270119734
 20
1289.02128308066
 30
0.0
 40
0.3937
 41
0.0
 71
     5
 72
     1
  1
\A1;17.0078
  7
\U+C2A4\U+D0C0\U+C77C2
 11
0.0000000000000001
 21
1.0
 31
0.0
 73
     1
 44
1.0
  0
POINT
  5
30FC
330
30F5
100
AcDbEntity
  8
Defpoints
 62
     0
100
AcDbPoint
 10
1279.16169097301
 20
1280.51736308066
 30
0.0
  0
POINT
  5
30FD
330
30F5
100
AcDbEntity
  8
Defpoints
 62
     0
100
AcDbPoint
 10
1279.16169097301
 20
1297.52520308066
 30
0.0
  0
POINT
  5
30FE
330
30F5
100
AcDbEntity
  8
Defpoints
 62
     0
100
AcDbPoint
 10
1281.344120119735
 20
1297.52520308066
 30
0.0
  0
ENDBLK
  5
3100
330
30F5
100
AcDbEntity
  8
0
100
AcDbBlockEnd
  0
BLOCK
  5
310C
330
3102
100
AcDbEntity
  8
0
100
AcDbBlockBegin
  2
*D4
 70
     1
 10
0.0
 20
0.0
 30
0.0
  3
*D4
  1

  0
LINE
  5
3103
330
3102
100
AcDbEntity
  8
0
 62
     0
370
    -2
100
AcDbLine
 10
1249.31923097301
 20
1281.51972308066
 30
0.0
 11
1249.31923097301
 21
1279.300385811046
 31
0.0
  0
LINE
  5
3104
330
3102
100
AcDbEntity
  8
0
 62
     0
370
    -2
100
AcDbLine
 10
1280.26405097301
 20
1281.51972308066
 30
0.0
 11
1280.26405097301
 21
1279.300385811046
 31
0.0
  0
LINE
  5
3105
330
3102
100
AcDbEntity
  8
0
 62
     0
370
    -2
100
AcDbLine
 10
1249.51923097301
 20
1279.500385811046
 30
0.0
 11
1280.064050973011
 21
1279.500385811046
 31
0.0
  0
SOLID
  5
3106
330
3102
100
AcDbEntity
  8
0
 62
     0
100
AcDbTrace
 10
1249.51923097301
 20
1279.533719144379
 30
0.0
 11
1249.51923097301
 21
1279.467052477713
 31
0.0
 12
1249.31923097301
 22
1279.500385811046
 32
0.0
 13
1249.31923097301
 23
1279.500385811046
 33
0.0
  0
SOLID
  5
3107
330
3102
100
AcDbEntity
  8
0
 62
     0
100
AcDbTrace
 10
1280.064050973011
 20
1279.533719144379
 30
0.0
 11
1280.064050973011
 21
1279.467052477713
 31
0.0
 12
1280.26405097301
 22
1279.500385811046
 32
0.0
 13
1280.26405097301
 23
1279.500385811046
 33
0.0
  0
MTEXT
  5
3108
330
3102
100
AcDbEntity
  8
0
 62
     0
100
AcDbMText
 10
1264.79164097301
 20
1279.747235811046
 30
0.0
 40
0.3937
 41
0.0
 71
     5
 72
     1
  1
\A1;30.9448
  7
\U+C2A4\U+D0C0\U+C77C2
 73
     1
 44
1.0
  0
POINT
  5
3109
330
3102
100
AcDbEntity
  8
Defpoints
 62
     0
100
AcDbPoint
 10
1249.31923097301
 20
1281.61972308066
 30
0.0
  0
POINT
  5
310A
330
3102
100
AcDbEntity
  8
Defpoints
 62
     0
100
AcDbPoint
 10
1280.26405097301
 20
1281.61972308066
 30
0.0
  0
POINT
  5
310B
330
3102
100
AcDbEntity
  8
Defpoints
 62
     0
100
AcDbPoint
 10
1280.26405097301
 20
1279.500385811046
 30
0.0
  0
ENDBLK
  5
310D
330
3102
100
AcDbEntity
  8
0
100
AcDbBlockEnd
  0
BLOCK
  5
3115
330
310F
100
AcDbEntity
  8
0
100
AcDbBlockBegin
  2
*D5
 70
     1
 10
0.0
 20
0.0
 30
0.0
  3
*D5
  1

  0
LINE
  5
3110
330
310F
100
AcDbEntity
  8
0
 62
     0
370
    -2
100
AcDbLine
 10
1251.677353684342
 20
1295.063737244321
 30
0.0
 11
1249.809221335469
 21
1297.085607742223
 31
0.0
  0
MTEXT
  5
3111
330
310F
100
AcDbEntity
  8
0
 62
     0
100
AcDbMText
 10
1251.134520814853
 20
1296.014989516349
 30
0.0
 40
0.3937
 41
0.0
 71
     5
 72
     1
  1
\A1;R1.1024
  7
\U+C2A4\U+D0C0\U+C77C2
 11
0.6786311866014314
 21
-0.7344792118038014
 31
0.0
 73
     1
 44
1.0
  0
SOLID
  5
3112
330
310F
100
AcDbEntity
  8
0
 62
     0
100
AcDbTrace
 10
1249.833703975862
 20
1297.108228781777
 30
0.0
 11
1249.784738695075
 21
1297.06298670267
 31
0.0
 12
1249.673495098148
 22
1297.232503584584
 32
0.0
 13
1249.673495098148
 23
1297.232503584584
 33
0.0
  0
POINT
  5
3113
330
310F
100
AcDbEntity
  8
Defpoints
 62
     0
100
AcDbPoint
 10
1249.673495098148
 20
1297.232503584584
 30
0.0
  0
POINT
  5
3114
330
310F
100
AcDbEntity
  8
Defpoints
 62
     0
100
AcDbPoint
 10
1250.42159097301
 20
1296.42284308066
 30
0.0
  0
ENDBLK
  5
3116
330
310F
100
AcDbEntity
  8
0
100
AcDbBlockEnd
  0
BLOCK
  5
3124
330
3118
100
AcDbEntity
  8
0
100
AcDbBlockBegin
  2
*D6
 70
     1
 10
0.0
 20
0.0
 30
0.0
  3
*D6
  1

  0
LINE
  5
3119
330
3118
100
AcDbEntity
  8
0
 62
     0
370
    -2
100
AcDbLine
 10
1267.93776286973
 20
1290.28873676937
 30
0.0
 11
1267.93776286973
 21
1292.138233373838
 31
0.0
  0
LINE
  5
311A
330
3118
100
AcDbEntity
  8
0
 62
     0
370
    -2
100
AcDbLine
 10
1268.06840607301
 20
1291.78479676937
 30
0.0
 11
1268.06840607301
 21
1292.138233373838
 31
0.0
  0
LINE
  5
311B
330
3118
100
AcDbEntity
  8
0
 62
     0
370
    -2
100
AcDbLine
 10
1267.73776286973
 20
1291.938233373838
 30
0.0
 11
1267.53776286973
 21
1291.938233373838
 31
0.0
  0
LINE
  5
311C
330
3118
100
AcDbEntity
  8
0
 62
     0
370
    -2
100
AcDbLine
 10
1268.26840607301
 20
1291.938233373838
 30
0.0
 11
1270.274439406344
 21
1291.938233373838
 31
0.0
  0
LINE
  5
311D
330
3118
100
AcDbEntity
  8
0
 62
     0
370
    -2
100
AcDbLine
 10
1267.93776286973
 20
1291.938233373838
 30
0.0
 11
1268.06840607301
 21
1291.938233373838
 31
0.0
  0
SOLID
  5
311E
330
3118
100
AcDbEntity
  8
0
 62
     0
100
AcDbTrace
 10
1267.73776286973
 20
1291.971566707172
 30
0.0
 11
1267.73776286973
 21
1291.904900040505
 31
0.0
 12
1267.93776286973
 22
1291.938233373838
 32
0.0
 13
1267.93776286973
 23
1291.938233373838
 33
0.0
  0
SOLID
  5
311F
330
3118
100
AcDbEntity
  8
0
 62
     0
100
AcDbTrace
 10
1268.26840607301
 20
1291.971566707172
 30
0.0
 11
1268.26840607301
 21
1291.904900040505
 31
0.0
 12
1268.06840607301
 22
1291.938233373838
 32
0.0
 13
1268.06840607301
 23
1291.938233373838
 33
0.0
  0
MTEXT
  5
3120
330
3118
100
AcDbEntity
  8
0
 62
     0
100
AcDbMText
 10
1269.371422739677
 20
1292.185083373838
 30
0.0
 40
0.3937
 41
0.0
 71
     5
 72
     1
  1
\A1;0.1306
  7
\U+C2A4\U+D0C0\U+C77C2
 73
     1
 44
1.0
  0
POINT
  5
3121
330
3118
100
AcDbEntity
  8
Defpoints
 62
     0
100
AcDbPoint
 10
1267.93776286973
 20
1290.18873676937
 30
0.0
  0
POINT
  5
3122
330
3118
100
AcDbEntity
  8
Defpoints
 62
     0
100
AcDbPoint
 10
1268.06840607301
 20
1291.68479676937
 30
0.0
  0
POINT
  5
3123
330
3118
100
AcDbEntity
  8
Defpoints
 62
     0
100
AcDbPoint
 10
1268.06840607301
 20
1291.938233373838
 30
0.0
  0
ENDBLK
  5
3125
330
3118
100
AcDbEntity
  8
0
100
AcDbBlockEnd
  0
BLOCK
  5
3176
330
3175
100
AcDbEntity
  8
0
370
     0
100
AcDbBlockBegin
  2
*D7
 70
     1
 10
0.0
 20
0.0
 30
0.0
  3
*D7
  1

  0
LINE
  5
3177
330
3175
100
AcDbEntity
  8
0
  6
Continuous
 62
     0
370
     0
100
AcDbLine
 10
2124.670107577917
 20
109.4197204220734
 30
0.0
 11
2124.670107577917
 21
120.2535450729284
 31
0.0
  0
LINE
  5
3178
330
3175
100
AcDbEntity
  8
0
  6
Continuous
 62
     0
370
     0
100
AcDbLine
 10
2146.189804226457
 20
109.4197204220734
 30
0.0
 11
2146.189804226457
 21
120.2535450729284
 31
0.0
  0
LINE
  5
3179
330
3175
100
AcDbEntity
  8
0
  6
Continuous
 62
     0
370
     0
100
AcDbLine
 10
2124.850107577917
 20
120.0735450729284
 30
0.0
 11
2127.596622568853
 21
120.0735450729284
 31
0.0
  0
LINE
  5
317A
330
3175
100
AcDbEntity
  8
0
  6
Continuous
 62
     0
370
     0
100
AcDbLine
 10
2146.009804226457
 20
120.0735450729284
 30
0.0
 11
2143.26328923552
 21
120.0735450729284
 31
0.0
  0
SOLID
  5
317B
330
3175
100
AcDbEntity
  8
0
  6
Continuous
 62
     0
370
     0
100
AcDbTrace
 10
2124.850107577917
 20
120.1035450729284
 30
0.0
 11
2124.850107577917
 21
120.0435450729284
 31
0.0
 12
2124.670107577917
 22
120.0735450729284
 32
0.0
 13
2124.670107577917
 23
120.0735450729284
 33
0.0
  0
SOLID
  5
317C
330
3175
100
AcDbEntity
  8
0
  6
Continuous
 62
     0
370
     0
100
AcDbTrace
 10
2146.009804226457
 20
120.1035450729284
 30
0.0
 11
2146.009804226457
 21
120.0435450729284
 31
0.0
 12
2146.189804226457
 22
120.0735450729284
 32
0.0
 13
2146.189804226457
 23
120.0735450729284
 33
0.0
  0
MTEXT
  5
317D
330
3175
100
AcDbEntity
  8
0
  6
Continuous
 62
     0
370
     0
100
AcDbMText
 10
2135.429955902186
 20
120.0735450729284
 30
0.0
 40
1.0
 41
0.0
 71
     5
 72
     1
  1
\A1;546.6mm(21.5196")
 73
     1
 44
1.0
  0
POINT
  5
317E
330
3175
100
AcDbEntity
  8
Defpoints
  6
Continuous
 62
     0
370
     0
100
AcDbPoint
 10
2124.670107577917
 20
109.3572204220734
 30
0.0
  0
POINT
  5
317F
330
3175
100
AcDbEntity
  8
Defpoints
  6
Continuous
 62
     0
370
     0
100
AcDbPoint
 10
2146.189804226457
 20
109.3572204220734
 30
0.0
  0
POINT
  5
3180
330
3175
100
AcDbEntity
  8
Defpoints
  6
Continuous
 62
     0
370
     0
100
AcDbPoint
 10
2146.189804226457
 20
120.0735450729284
 30
0.0
  0
ENDBLK
  5
3181
330
3175
100
AcDbEntity
  8
0
370
     0
100
AcDbBlockEnd
  0
BLOCK
  5
3183
330
3182
100
AcDbEntity
  8
0
370
     0
100
AcDbBlockBegin
  2
*D8
 70
     1
 10
0.0
 20
0.0
 30
0.0
  3
*D8
  1

  0
LINE
  5
3184
330
3182
100
AcDbEntity
  8
0
  6
Continuous
 62
     0
370
     0
100
AcDbLine
 10
2135.367455902187
 20
101.4083372596521
 30
0.0
 11
2121.186998331282
 21
101.4083372596521
 31
0.0
  0
LINE
  5
3185
330
3182
100
AcDbEntity
  8
0
  6
Continuous
 62
     0
370
     0
100
AcDbLine
 10
2135.367455902187
 20
117.3059836396521
 30
0.0
 11
2121.186998331282
 21
117.3059836396521
 31
0.0
  0
LINE
  5
3186
330
3182
100
AcDbEntity
  8
0
  6
Continuous
 62
     0
370
     0
100
AcDbLine
 10
2121.686998331282
 20
100.4083372596521
 30
0.0
 11
2121.686998331282
 21
99.40833725965212
 31
0.0
  0
LINE
  5
3187
330
3182
100
AcDbEntity
  8
0
  6
Continuous
 62
     0
370
     0
100
AcDbLine
 10
2121.686998331282
 20
118.3059836396521
 30
0.0
 11
2121.686998331282
 21
119.3059836396521
 31
0.0
  0
SOLID
  5
3188
330
3182
100
AcDbEntity
  8
0
  6
Continuous
 62
     0
370
     0
100
AcDbTrace
 10
2121.520331664616
 20
100.4083372596521
 30
0.0
 11
2121.853664997949
 21
100.4083372596521
 31
0.0
 12
2121.686998331282
 22
101.4083372596521
 32
0.0
 13
2121.686998331282
 23
101.4083372596521
 33
0.0
  0
SOLID
  5
3189
330
3182
100
AcDbEntity
  8
0
  6
Continuous
 62
     0
370
     0
100
AcDbTrace
 10
2121.520331664616
 20
118.3059836396521
 30
0.0
 11
2121.853664997949
 21
118.3059836396521
 31
0.0
 12
2121.686998331282
 22
117.3059836396521
 32
0.0
 13
2121.686998331282
 23
117.3059836396521
 33
0.0
  0
MTEXT
  5
318A
330
3182
100
AcDbEntity
  8
0
  6
Continuous
 62
     0
370
     0
100
AcDbMText
 10
2121.686998331282
 20
109.3571604496524
 30
0.0
 40
1.0
 41
0.0
 71
     5
 72
     1
  1
\A1;403.8mm(15.8976")
 11
0.0000000000000001
 21
1.0
 31
0.0
 73
     1
 44
1.0
  0
POINT
  5
318B
330
3182
100
AcDbEntity
  8
Defpoints
  6
Continuous
 62
     0
370
     0
100
AcDbPoint
 10
2135.429955902186
 20
101.4083372596521
 30
0.0
  0
POINT
  5
318C
330
3182
100
AcDbEntity
  8
Defpoints
  6
Continuous
 62
     0
370
     0
100
AcDbPoint
 10
2135.429955902186
 20
117.3059836396521
 30
0.0
  0
POINT
  5
318D
330
3182
100
AcDbEntity
  8
Defpoints
  6
Continuous
 62
     0
370
     0
100
AcDbPoint
 10
2121.686998331282
 20
117.3059836396521
 30
0.0
  0
ENDBLK
  5
318E
330
3182
100
AcDbEntity
  8
0
370
     0
100
AcDbBlockEnd
  0
BLOCK
  5
3190
330
318F
100
AcDbEntity
  8
0
370
     0
100
AcDbBlockBegin
  2
*D9
 70
     1
 10
0.0
 20
0.0
 30
0.0
  3
*D9
  1

  0
LINE
  5
3191
330
318F
100
AcDbEntity
  8
0
  6
Continuous
 62
     0
370
     0
100
AcDbLine
 10
2138.262311310205
 20
99.39632895512676
 30
0.0
 11
2137.262311310205
 21
99.39632895512676
 31
0.0
  0
LINE
  5
3192
330
318F
100
AcDbEntity
  8
0
  6
Continuous
 62
     0
370
     0
100
AcDbLine
 10
2137.262311310205
 20
99.39632895512676
 30
0.0
 11
2137.246675686891
 21
100.4221813068343
 31
0.0
  0
MTEXT
  5
3193
330
318F
100
AcDbEntity
  8
0
  6
Continuous
 62
     0
370
     0
100
AcDbMText
 10
2148.345644643539
 20
99.39632895512644
 30
0.0
 40
1.0
 41
0.0
 71
     5
 72
     1
  1
\A1;2-R3002.5mm(118.2086")
 73
     1
 44
1.0
  0
SOLID
  5
3194
330
318F
100
AcDbEntity
  8
0
  6
Continuous
 62
     0
370
     0
100
AcDbTrace
 10
2137.413322998085
 20
100.424721277211
 30
0.0
 11
2137.080028375697
 21
100.4196413364575
 31
0.0
 12
2137.23143586463
 22
101.4220651739996
 32
0.0
 13
2137.23143586463
 23
101.4220651739996
 33
0.0
  0
LINE
  5
3195
330
318F
100
AcDbEntity
  8
0
  6
Continuous
 62
     0
370
     0
100
AcDbLine
 10
2135.339955902185
 20
219.6170625096517
 30
0.0
 11
2135.519955902185
 21
219.6170625096517
 31
0.0
  0
LINE
  5
3196
330
318F
100
AcDbEntity
  8
0
  6
Continuous
 62
     0
370
     0
100
AcDbLine
 10
2135.429955902185
 20
219.5270625096517
 30
0.0
 11
2135.429955902185
 21
219.7070625096517
 31
0.0
  0
POINT
  5
3197
330
318F
100
AcDbEntity
  8
Defpoints
  6
Continuous
 62
     0
370
     0
100
AcDbPoint
 10
2137.23143586463
 20
101.4220651739996
 30
0.0
  0
POINT
  5
3198
330
318F
100
AcDbEntity
  8
Defpoints
  6
Continuous
 62
     0
370
     0
100
AcDbPoint
 10
2135.429955902185
 20
219.6170625096517
 30
0.0
  0
ENDBLK
  5
3199
330
318F
100
AcDbEntity
  8
0
370
     0
100
AcDbBlockEnd
  0
BLOCK
  5
319B
330
319A
100
AcDbEntity
  8
0
370
     0
100
AcDbBlockBegin
  2
*D10
 70
     1
 10
0.0
 20
0.0
 30
0.0
  3
*D10
  1

  0
LINE
  5
319C
330
319A
100
AcDbEntity
  8
0
  6
Continuous
 62
     0
370
     0
100
AcDbLine
 10
2148.037305114079
 20
102.2240324314143
 30
0.0
 11
2147.037305114079
 21
102.2240324314143
 31
0.0
  0
LINE
  5
319D
330
319A
100
AcDbEntity
  8
0
  6
Continuous
 62
     0
370
     0
100
AcDbLine
 10
2147.037305114079
 20
102.2240324314143
 30
0.0
 11
2146.208841574739
 21
102.7840754333206
 31
0.0
  0
MTEXT
  5
319E
330
319A
100
AcDbEntity
  8
0
  6
Continuous
 62
     0
370
     0
100
AcDbMText
 10
2156.870638447413
 20
102.2240324314139
 30
0.0
 40
1.0
 41
0.0
 71
     5
 72
     1
  1
\A1;4-R100.5mm(3.9566")
 73
     1
 44
1.0
  0
SOLID
  5
319F
330
319A
100
AcDbEntity
  8
0
  6
Continuous
 62
     0
370
     0
100
AcDbTrace
 10
2146.302182075057
 20
102.9221526898773
 30
0.0
 11
2146.115501074421
 21
102.6459981767636
 31
0.0
 12
2145.380378035399
 22
103.3441184352267
 32
0.0
 13
2145.380378035399
 23
103.3441184352267
 33
0.0
  0
LINE
  5
31A0
330
319A
100
AcDbEntity
  8
0
  6
Continuous
 62
     0
370
     0
100
AcDbLine
 10
2142.012400450187
 20
105.5600378086558
 30
0.0
 11
2142.192400450187
 21
105.5600378086558
 31
0.0
  0
LINE
  5
31A1
330
319A
100
AcDbEntity
  8
0
  6
Continuous
 62
     0
370
     0
100
AcDbLine
 10
2142.102400450187
 20
105.470037808656
 30
0.0
 11
2142.102400450187
 21
105.6500378086559
 31
0.0
  0
POINT
  5
31A2
330
319A
100
AcDbEntity
  8
Defpoints
  6
Continuous
 62
     0
370
     0
100
AcDbPoint
 10
2145.380378035399
 20
103.3441184352267
 30
0.0
  0
POINT
  5
31A3
330
319A
100
AcDbEntity
  8
Defpoints
  6
Continuous
 62
     0
370
     0
100
AcDbPoint
 10
2142.102400450187
 20
105.5600378086559
 30
0.0
  0
ENDBLK
  5
31A4
330
319A
100
AcDbEntity
  8
0
370
     0
100
AcDbBlockEnd
  0
BLOCK
  5
31E0
330
31D6
100
AcDbEntity
  8
0
100
AcDbBlockBegin
  2
*D11
 70
     1
 10
0.0
 20
0.0
 30
0.0
  3
*D11
  1

  0
LINE
  5
3236
330
31D6
100
AcDbEntity
  8
0
  6
Continuous
 62
     0
370
     0
100
AcDbLine
 10
1304.30863483445
 20
1281.351118783537
 30
0.0
 11
1295.065677263546
 21
1281.351118783537
 31
0.0
  0
LINE
  5
3237
330
31D6
100
AcDbEntity
  8
0
  6
Continuous
 62
     0
370
     0
100
AcDbLine
 10
1304.30863483445
 20
1297.248765163537
 30
0.0
 11
1295.065677263546
 21
1297.248765163537
 31
0.0
  0
LINE
  5
3238
330
31D6
100
AcDbEntity
  8
0
  6
Continuous
 62
     0
370
     0
100
AcDbLine
 10
1295.565677263545
 20
1282.351118783537
 30
0.0
 11
1295.565677263545
 21
1296.248765163537
 31
0.0
  0
SOLID
  5
3239
330
31D6
100
AcDbEntity
  8
0
  6
Continuous
 62
     0
100
AcDbTrace
 10
1295.399010596879
 20
1282.351118783537
 30
0.0
 11
1295.732343930212
 21
1282.351118783537
 31
0.0
 12
1295.565677263545
 22
1281.351118783537
 32
0.0
 13
1295.565677263545
 23
1281.351118783537
 33
0.0
  0
SOLID
  5
323A
330
31D6
100
AcDbEntity
  8
0
  6
Continuous
 62
     0
100
AcDbTrace
 10
1295.399010596879
 20
1296.248765163537
 30
0.0
 11
1295.732343930212
 21
1296.248765163537
 31
0.0
 12
1295.565677263545
 22
1297.248765163537
 32
0.0
 13
1295.565677263545
 23
1297.248765163537
 33
0.0
  0
MTEXT
  5
323B
330
31D6
100
AcDbEntity
  8
0
  6
Continuous
 62
     0
370
     0
100
AcDbMText
 10
1294.065677263545
 20
1289.299941973537
 30
0.0
 40
1.0
 41
0.0
 71
     5
 72
     1
  1
\A1;15.8976
 11
0.0000000000000001
 21
1.0
 31
0.0
 73
     1
 44
1.0
  0
POINT
  5
323C
330
31D6
100
AcDbEntity
  8
Defpoints
  6
Continuous
 62
     0
100
AcDbPoint
 10
1309.30863483445
 20
1281.351118783537
 30
0.0
  0
POINT
  5
323D
330
31D6
100
AcDbEntity
  8
Defpoints
  6
Continuous
 62
     0
100
AcDbPoint
 10
1309.30863483445
 20
1297.248765163537
 30
0.0
  0
POINT
  5
323E
330
31D6
100
AcDbEntity
  8
Defpoints
  6
Continuous
 62
     0
100
AcDbPoint
 10
1295.565677263545
 20
1297.248765163537
 30
0.0
  0
ENDBLK
  5
31E1
330
31D6
100
AcDbEntity
  8
0
100
AcDbBlockEnd
  0
BLOCK
  5
31EA
330
31E2
100
AcDbEntity
  8
0
100
AcDbBlockBegin
  2
*D12
 70
     1
 10
0.0
 20
0.0
 30
0.0
  3
*D12
  1

  0
LINE
  5
320C
330
31E2
100
AcDbEntity
  8
0
  6
Continuous
 62
     0
370
     0
100
AcDbLine
 10
1311.447930857
 20
1259.200754309053
 30
0.0
 11
1311.125354619154
 21
1280.364962830718
 31
0.0
  0
MTEXT
  5
320D
330
31E2
100
AcDbEntity
  8
0
  6
Continuous
 62
     0
370
     0
100
AcDbMText
 10
1312.794088449955
 20
1269.305776369694
 30
0.0
 40
1.0
 41
0.0
 71
     5
 72
     1
  1
\A1;2-R3002.5mm(118.2086")
 11
0.0152398222604577
 21
-0.9998838671653171
 31
0.0
 73
     1
 44
1.0
  0
SOLID
  5
320E
330
31E2
100
AcDbEntity
  8
0
  6
Continuous
 62
     0
100
AcDbTrace
 10
1311.292001930348
 20
1280.367502801095
 30
0.0
 11
1310.95870730796
 21
1280.362422860342
 31
0.0
 12
1311.110114796893
 22
1281.364846697884
 32
0.0
 13
1311.110114796893
 23
1281.364846697884
 33
0.0
  0
LINE
  5
320F
330
31E2
100
AcDbEntity
  8
0
  6
Continuous
 62
     0
370
     0
100
AcDbLine
 10
1305.308634834448
 20
1399.559844033536
 30
0.0
 11
1313.308634834448
 21
1399.559844033536
 31
0.0
  0
LINE
  5
3210
330
31E2
100
AcDbEntity
  8
0
  6
Continuous
 62
     0
370
     0
100
AcDbLine
 10
1309.308634834448
 20
1395.559844033536
 30
0.0
 11
1309.308634834448
 21
1403.559844033536
 31
0.0
  0
POINT
  5
3211
330
31E2
100
AcDbEntity
  8
Defpoints
  6
Continuous
 62
     0
100
AcDbPoint
 10
1311.110114796893
 20
1281.364846697884
 30
0.0
  0
POINT
  5
3212
330
31E2
100
AcDbEntity
  8
Defpoints
  6
Continuous
 62
     0
100
AcDbPoint
 10
1309.308634834448
 20
1399.559844033536
 30
0.0
  0
ENDBLK
  5
31EB
330
31E2
100
AcDbEntity
  8
0
100
AcDbBlockEnd
  0
BLOCK
  5
31F4
330
31EC
100
AcDbEntity
  8
0
100
AcDbBlockBegin
  2
*D13
 70
     1
 10
0.0
 20
0.0
 30
0.0
  3
*D13
  1

  0
LINE
  5
3213
330
31EC
100
AcDbEntity
  8
0
  6
Continuous
 62
     0
370
     0
100
AcDbLine
 10
1335.552173241351
 20
1272.272720921624
 30
0.0
 11
1320.087520507003
 21
1282.726856957206
 31
0.0
  0
MTEXT
  5
3214
330
31EC
100
AcDbEntity
  8
0
  6
Continuous
 62
     0
370
     0
100
AcDbMText
 10
1329.074143146706
 20
1278.462462747472
 30
0.0
 40
1.0
 41
0.0
 71
     5
 72
     1
  1
\A1;4-R100.5mm(3.9566")
 11
0.8284635393400979
 21
-0.5600430019061734
 31
0.0
 73
     1
 44
1.0
  0
SOLID
  5
3215
330
31EC
100
AcDbEntity
  8
0
  6
Continuous
 62
     0
100
AcDbTrace
 10
1320.18086100732
 20
1282.864934213762
 30
0.0
 11
1319.994180006685
 21
1282.588779700649
 31
0.0
 12
1319.259056967663
 22
1283.286899959112
 32
0.0
 13
1319.259056967663
 23
1283.286899959112
 33
0.0
  0
LINE
  5
3216
330
31EC
100
AcDbEntity
  8
0
  6
Continuous
 62
     0
370
     0
100
AcDbLine
 10
1311.98107938245
 20
1285.502819332541
 30
0.0
 11
1319.98107938245
 21
1285.50281933254
 31
0.0
  0
LINE
  5
3217
330
31EC
100
AcDbEntity
  8
0
  6
Continuous
 62
     0
370
     0
100
AcDbLine
 10
1315.98107938245
 20
1281.502819332541
 30
0.0
 11
1315.98107938245
 21
1289.502819332541
 31
0.0
  0
POINT
  5
3218
330
31EC
100
AcDbEntity
  8
Defpoints
  6
Continuous
 62
     0
100
AcDbPoint
 10
1319.259056967663
 20
1283.286899959112
 30
0.0
  0
POINT
  5
3219
330
31EC
100
AcDbEntity
  8
Defpoints
  6
Continuous
 62
     0
100
AcDbPoint
 10
1315.98107938245
 20
1285.50281933254
 30
0.0
  0
ENDBLK
  5
31F5
330
31EC
100
AcDbEntity
  8
0
100
AcDbBlockEnd
  0
BLOCK
  5
3201
330
31F6
100
AcDbEntity
  8
0
100
AcDbBlockBegin
  2
*D14
 70
     1
 10
0.0
 20
0.0
 30
0.0
  3
*D14
  1

  0
LINE
  5
34B9
330
31F6
100
AcDbEntity
  8
0
  6
Continuous
 62
     7
370
     0
100
AcDbLine
 10
1298.54878651018
 20
1290.300001945958
 30
0.0
 11
1298.54878651018
 21
1301.016326596813
 31
0.0
  0
LINE
  5
34BA
330
31F6
100
AcDbEntity
  8
0
  6
Continuous
 62
     7
370
     0
100
AcDbLine
 10
1320.06848315872
 20
1290.300001945958
 30
0.0
 11
1320.06848315872
 21
1301.016326596813
 31
0.0
  0
LINE
  5
34BB
330
31F6
100
AcDbEntity
  8
0
  6
Continuous
 62
     7
370
     0
100
AcDbLine
 10
1299.54878651018
 20
1300.016326596813
 30
0.0
 11
1319.06848315872
 21
1300.016326596813
 31
0.0
  0
SOLID
  5
34BC
330
31F6
100
AcDbEntity
  8
0
  6
Continuous
 62
     7
100
AcDbTrace
 10
1299.54878651018
 20
1300.18299326348
 30
0.0
 11
1299.54878651018
 21
1299.849659930147
 31
0.0
 12
1298.54878651018
 22
1300.016326596813
 32
0.0
 13
1298.54878651018
 23
1300.016326596813
 33
0.0
  0
SOLID
  5
34BD
330
31F6
100
AcDbEntity
  8
0
  6
Continuous
 62
     7
100
AcDbTrace
 10
1319.06848315872
 20
1300.18299326348
 30
0.0
 11
1319.06848315872
 21
1299.849659930147
 31
0.0
 12
1320.06848315872
 22
1300.016326596813
 32
0.0
 13
1320.06848315872
 23
1300.016326596813
 33
0.0
  0
MTEXT
  5
34BE
330
31F6
100
AcDbEntity
  8
0
  6
Continuous
 62
     0
370
     0
100
AcDbMText
 10
1309.30863483445
 20
1301.516326596813
 30
0.0
 40
1.0
 41
0.0
 71
     5
 72
     1
  1
\A1;21.5197
 73
     1
 44
1.0
  0
POINT
  5
34BF
330
31F6
100
AcDbEntity
  8
Defpoints
  6
Continuous
 62
     0
100
AcDbPoint
 10
1298.54878651018
 20
1289.300001945958
 30
0.0
  0
POINT
  5
34C0
330
31F6
100
AcDbEntity
  8
Defpoints
  6
Continuous
 62
     0
100
AcDbPoint
 10
1320.06848315872
 20
1289.300001945958
 30
0.0
  0
POINT
  5
34C1
330
31F6
100
AcDbEntity
  8
Defpoints
  6
Continuous
 62
     0
100
AcDbPoint
 10
1320.06848315872
 20
1300.016326596813
 30
0.0
  0
ENDBLK
  5
3202
330
31F6
100
AcDbEntity
  8
0
100
AcDbBlockEnd
  0
BLOCK
  5
325A
330
3259
100
AcDbEntity
  8
0
370
     0
100
AcDbBlockBegin
  2
*D15
 70
     1
 10
0.0
 20
0.0
 30
0.0
  3
*D15
  1

  0
LINE
  5
325B
330
3259
100
AcDbEntity
  8
0
  6
Continuous
 62
     0
370
     0
100
AcDbLine
 10
1306.006209388867
 20
-38.71510481557665
 30
0.0
 11
1306.006209388867
 21
-27.52423869565382
 31
0.0
  0
LINE
  5
325C
330
3259
100
AcDbEntity
  8
0
  6
Continuous
 62
     0
370
     0
100
AcDbLine
 10
1335.264496684397
 20
-38.71510481557665
 30
0.0
 11
1335.264496684397
 21
-27.52423869565382
 31
0.0
  0
LINE
  5
325D
330
3259
100
AcDbEntity
  8
0
  6
Continuous
 62
     0
370
     0
100
AcDbLine
 10
1307.006209388867
 20
-28.02423869565382
 30
0.0
 11
1313.878686369966
 21
-28.02423869565382
 31
0.0
  0
LINE
  5
325E
330
3259
100
AcDbEntity
  8
0
  6
Continuous
 62
     0
370
     0
100
AcDbLine
 10
1334.264496684397
 20
-28.02423869565382
 30
0.0
 11
1327.392019703299
 21
-28.02423869565382
 31
0.0
  0
SOLID
  5
325F
330
3259
100
AcDbEntity
  8
0
  6
Continuous
 62
     0
370
     0
100
AcDbTrace
 10
1307.006209388867
 20
-27.85757202898715
 30
0.0
 11
1307.006209388867
 21
-28.19090536232048
 31
0.0
 12
1306.006209388867
 22
-28.02423869565382
 32
0.0
 13
1306.006209388867
 23
-28.02423869565382
 33
0.0
  0
SOLID
  5
3260
330
3259
100
AcDbEntity
  8
0
  6
Continuous
 62
     0
370
     0
100
AcDbTrace
 10
1334.264496684397
 20
-27.85757202898715
 30
0.0
 11
1334.264496684397
 21
-28.19090536232048
 31
0.0
 12
1335.264496684397
 22
-28.02423869565382
 32
0.0
 13
1335.264496684397
 23
-28.02423869565382
 33
0.0
  0
MTEXT
  5
3261
330
3259
100
AcDbEntity
  8
0
  6
Continuous
 62
     0
370
     0
100
AcDbMText
 10
1320.635353036632
 20
-28.02423869565382
 30
0.0
 40
1.0
 41
0.0
 71
     5
 72
     1
  1
\A1;29.26mm [1.1519"]
 73
     1
 44
1.0
  0
POINT
  5
3262
330
3259
100
AcDbEntity
  8
Defpoints
  6
Continuous
 62
     0
370
     0
100
AcDbPoint
 10
1306.006209388867
 20
-38.77760481557665
 30
0.0
  0
POINT
  5
3263
330
3259
100
AcDbEntity
  8
Defpoints
  6
Continuous
 62
     0
370
     0
100
AcDbPoint
 10
1335.264496684397
 20
-38.77760481557665
 30
0.0
  0
POINT
  5
3264
330
3259
100
AcDbEntity
  8
Defpoints
  6
Continuous
 62
     0
370
     0
100
AcDbPoint
 10
1335.264496684397
 20
-28.02423869565382
 30
0.0
  0
ENDBLK
  5
3265
330
3259
100
AcDbEntity
  8
0
370
     0
100
AcDbBlockEnd
  0
BLOCK
  5
3267
330
3266
100
AcDbEntity
  8
0
370
     0
100
AcDbBlockBegin
  2
*D16
 70
     1
 10
0.0
 20
0.0
 30
0.0
  3
*D16
  1

  0
LINE
  5
3268
330
3266
100
AcDbEntity
  8
0
  6
Continuous
 62
     0
370
     0
100
AcDbLine
 10
1320.569224412625
 20
-46.84889897722274
 30
0.0
 11
1302.82049667738
 21
-46.84889897722274
 31
0.0
  0
LINE
  5
3269
330
3266
100
AcDbEntity
  8
0
  6
Continuous
 62
     0
370
     0
100
AcDbLine
 10
1320.569224412625
 20
-30.70631065393055
 30
0.0
 11
1302.82049667738
 21
-30.70631065393054
 31
0.0
  0
LINE
  5
326A
330
3266
100
AcDbEntity
  8
0
  6
Continuous
 62
     0
370
     0
100
AcDbLine
 10
1303.32049667738
 20
-45.84889897722272
 30
0.0
 11
1303.32049667738
 21
-45.61760481557665
 31
0.0
  0
LINE
  5
326B
330
3266
100
AcDbEntity
  8
0
  6
Continuous
 62
     0
370
     0
100
AcDbLine
 10
1303.32049667738
 20
-31.70631065393054
 30
0.0
 11
1303.32049667738
 21
-31.93760481557664
 31
0.0
  0
SOLID
  5
326C
330
3266
100
AcDbEntity
  8
0
  6
Continuous
 62
     0
370
     0
100
AcDbTrace
 10
1303.153830010713
 20
-45.84889897722272
 30
0.0
 11
1303.487163344047
 21
-45.84889897722272
 31
0.0
 12
1303.32049667738
 22
-46.84889897722274
 32
0.0
 13
1303.32049667738
 23
-46.84889897722274
 33
0.0
  0
SOLID
  5
326D
330
3266
100
AcDbEntity
  8
0
  6
Continuous
 62
     0
370
     0
100
AcDbTrace
 10
1303.153830010713
 20
-31.70631065393054
 30
0.0
 11
1303.487163344047
 21
-31.70631065393054
 31
0.0
 12
1303.32049667738
 22
-30.70631065393054
 32
0.0
 13
1303.32049667738
 23
-30.70631065393054
 33
0.0
  0
MTEXT
  5
326E
330
3266
100
AcDbEntity
  8
0
  6
Continuous
 62
     0
370
     0
100
AcDbMText
 10
1303.32049667738
 20
-38.77760481557643
 30
0.0
 40
1.0
 41
0.0
 71
     5
 72
     1
  1
\A1;16.14mm [0.6355"]
 11
0.0000000000000001
 21
1.0
 31
0.0
 73
     1
 44
1.0
  0
POINT
  5
326F
330
3266
100
AcDbEntity
  8
Defpoints
  6
Continuous
 62
     0
370
     0
100
AcDbPoint
 10
1320.631724412625
 20
-46.84889897722274
 30
0.0
  0
POINT
  5
3270
330
3266
100
AcDbEntity
  8
Defpoints
  6
Continuous
 62
     0
370
     0
100
AcDbPoint
 10
1320.631724412625
 20
-30.70631065393055
 30
0.0
  0
POINT
  5
3271
330
3266
100
AcDbEntity
  8
Defpoints
  6
Continuous
 62
     0
370
     0
100
AcDbPoint
 10
1303.32049667738
 20
-30.70631065393054
 30
0.0
  0
ENDBLK
  5
3272
330
3266
100
AcDbEntity
  8
0
370
     0
100
AcDbBlockEnd
  0
BLOCK
  5
32B9
330
32AF
100
AcDbEntity
  8
0
100
AcDbBlockBegin
  2
*D17
 70
     1
 10
0.0
 20
0.0
 30
0.0
  3
*D17
  1

  0
LINE
  5
34B0
330
32AF
100
AcDbEntity
  8
0
  6
Continuous
 62
     7
370
     0
100
AcDbLine
 10
1245.701527246697
 20
1290.486214202192
 30
0.0
 11
1245.701527246697
 21
1301.239580322115
 31
0.0
  0
LINE
  5
34B1
330
32AF
100
AcDbEntity
  8
0
  6
Continuous
 62
     7
370
     0
100
AcDbLine
 10
1274.959814542227
 20
1290.486214202192
 30
0.0
 11
1274.959814542227
 21
1301.239580322115
 31
0.0
  0
LINE
  5
34B2
330
32AF
100
AcDbEntity
  8
0
  6
Continuous
 62
     7
370
     0
100
AcDbLine
 10
1246.701527246697
 20
1300.239580322115
 30
0.0
 11
1273.959814542227
 21
1300.239580322115
 31
0.0
  0
SOLID
  5
34B3
330
32AF
100
AcDbEntity
  8
0
  6
Continuous
 62
     7
100
AcDbTrace
 10
1246.701527246697
 20
1300.406246988782
 30
0.0
 11
1246.701527246697
 21
1300.072913655448
 31
0.0
 12
1245.701527246697
 22
1300.239580322115
 32
0.0
 13
1245.701527246697
 23
1300.239580322115
 33
0.0
  0
SOLID
  5
34B4
330
32AF
100
AcDbEntity
  8
0
  6
Continuous
 62
     7
100
AcDbTrace
 10
1273.959814542227
 20
1300.406246988782
 30
0.0
 11
1273.959814542227
 21
1300.072913655448
 31
0.0
 12
1274.959814542227
 22
1300.239580322115
 32
0.0
 13
1274.959814542227
 23
1300.239580322115
 33
0.0
  0
MTEXT
  5
34B5
330
32AF
100
AcDbEntity
  8
0
  6
Continuous
 62
     0
370
     0
100
AcDbMText
 10
1260.330670894462
 20
1301.739580322115
 30
0.0
 40
1.0
 41
0.0
 71
     5
 72
     1
  1
\A1;29.26
 73
     1
 44
1.0
 90
        3
 63
     9
421
 13158600
 45
1.1
441
 15634712
  0
POINT
  5
34B6
330
32AF
100
AcDbEntity
  8
Defpoints
  6
Continuous
 62
     0
100
AcDbPoint
 10
1245.701527246697
 20
1289.486214202192
 30
0.0
  0
POINT
  5
34B7
330
32AF
100
AcDbEntity
  8
Defpoints
  6
Continuous
 62
     0
100
AcDbPoint
 10
1274.959814542227
 20
1289.486214202192
 30
0.0
  0
POINT
  5
34B8
330
32AF
100
AcDbEntity
  8
Defpoints
  6
Continuous
 62
     0
100
AcDbPoint
 10
1274.959814542227
 20
1300.239580322115
 30
0.0
  0
ENDBLK
  5
32BA
330
32AF
100
AcDbEntity
  8
0
100
AcDbBlockEnd
  0
BLOCK
  5
32C6
330
32BB
100
AcDbEntity
  8
0
100
AcDbBlockBegin
  2
*D18
 70
     1
 10
0.0
 20
0.0
 30
0.0
  3
*D18
  1

  0
LINE
  5
34C2
330
32BB
100
AcDbEntity
  8
0
  6
Continuous
 62
     0
370
     0
100
AcDbLine
 10
1259.827042270456
 20
1281.414920040546
 30
0.0
 11
1242.66784616873
 21
1281.414920040546
 31
0.0
  0
LINE
  5
34C3
330
32BB
100
AcDbEntity
  8
0
  6
Continuous
 62
     0
370
     0
100
AcDbLine
 10
1259.827042270456
 20
1297.557508363838
 30
0.0
 11
1242.66784616873
 21
1297.557508363838
 31
0.0
  0
LINE
  5
34C4
330
32BB
100
AcDbEntity
  8
0
  6
Continuous
 62
     0
370
     0
100
AcDbLine
 10
1243.16784616873
 20
1282.414920040546
 30
0.0
 11
1243.16784616873
 21
1296.557508363838
 31
0.0
  0
SOLID
  5
34C5
330
32BB
100
AcDbEntity
  8
0
  6
Continuous
 62
     0
100
AcDbTrace
 10
1243.001179502064
 20
1282.414920040546
 30
0.0
 11
1243.334512835397
 21
1282.414920040546
 31
0.0
 12
1243.16784616873
 22
1281.414920040546
 32
0.0
 13
1243.16784616873
 23
1281.414920040546
 33
0.0
  0
SOLID
  5
34C6
330
32BB
100
AcDbEntity
  8
0
  6
Continuous
 62
     0
100
AcDbTrace
 10
1243.001179502064
 20
1296.557508363838
 30
0.0
 11
1243.334512835397
 21
1296.557508363838
 31
0.0
 12
1243.16784616873
 22
1297.557508363838
 32
0.0
 13
1243.16784616873
 23
1297.557508363838
 33
0.0
  0
MTEXT
  5
34C7
330
32BB
100
AcDbEntity
  8
0
  6
Continuous
 62
     0
370
     0
100
AcDbMText
 10
1241.66784616873
 20
1289.486214202192
 30
0.0
 40
1.0
 41
0.0
 71
     5
 72
     1
  1
\A1;16.14
 11
0.0000000000000001
 21
1.0
 31
0.0
 73
     1
 44
1.0
  0
POINT
  5
34C8
330
32BB
100
AcDbEntity
  8
Defpoints
  6
Continuous
 62
     0
100
AcDbPoint
 10
1260.327042270455
 20
1281.414920040546
 30
0.0
  0
POINT
  5
34C9
330
32BB
100
AcDbEntity
  8
Defpoints
  6
Continuous
 62
     0
100
AcDbPoint
 10
1260.327042270455
 20
1297.557508363838
 30
0.0
  0
POINT
  5
34CA
330
32BB
100
AcDbEntity
  8
Defpoints
  6
Continuous
 62
     0
100
AcDbPoint
 10
1243.16784616873
 20
1297.557508363838
 30
0.0
  0
ENDBLK
  5
32C7
330
32BB
100
AcDbEntity
  8
0
100
AcDbBlockEnd
  0
BLOCK
  5
3555
330
3554
100
AcDbEntity
  8
0
100
AcDbBlockBegin
  2
_CLOSED
 70
     0
 10
0.0
 20
0.0
 30
0.0
  3
_CLOSED
  1

  0
LINE
  5
3556
330
3554
100
AcDbEntity
  8
0
  6
ByBlock
 62
     0
370
    -2
100
AcDbLine
 10
-1.0
 20
0.166667
 30
0.0
 11
0.0
 21
0.0
 31
0.0
  0
LINE
  5
3557
330
3554
100
AcDbEntity
  8
0
  6
ByBlock
 62
     0
370
    -2
100
AcDbLine
 10
0.0
 20
0.0
 30
0.0
 11
-1.0
 21
-0.166667
 31
0.0
  0
LINE
  5
3558
330
3554
100
AcDbEntity
  8
0
  6
ByBlock
 62
     0
370
    -2
100
AcDbLine
 10
-1.0
 20
0.166667
 30
0.0
 11
-1.0
 21
-0.166667
 31
0.0
  0
LINE
  5
3559
330
3554
100
AcDbEntity
  8
0
  6
ByBlock
 62
     0
370
    -2
100
AcDbLine
 10
0.0
 20
0.0
 30
0.0
 11
-1.0
 21
0.0
 31
0.0
  0
ENDBLK
  5
355A
330
3554
100
AcDbEntity
  8
0
100
AcDbBlockEnd
  0
BLOCK
  5
355C
330
355B
100
AcDbEntity
  8
0
100
AcDbBlockBegin
  2
.TD_DIMENSION_1
 70
     0
 10
8957.290039
 20
-2284.670166
 30
0.0
  3
.TD_DIMENSION_1
  1

  0
LINE
  5
355D
330
355B
100
AcDbEntity
  8
0
  6
Continuous
 62
     7
420
 16777215
100
AcDbLine
 10
9006.025390999999
 20
-2138.243896
 30
0.0
 11
9008.887695
 21
-2142.343262
 31
0.0
  0
LINE
  5
355E
330
355B
100
AcDbEntity
  8
0
  6
Continuous
 62
     7
420
 16777215
100
AcDbLine
 10
9008.887695
 20
-2142.343262
 30
0.0
 11
9108.286133
 21
-2284.670166
 31
0.0
  0
MTEXT
  5
355F
330
355B
100
AcDbEntity
  8
0
  6
Continuous
 62
     2
420
 16776960
100
AcDbMText
 10
9053.230746
 20
-2140.34343
 30
0.0
 40
25.0
 41
0.0
 71
     1
 72
     1
  1
{\fArial|b0|i0|c0|p0;R}
  7
Default
 11
0.5725714089306516
 21
-0.8198548540291559
 31
0.0
 73
     1
 44
1.0
  0
MTEXT
  5
3560
330
355B
100
AcDbEntity
  8
0
  6
Continuous
 62
     2
420
 16776960
100
AcDbMText
 10
9067.545198999999
 20
-2160.839768
 30
0.0
 40
25.0
 41
0.0
 71
     1
 72
     1
  1
{\fArial|b0|i0|c0|p0;5  (1/5")}
  7
Default
 11
0.5725714089306516
 21
-0.8198548540291559
 31
0.0
 73
     1
 44
1.0
  0
LWPOLYLINE
  5
3561
330
355B
100
AcDbEntity
  8
0
  6
Continuous
 62
     1
420
 16711680
100
AcDbPolyline
 90
        4
 70
     0
 43
0.0
 10
9018.829101999999
 20
-2150.647461
 10
9006.025390999999
 20
-2138.243896
 10
9013.261719
 20
-2154.535156
 10
9018.829101999999
 20
-2150.647461
  0
ENDBLK
  5
3562
330
355B
100
AcDbEntity
  8
0
100
AcDbBlockEnd
  0
BLOCK
  5
3564
330
3563
100
AcDbEntity
  8
0
100
AcDbBlockBegin
  2
*D21
 70
     1
 10
0.0
 20
0.0
 30
0.0
  3
*D21
  1

  0
LINE
  5
3565
330
3563
100
AcDbEntity
  8
0
  6
Continuous
 62
     7
370
    -2
100
AcDbLine
 10
7491.625270092612
 20
-1801.43129165369
 30
0.0
 11
7491.625270092612
 21
-1766.95480981064
 31
0.0
  0
LINE
  5
3566
330
3563
100
AcDbEntity
  8
0
  6
Continuous
 62
     7
370
    -2
100
AcDbLine
 10
7461.467773492613
 20
-1801.43129165369
 30
0.0
 11
7461.467773492613
 21
-1766.95480981064
 31
0.0
  0
LINE
  5
3567
330
3563
100
AcDbEntity
  8
0
  6
Continuous
 62
     7
370
    -2
100
AcDbLine
 10
7516.125270092611
 20
-1752.95480981064
 30
0.0
 11
7540.62527009261
 21
-1752.95480981064
 31
0.0
  0
LINE
  5
3568
330
3563
100
AcDbEntity
  8
0
  6
Continuous
 62
     7
370
    -2
100
AcDbLine
 10
7436.967773492611
 20
-1752.95480981064
 30
0.0
 11
7073.746081814576
 21
-1752.95480981064
 31
0.0
  0
LINE
  5
3569
330
3563
100
AcDbEntity
  8
0
  6
Continuous
 62
     7
370
    -2
100
AcDbLine
 10
7491.625270092612
 20
-1752.95480981064
 30
0.0
 11
7461.467773492613
 21
-1752.95480981064
 31
0.0
  0
INSERT
  5
356A
330
3563
100
AcDbEntity
  8
0
  6
Continuous
 62
     7
370
    -2
100
AcDbBlockReference
  2
_CLOSED
 10
7491.625270092612
 20
-1752.95480981064
 30
0.0
 41
24.5
 42
24.5
 43
24.5
 50
180.0
  0
INSERT
  5
356B
330
3563
100
AcDbEntity
  8
0
  6
Continuous
 62
     7
370
    -2
100
AcDbBlockReference
  2
_CLOSED
 10
7461.467773492613
 20
-1752.95480981064
 30
0.0
 41
24.5
 42
24.5
 43
24.5
  0
MTEXT
  5
356C
330
3563
100
AcDbEntity
  8
0
  6
Continuous
 62
     2
370
     0
100
AcDbMText
 10
7243.106927653592
 20
-1719.51142645457
 30
0.0
 40
35.0
 41
0.0
 71
     5
 72
     1
  1
\A1;\fArial|b0|i0|c0|p0;766  (30 5/32")
  7
Default
 73
     1
 44
1.0
  0
POINT
  5
356D
330
3563
100
AcDbEntity
  8
Defpoints
  6
Continuous
 62
     0
100
AcDbPoint
 10
7491.625270092612
 20
-1748.93129165369
 30
0.0
  0
POINT
  5
356E
330
3563
100
AcDbEntity
  8
Defpoints
  6
Continuous
 62
     0
100
AcDbPoint
 10
7461.467773492613
 20
-1748.93129165369
 30
0.0
  0
POINT
  5
356F
330
3563
100
AcDbEntity
  8
Defpoints
  6
Continuous
 62
     0
100
AcDbPoint
 10
7461.467773492613
 20
-1752.95480981064
 30
0.0
  0
ENDBLK
  5
3570
330
3563
100
AcDbEntity
  8
0
100
AcDbBlockEnd
  0
BLOCK
  5
359D
330
3591
100
AcDbEntity
  8
0
100
AcDbBlockBegin
  2
*D22
 70
     1
 10
0.0
 20
0.0
 30
0.0
  3
*D22
  1

  0
LINE
  5
35DD
330
3591
100
AcDbEntity
  8
0
  6
Continuous
 62
     7
370
    -2
100
AcDbLine
 10
1753.927801544747
 20
1308.552572733713
 30
0.0
 11
1753.927801544747
 21
1304.529054576763
 31
0.0
  0
LINE
  5
35DE
330
3591
100
AcDbEntity
  8
0
  6
Continuous
 62
     7
370
    -2
100
AcDbLine
 10
1723.770304944746
 20
1308.552572733713
 30
0.0
 11
1723.770304944746
 21
1304.529054576763
 31
0.0
  0
LINE
  5
35DF
330
3591
100
AcDbEntity
  8
0
  6
Continuous
 62
     7
370
    -2
100
AcDbLine
 10
1752.927801544746
 20
1305.529054576763
 30
0.0
 11
1724.770304944747
 21
1305.529054576763
 31
0.0
  0
INSERT
  5
35E0
330
3591
100
AcDbEntity
  8
0
  6
Continuous
 62
     7
370
    -2
100
AcDbBlockReference
  2
_CLOSED
 10
1753.927801544747
 20
1305.529054576763
 30
0.0
  0
INSERT
  5
35E1
330
3591
100
AcDbEntity
  8
0
  6
Continuous
 62
     7
370
    -2
100
AcDbBlockReference
  2
_CLOSED
 10
1723.770304944746
 20
1305.529054576763
 30
0.0
 50
180.0
  0
MTEXT
  5
35E2
330
3591
100
AcDbEntity
  8
0
  6
Continuous
 62
     7
370
     0
100
AcDbMText
 10
1738.849053244746
 20
1307.184579815508
 30
0.0
 40
1.0
 41
0.0
 71
     5
 72
     1
  1
\A1;\fArial|b0|i0|c0|p0;766  (30 5/32")
  7
Default
 73
     1
 44
1.0
  0
POINT
  5
35E3
330
3591
100
AcDbEntity
  8
Defpoints
  6
Continuous
 62
     0
100
AcDbPoint
 10
1753.927801544747
 20
1309.552572733713
 30
0.0
  0
POINT
  5
35E4
330
3591
100
AcDbEntity
  8
Defpoints
  6
Continuous
 62
     0
100
AcDbPoint
 10
1723.770304944746
 20
1309.552572733713
 30
0.0
  0
POINT
  5
35E5
330
3591
100
AcDbEntity
  8
Defpoints
  6
Continuous
 62
     0
100
AcDbPoint
 10
1723.770304944746
 20
1305.529054576763
 30
0.0
  0
ENDBLK
  5
359E
330
3591
100
AcDbEntity
  8
0
100
AcDbBlockEnd
  0
BLOCK
  5
35E7
330
35E6
100
AcDbEntity
  8
0
100
AcDbBlockBegin
  2
*D23
 70
     1
 10
0.0
 20
0.0
 30
0.0
  3
*D23
  1

  0
LINE
  5
35E8
330
35E6
100
AcDbEntity
  8
0
  6
Continuous
 62
     7
370
    -2
100
AcDbLine
 10
7491.625270092612
 20
-1801.43129165369
 30
0.0
 11
7491.625270092612
 21
-1766.95480981064
 31
0.0
  0
LINE
  5
35E9
330
35E6
100
AcDbEntity
  8
0
  6
Continuous
 62
     7
370
    -2
100
AcDbLine
 10
7461.467773492613
 20
-1801.43129165369
 30
0.0
 11
7461.467773492613
 21
-1766.95480981064
 31
0.0
  0
LINE
  5
35EA
330
35E6
100
AcDbEntity
  8
0
  6
Continuous
 62
     7
370
    -2
100
AcDbLine
 10
7516.125270092611
 20
-1752.95480981064
 30
0.0
 11
7540.62527009261
 21
-1752.95480981064
 31
0.0
  0
LINE
  5
35EB
330
35E6
100
AcDbEntity
  8
0
  6
Continuous
 62
     7
370
    -2
100
AcDbLine
 10
7436.967773492611
 20
-1752.95480981064
 30
0.0
 11
7073.746081814576
 21
-1752.95480981064
 31
0.0
  0
LINE
  5
35EC
330
35E6
100
AcDbEntity
  8
0
  6
Continuous
 62
     7
370
    -2
100
AcDbLine
 10
7491.625270092612
 20
-1752.95480981064
 30
0.0
 11
7461.467773492613
 21
-1752.95480981064
 31
0.0
  0
INSERT
  5
35ED
330
35E6
100
AcDbEntity
  8
0
  6
Continuous
 62
     7
370
    -2
100
AcDbBlockReference
  2
_CLOSED
 10
7491.625270092612
 20
-1752.95480981064
 30
0.0
 41
24.5
 42
24.5
 43
24.5
 50
180.0
  0
INSERT
  5
35EE
330
35E6
100
AcDbEntity
  8
0
  6
Continuous
 62
     7
370
    -2
100
AcDbBlockReference
  2
_CLOSED
 10
7461.467773492613
 20
-1752.95480981064
 30
0.0
 41
24.5
 42
24.5
 43
24.5
  0
MTEXT
  5
35EF
330
35E6
100
AcDbEntity
  8
0
  6
Continuous
 62
     2
370
     0
100
AcDbMText
 10
7243.106927653592
 20
-1719.51142645457
 30
0.0
 40
35.0
 41
0.0
 71
     5
 72
     1
  1
\A1;\fArial|b0|i0|c0|p0;766  (30 5/32")
  7
Default
 73
     1
 44
1.0
  0
POINT
  5
35F0
330
35E6
100
AcDbEntity
  8
Defpoints
  6
Continuous
 62
     0
100
AcDbPoint
 10
7491.625270092612
 20
-1748.93129165369
 30
0.0
  0
POINT
  5
35F1
330
35E6
100
AcDbEntity
  8
Defpoints
  6
Continuous
 62
     0
100
AcDbPoint
 10
7461.467773492613
 20
-1748.93129165369
 30
0.0
  0
POINT
  5
35F2
330
35E6
100
AcDbEntity
  8
Defpoints
  6
Continuous
 62
     0
100
AcDbPoint
 10
7461.467773492613
 20
-1752.95480981064
 30
0.0
  0
ENDBLK
  5
35F3
330
35E6
100
AcDbEntity
  8
0
100
AcDbBlockEnd
  0
BLOCK
  5
35F5
330
35F4
100
AcDbEntity
  8
0
100
AcDbBlockBegin
  2
*D24
 70
     1
 10
0.0
 20
0.0
 30
0.0
  3
*D24
  1

  0
LINE
  5
35F6
330
35F4
100
AcDbEntity
  8
0
  6
Continuous
 62
     7
370
    -2
100
AcDbLine
 10
7543.92841959261
 20
-1749.12814215369
 30
0.0
 11
7510.849601968867
 21
-1749.12814215369
 31
0.0
  0
LINE
  5
35F7
330
35F4
100
AcDbEntity
  8
0
  6
Continuous
 62
     7
370
    -2
100
AcDbLine
 10
7543.92841959261
 20
-1732.12025895369
 30
0.0
 11
7510.849601968867
 21
-1732.12025895369
 31
0.0
  0
LINE
  5
35F8
330
35F4
100
AcDbEntity
  8
0
  6
Continuous
 62
     7
370
    -2
100
AcDbLine
 10
7496.849601968867
 20
-1773.62814215369
 30
0.0
 11
7496.849601968867
 21
-1798.12814215369
 31
0.0
  0
LINE
  5
35F9
330
35F4
100
AcDbEntity
  8
0
  6
Continuous
 62
     7
370
    -2
100
AcDbLine
 10
7496.849601968867
 20
-1707.62025895369
 30
0.0
 11
7496.849601968867
 21
-1342.703478598983
 31
0.0
  0
LINE
  5
35FA
330
35F4
100
AcDbEntity
  8
0
  6
Continuous
 62
     7
370
    -2
100
AcDbLine
 10
7496.849601968867
 20
-1749.12814215369
 30
0.0
 11
7496.849601968867
 21
-1732.12025895369
 31
0.0
  0
INSERT
  5
35FB
330
35F4
100
AcDbEntity
  8
0
  6
Continuous
 62
     7
370
    -2
100
AcDbBlockReference
  2
_CLOSED
 10
7496.849601968867
 20
-1749.12814215369
 30
0.0
 41
24.5
 42
24.5
 43
24.5
 50
90.0
  0
INSERT
  5
35FC
330
35F4
100
AcDbEntity
  8
0
  6
Continuous
 62
     7
370
    -2
100
AcDbBlockReference
  2
_CLOSED
 10
7496.849601968867
 20
-1732.12025895369
 30
0.0
 41
24.5
 42
24.5
 43
24.5
 50
270.0
  0
MTEXT
  5
35FD
330
35F4
100
AcDbEntity
  8
0
  6
Continuous
 62
     2
370
     0
100
AcDbMText
 10
7463.406218612796
 20
-1512.911868776335
 30
0.0
 40
35.0
 41
0.0
 71
     5
 72
     1
  1
\A1;\fArial|b0|i0|c0|p0;432  (17 1/64")
  7
Default
 11
0.0000000000000001
 21
1.0
 31
0.0
 73
     1
 44
1.0
  0
POINT
  5
35FE
330
35F4
100
AcDbEntity
  8
Defpoints
  6
Continuous
 62
     0
100
AcDbPoint
 10
7491.428419592613
 20
-1749.12814215369
 30
0.0
  0
POINT
  5
35FF
330
35F4
100
AcDbEntity
  8
Defpoints
  6
Continuous
 62
     0
100
AcDbPoint
 10
7491.428419592613
 20
-1732.12025895369
 30
0.0
  0
POINT
  5
3600
330
35F4
100
AcDbEntity
  8
Defpoints
  6
Continuous
 62
     0
100
AcDbPoint
 10
7496.849601968867
 20
-1732.12025895369
 30
0.0
  0
ENDBLK
  5
3601
330
35F4
100
AcDbEntity
  8
0
100
AcDbBlockEnd
  0
BLOCK
  5
362A
330
361E
100
AcDbEntity
  8
0
100
AcDbBlockBegin
  2
*D25
 70
     1
 10
0.0
 20
0.0
 30
0.0
  3
*D25
  1

  0
LINE
  5
3726
330
361E
100
AcDbEntity
  8
0
  6
Continuous
 62
     7
370
    -2
100
AcDbLine
 10
1323.525957468665
 20
1280.635934176848
 30
0.0
 11
1323.525957468665
 21
1276.612416019897
 31
0.0
  0
LINE
  5
3727
330
361E
100
AcDbEntity
  8
0
  6
Continuous
 62
     7
370
    -2
100
AcDbLine
 10
1293.368460868665
 20
1280.635934176848
 30
0.0
 11
1293.368460868665
 21
1276.612416019897
 31
0.0
  0
LINE
  5
3728
330
361E
100
AcDbEntity
  8
0
  6
Continuous
 62
     7
370
    -2
100
AcDbLine
 10
1322.525957468665
 20
1277.612416019898
 30
0.0
 11
1294.368460868665
 21
1277.612416019898
 31
0.0
  0
INSERT
  5
3729
330
361E
100
AcDbEntity
  8
0
  6
Continuous
 62
     7
370
    -2
100
AcDbBlockReference
  2
_CLOSED
 10
1323.525957468665
 20
1277.612416019898
 30
0.0
  0
INSERT
  5
372A
330
361E
100
AcDbEntity
  8
0
  6
Continuous
 62
     7
370
    -2
100
AcDbBlockReference
  2
_CLOSED
 10
1293.368460868665
 20
1277.612416019898
 30
0.0
 50
180.0
  0
MTEXT
  5
372B
330
361E
100
AcDbEntity
  8
0
  6
Continuous
 62
     7
370
     0
100
AcDbMText
 10
1308.447209168665
 20
1279.122924494474
 30
0.0
 40
1.0
 41
0.0
 71
     5
 72
     1
  1
\A1;30.16
  7
Default
 73
     1
 44
1.0
  0
POINT
  5
372C
330
361E
100
AcDbEntity
  8
Defpoints
  6
Continuous
 62
     0
100
AcDbPoint
 10
1323.525957468665
 20
1281.635934176848
 30
0.0
  0
POINT
  5
372D
330
361E
100
AcDbEntity
  8
Defpoints
  6
Continuous
 62
     0
100
AcDbPoint
 10
1293.368460868665
 20
1281.635934176848
 30
0.0
  0
POINT
  5
372E
330
361E
100
AcDbEntity
  8
Defpoints
  6
Continuous
 62
     0
100
AcDbPoint
 10
1293.368460868665
 20
1277.612416019898
 30
0.0
  0
ENDBLK
  5
362B
330
361E
100
AcDbEntity
  8
0
100
AcDbBlockEnd
  0
BLOCK
  5
3638
330
362C
100
AcDbEntity
  8
0
100
AcDbBlockBegin
  2
*D26
 70
     1
 10
0.0
 20
0.0
 30
0.0
  3
*D26
  1

  0
LINE
  5
371D
330
362C
100
AcDbEntity
  8
0
  6
Continuous
 62
     7
370
    -2
100
AcDbLine
 10
1324.329106968664
 20
1281.439083676848
 30
0.0
 11
1329.750289344921
 21
1281.439083676848
 31
0.0
  0
LINE
  5
371E
330
362C
100
AcDbEntity
  8
0
  6
Continuous
 62
     7
370
    -2
100
AcDbLine
 10
1324.329106968664
 20
1298.446966876848
 30
0.0
 11
1329.750289344921
 21
1298.446966876848
 31
0.0
  0
LINE
  5
371F
330
362C
100
AcDbEntity
  8
0
  6
Continuous
 62
     7
370
    -2
100
AcDbLine
 10
1328.750289344921
 20
1282.439083676848
 30
0.0
 11
1328.750289344921
 21
1297.446966876848
 31
0.0
  0
INSERT
  5
3720
330
362C
100
AcDbEntity
  8
0
  6
Continuous
 62
     7
370
    -2
100
AcDbBlockReference
  2
_CLOSED
 10
1328.750289344921
 20
1281.439083676848
 30
0.0
 50
270.0
  0
INSERT
  5
3721
330
362C
100
AcDbEntity
  8
0
  6
Continuous
 62
     7
370
    -2
100
AcDbBlockReference
  2
_CLOSED
 10
1328.750289344921
 20
1298.446966876848
 30
0.0
 50
90.0
  0
MTEXT
  5
3722
330
362C
100
AcDbEntity
  8
0
  6
Continuous
 62
     7
370
     0
100
AcDbMText
 10
1327.239780870344
 20
1289.943025276848
 30
0.0
 40
1.0
 41
0.0
 71
     5
 72
     1
  1
\A1;17.01
  7
Default
 11
0.0000000000000001
 21
1.0
 31
0.0
 73
     1
 44
1.0
  0
POINT
  5
3723
330
362C
100
AcDbEntity
  8
Defpoints
  6
Continuous
 62
     0
100
AcDbPoint
 10
1323.329106968664
 20
1281.439083676848
 30
0.0
  0
POINT
  5
3724
330
362C
100
AcDbEntity
  8
Defpoints
  6
Continuous
 62
     0
100
AcDbPoint
 10
1323.329106968664
 20
1298.446966876848
 30
0.0
  0
POINT
  5
3725
330
362C
100
AcDbEntity
  8
Defpoints
  6
Continuous
 62
     0
100
AcDbPoint
 10
1328.750289344921
 20
1298.446966876848
 30
0.0
  0
ENDBLK
  5
3639
330
362C
100
AcDbEntity
  8
0
100
AcDbBlockEnd
  0
BLOCK
  5
3736
330
3735
100
AcDbEntity
  8
0
100
AcDbBlockBegin
  2
*D27
 70
     1
 10
0.0
 20
0.0
 30
0.0
  3
*D27
  1

  0
LINE
  5
3737
330
3735
100
AcDbEntity
  8
0
  6
Continuous
 62
     7
370
    -2
100
AcDbLine
 10
1111.197879712944
 20
1291.567715507014
 30
0.0
 11
1107.422404651569
 21
1295.951037603351
 31
0.0
  0
MTEXT
  5
3738
330
3735
100
AcDbEntity
  8
0
  6
Continuous
 62
     7
370
     0
100
AcDbMText
 10
1110.785903479538
 20
1294.370587667066
 30
0.0
 40
1.0
 41
0.0
 71
     5
 72
     1
  1
\A1;R1/5
  7
TSTYLE10
 11
0.6526171960825666
 21
-0.7576877954522752
 31
0.0
 73
     1
 44
1.0
  0
SOLID
  5
3739
330
3735
100
AcDbEntity
  8
0
  6
Continuous
 62
     7
100
AcDbTrace
 10
1107.548685950811
 20
1296.059807136032
 30
0.0
 11
1107.296123352327
 21
1295.842268070671
 31
0.0
 12
1106.769787455486
 22
1296.708725398804
 32
0.0
 13
1106.769787455486
 23
1296.708725398804
 33
0.0
  0
LINE
  5
373A
330
3735
100
AcDbEntity
  8
0
  6
Continuous
 62
     0
370
    -2
100
AcDbLine
 10
1106.551319433358
 20
1296.857876621078
 30
0.0
 11
1106.731319433358
 21
1296.857876621078
 31
0.0
  0
LINE
  5
373B
330
3735
100
AcDbEntity
  8
0
  6
Continuous
 62
     0
370
    -2
100
AcDbLine
 10
1106.641319433357
 20
1296.767876621078
 30
0.0
 11
1106.641319433358
 21
1296.947876621078
 31
0.0
  0
POINT
  5
373C
330
3735
100
AcDbEntity
  8
Defpoints
  6
Continuous
 62
     0
100
AcDbPoint
 10
1106.769787455486
 20
1296.708725398804
 30
0.0
  0
POINT
  5
373D
330
3735
100
AcDbEntity
  8
Defpoints
  6
Continuous
 62
     0
100
AcDbPoint
 10
1106.641319433358
 20
1296.857876621078
 30
0.0
  0
ENDBLK
  5
373E
330
3735
100
AcDbEntity
  8
0
100
AcDbBlockEnd
  0
BLOCK
  5
3752
330
374A
100
AcDbEntity
  8
0
100
AcDbBlockBegin
  2
*D28
 70
     1
 10
0.0
 20
0.0
 30
0.0
  3
*D28
  1

  0
LINE
  5
3769
330
374A
100
AcDbEntity
  8
0
  6
Continuous
 62
     7
370
    -2
100
AcDbLine
 10
1297.986137138485
 20
1293.087624155206
 30
0.0
 11
1294.210662077118
 21
1297.470946251551
 31
0.0
  0
MTEXT
  5
376A
330
374A
100
AcDbEntity
  8
0
  6
Continuous
 62
     7
370
     0
100
AcDbMText
 10
1297.574160905084
 20
1295.890496315259
 30
0.0
 40
1.0
 41
0.0
 71
     5
 72
     1
  1
\A1;R1/5
  7
TSTYLE10
 11
0.652617196081148
 21
-0.7576877954534971
 31
0.0
 73
     1
 44
1.0
  0
SOLID
  5
376B
330
374A
100
AcDbEntity
  8
0
  6
Continuous
 62
     7
100
AcDbTrace
 10
1294.33694337636
 20
1297.579715784231
 30
0.0
 11
1294.084380777876
 21
1297.362176718871
 31
0.0
 12
1293.558044881037
 22
1298.228634047004
 32
0.0
 13
1293.558044881037
 23
1298.228634047004
 33
0.0
  0
LINE
  5
376C
330
374A
100
AcDbEntity
  8
0
  6
Continuous
 62
     0
370
    -2
100
AcDbLine
 10
1293.339576858908
 20
1298.377785269278
 30
0.0
 11
1293.519576858908
 21
1298.377785269278
 31
0.0
  0
LINE
  5
376D
330
374A
100
AcDbEntity
  8
0
  6
Continuous
 62
     0
370
    -2
100
AcDbLine
 10
1293.429576858909
 20
1298.287785269278
 30
0.0
 11
1293.429576858909
 21
1298.467785269278
 31
0.0
  0
POINT
  5
376E
330
374A
100
AcDbEntity
  8
Defpoints
  6
Continuous
 62
     0
100
AcDbPoint
 10
1293.558044881037
 20
1298.228634047004
 30
0.0
  0
POINT
  5
376F
330
374A
100
AcDbEntity
  8
Defpoints
  6
Continuous
 62
     0
100
AcDbPoint
 10
1293.429576858909
 20
1298.377785269278
 30
0.0
  0
ENDBLK
  5
3753
330
374A
100
AcDbEntity
  8
0
100
AcDbBlockEnd
  0
ENDSEC
  0
SECTION
  2
ENTITIES
  0
POINT
  5
37C
330
2
100
AcDbEntity
  8
0
 60
     1
100
AcDbPoint
 10
170.4737662487822
 20
-90.83440570086338
 30
0.0
1001
GENIUS_GENOBJ-N-TIT_13
1002
{
1000
OWNER
1000
GEN
1002
}
1001
GENIUS_GENOENT_13
1002
{
1000
MYREF
1005
37C
1002
}
1002
{
1000
GRP
1005
0
1002
}
1001
GENIUS_GENOLIS_13
1002
{
1000
ENT
1005
0
1005
0
1002
}
1001
GENIUS_GENTITLE_13
1002
{
1000
SCALE
1000
1:1
1002
}
1002
{
1000
BORDER
1000
GEN_A1
1002
}
1002
{
1000
TITLE
1000
GENTITLE
1002
}
1002
{
1000
UNCHG
1002
{
1000
GEN-TITLE-SCA
1000
GEN-TITLE-SIZ
1002
}
1002
}
1002
{
1000
HRA
1005
0
1002
}
1002
{
1000
HTIT
1005
0
1002
}
1002
{
1000
GENIUSID
1005
37C
1002
}
1001
GENIUS_GENODEF_13
1002
{
1000
HIER
1070
     1
1002
}
1002
{
1000
MANEDIT
1070
     0
1002
}
1002
{
1000
NOSEL
1070
     0
1002
}
1002
{
1000
BEHIND
1070
     0
1002
}
1002
{
1000
REACTOR
1002
}
  0
TEXT
  5
384
330
2
100
AcDbEntity
  8
0
 60
     1
100
AcDbText
 10
830.9999999999996
 20
-52.92726755347096
 30
0.0
 40
3.5
  1
!GENTITLE-INSERT
100
AcDbText
  0
TEXT
  5
385
330
2
100
AcDbEntity
  8
0
 60
     1
100
AcDbText
 10
10.0
 20
-47.92726755347096
 30
0.0
 40
3.5
  1
!GENTITLE-LL
100
AcDbText
  0
TEXT
  5
386
330
2
100
AcDbEntity
  8
0
 60
     1
100
AcDbText
 10
831.0
 20
526.072732446529
 30
0.0
 40
3.5
  1
!GENTITLE-RU
100
AcDbText
  0
TEXT
  5
387
330
2
100
AcDbEntity
  8
0
 60
     1
100
AcDbText
 10
841.0
 20
536.0727324465289
 30
0.0
 40
3.5
  1
!GENTITLE-MAX
100
AcDbText
  0
TEXT
  5
3FA
330
2
100
AcDbEntity
  8
0
 60
     1
100
AcDbText
 10
684.8812705983662
 20
141.8068575944205
 30
0.0
 40
3.5
  1
!GENTITLE-INSERT
100
AcDbText
  0
TEXT
  5
3FB
330
2
100
AcDbEntity
  8
0
 60
     1
100
AcDbText
 10
-136.1187294016335
 20
146.8068575944205
 30
0.0
 40
3.5
  1
!GENTITLE-LL
100
AcDbText
  0
TEXT
  5
3FC
330
2
100
AcDbEntity
  8
0
 60
     1
100
AcDbText
 10
684.8812705983664
 20
720.8068575944203
 30
0.0
 40
3.5
  1
!GENTITLE-RU
100
AcDbText
  0
TEXT
  5
3FD
330
2
100
AcDbEntity
  8
0
 60
     1
100
AcDbText
 10
694.8812705983664
 20
730.8068575944203
 30
0.0
 40
3.5
  1
!GENTITLE-MAX
100
AcDbText
  0
LINE
  5
3612
330
2
100
AcDbEntity
  8
0
  6
Continuous
 62
     7
370
     0
100
AcDbLine
 10
1293.368460868665
 20
1298.250116376848
 30
0.0
 11
1293.368460868665
 21
1281.635934176848
 31
0.0
  0
LINE
  5
3613
330
2
100
AcDbEntity
  8
0
  6
Continuous
 62
     7
370
     0
100
AcDbLine
 10
1323.525957468665
 20
1281.635934176848
 30
0.0
 11
1323.525957468665
 21
1298.250116376848
 31
0.0
  0
LINE
  5
3614
330
2
100
AcDbEntity
  8
0
  6
Continuous
 62
     7
370
     0
100
AcDbLine
 10
1323.329106968664
 20
1298.446966876848
 30
0.0
 11
1293.565311368664
 21
1298.446966876848
 31
0.0
  0
LINE
  5
3615
330
2
100
AcDbEntity
  8
0
  6
Continuous
 62
     7
370
     0
100
AcDbLine
 10
1293.565311368664
 20
1281.439083676848
 30
0.0
 11
1323.329106968664
 21
1281.439083676848
 31
0.0
  0
ARC
  5
3616
330
2
100
AcDbEntity
  8
0
  6
Continuous
 62
     7
370
     0
100
AcDbCircle
 10
1293.565311368664
 20
1298.250116376848
 30
0.0
 40
0.1968505
100
AcDbArc
 50
90.0
 51
180.0
  0
ARC
  5
3617
330
2
100
AcDbEntity
  8
0
  6
Continuous
 62
     7
370
     0
100
AcDbCircle
 10
1323.329106968664
 20
1298.250116376848
 30
0.0
 40
0.1968505
100
AcDbArc
 50
0.0
 51
90.0
  0
ARC
  5
3618
330
2
100
AcDbEntity
  8
0
  6
Continuous
 62
     7
370
     0
100
AcDbCircle
 10
1323.329106968664
 20
1281.635934176848
 30
0.0
 40
0.1968505
100
AcDbArc
 50
270.0
 51
0.0
  0
ARC
  5
3619
330
2
100
AcDbEntity
  8
0
  6
Continuous
 62
     7
370
     0
100
AcDbCircle
 10
1293.565311368664
 20
1281.635934176848
 30
0.0
 40
0.1968505
100
AcDbArc
 50
180.0
 51
270.0
  0
DIMENSION
  5
361B
330
2
100
AcDbEntity
  8
0
  6
Continuous
 62
     7
370
     0
100
AcDbDimension
  2
*D25
 10
1293.368460868665
 20
1277.612416019898
 30
0.0
 11
1308.447209168665
 21
1279.122924494474
 31
0.0
 70
    33
 71
     5
 42
30.15749659999983
  3
Default
100
AcDbAlignedDimension
 13
1323.525957468665
 23
1281.635934176848
 33
0.0
 14
1293.368460868665
 24
1281.635934176848
 34
0.0
1001
ACAD
1000
DSTYLE
1002
{
1070
   178
1070
     7
1070
   280
1070
     0
1070
   344
1005
0
1070
   343
1005
0
1070
    76
1070
     0
1070
    75
1070
     0
1070
    41
1040
1.0
1070
   176
1070
     7
1070
   177
1070
     7
1070
    44
1040
1.0
1070
    42
1040
1.0
1070
   147
1040
1.0
1070
   140
1040
1.0
1002
}
  0
DIMENSION
  5
361C
330
2
100
AcDbEntity
  8
0
  6
Continuous
 62
     7
370
     0
100
AcDbDimension
  2
*D26
 10
1328.750289344921
 20
1298.446966876848
 30
0.0
 11
1327.239780870344
 21
1289.943025276848
 31
0.0
 70
    33
 71
     5
 42
17.00788319999992
  3
Default
100
AcDbAlignedDimension
 13
1323.329106968664
 23
1281.439083676848
 33
0.0
 14
1323.329106968664
 24
1298.446966876848
 34
0.0
1001
ACAD
1000
DSTYLE
1002
{
1070
   178
1070
     7
1070
    41
1040
1.0
1070
   176
1070
     7
1070
   177
1070
     7
1070
    44
1040
1.0
1070
    42
1040
1.0
1070
   147
1040
1.0
1070
   140
1040
1.0
1002
}
  0
DIMENSION
  5
3749
330
2
100
AcDbEntity
  8
0
  6
Continuous
 62
     7
370
     0
100
AcDbDimension
  2
*D28
 10
1293.429576858909
 20
1298.377785269278
 30
0.0
 11
1297.574160905084
 21
1295.890496315259
 31
0.0
 70
    36
  1
R1/5
 71
     5
 42
0.1968505011813022
  3
DSTYLE8
100
AcDbRadialDimension
 15
1293.558044881037
 25
1298.228634047004
 35
0.0
 40
0.0
1001
ACAD
1000
DSTYLE
1002
{
1070
   178
1070
     7
1070
    41
1040
1.0
1070
   176
1070
     7
1070
   147
1040
1.0
1070
   172
1070
     0
1070
   140
1040
1.0
1002
}
  0
MTEXT
  5
3783
330
2
100
AcDbEntity
  8
0
100
AcDbMText
 10
1300.4723813425
 20
1287.312755745372
 30
0.0
 40
0.3937
 41
14.93397349915023
 71
     1
 72
     5
  3
{\fTimes New Roman|b0|i0|c0|p18;\H1.27x;Model : SIO-3319DU   \H0.58x;IMPORTANT ! \PThis template is provided as a guide for Undermount cutout only. \PBefore beginning to cut countertop, compare physical dimension of the template and the cutout line w
  1
ith the actual sink unit for an accurate cut.\PHamatUSA is not responsible for any countertop, installation or labor charges due to failure to follow these instructions.\P\Lwww.Hamatusa.com }
  7
\U+C2A4\U+D0C0\U+C77C2
 73
     1
 44
1.0
  0
VIEWPORT
  5
74
330
C
100
AcDbEntity
 67
     1
  8
0
100
AcDbViewport
 10
490.633788896909
 20
297.0009369707932
 30
0.0
 40
1115.370256166983
 41
599.3755656108596
 68
     1
 69
     1
 12
490.633788896909
 22
297.0009369707932
 13
0.0
 23
0.0
 14
10.0
 24
10.0
 15
10.0
 25
10.0
 16
0.0
 26
0.0
 36
1.0
 17
0.0
 27
0.0
 37
0.0
 42
50.0
 43
0.0
 44
0.0
 45
599.3755656108596
 50
0.0
 51
0.0
 72
  1000
 90
    32800
  1

281
     0
 71
     1
 74
     0
110
0.0
120
0.0
130
0.0
111
1.0
121
0.0
131
0.0
112
0.0
122
1.0
132
0.0
 79
     0
146
0.0
170
     0
  0
ENDSEC
  0
SECTION
  2
OBJECTS
  0
DICTIONARY
  5
7
330
0
100
AcDbDictionary
281
     1
  3
ACAD_COLOR
350
5A3
  3
ACAD_GROUP
350
20
  3
ACAD_LAYOUT
350
B
  3
ACAD_MATERIAL
350
5A2
  3
ACAD_MLINESTYLE
350
21
  3
ACAD_PLOTSETTINGS
350
22
  3
ACAD_PLOTSTYLENAME
350
6
  3
ACAD_TABLESTYLE
350
5C3
  3
ACAD_VISUALSTYLE
350
3161
  3
AcDbVariableDictionary
350
81
  0
DICTIONARY
  5
1CC0
330
10
100
AcDbDictionary
280
     1
281
     1
  3
ACAD_LAYERSTATES
360
1CC1
  0
DICTIONARY
  5
95E
330
2
100
AcDbDictionary
280
     1
281
     1
  3
ACAD_SORTENTS
360
95F
  0
DICTIONARY
  5
5A3
102
{ACAD_REACTORS
330
7
102
}
330
7
100
AcDbDictionary
281
     1
  0
DICTIONARY
  5
20
102
{ACAD_REACTORS
330
7
102
}
330
7
100
AcDbDictionary
281
     1
  0
DICTIONARY
  5
B
102
{ACAD_REACTORS
330
7
102
}
330
7
100
AcDbDictionary
281
     1
  3
DIN A1 Title Block
350
F
  3
Model
350
A
  0
DICTIONARY
  5
5A2
102
{ACAD_REACTORS
330
7
102
}
330
7
100
AcDbDictionary
281
     1
  3
ByBlock
350
315F
  3
ByLayer
350
315E
  3
Global
350
3160
  0
DICTIONARY
  5
21
102
{ACAD_REACTORS
330
7
102
}
330
7
100
AcDbDictionary
281
     1
  3
Standard
350
23
  0
DICTIONARY
  5
22
102
{ACAD_REACTORS
330
7
102
}
330
7
100
AcDbDictionary
281
     1
  0
ACDBDICTIONARYWDFLT
  5
6
102
{ACAD_REACTORS
330
7
102
}
330
7
100
AcDbDictionary
281
     1
  3
Normal
350
5
100
AcDbDictionaryWithDefault
340
5
  0
DICTIONARY
  5
5C3
102
{ACAD_REACTORS
330
7
102
}
330
7
100
AcDbDictionary
281
     1
  3
Standard
350
5C4
  0
DICTIONARY
  5
3161
102
{ACAD_REACTORS
330
7
102
}
330
7
100
AcDbDictionary
281
     1
  3
2dWireframe
350
3167
  3
3D Hidden
350
3169
  3
3dWireframe
350
3168
  3
Basic
350
3166
  3
Brighten
350
316D
  3
ColorChange
350
3171
  3
Conceptual
350
316A
  3
Dim
350
316C
  3
Facepattern
350
3170
  3
Flat
350
3162
  3
FlatWithEdges
350
3163
  3
Gouraud
350
3164
  3
GouraudWithEdges
350
3165
  3
Linepattern
350
316F
  3
Realistic
350
316B
  3
Thicken
350
316E
  0
DICTIONARY
  5
81
102
{ACAD_REACTORS
330
7
102
}
330
7
100
AcDbDictionary
281
     1
  3
CTABLESTYLE
350
5EE
  3
DIMASSOC
350
82
  3
LOFTANG1
350
3784
  3
LOFTANG2
350
3785
  3
PROJECTNAME
350
3137
  0
DICTIONARY
  5
1CC1
102
{ACAD_REACTORS
330
1CC0
102
}
330
1CC0
100
AcDbDictionary
281
     1
  0
SORTENTSTABLE
  5
95F
102
{ACAD_REACTORS
330
95E
102
}
330
95E
100
AcDbSortentsTable
330
2
331
3FC
  5
3FC
331
3FA
  5
3FA
331
386
  5
386
331
384
  5
384
331
3FD
  5
3FD
331
37C
  5
37C
331
3FB
  5
3FB
331
387
  5
387
331
385
  5
385
  0
LAYOUT
  5
F
102
{ACAD_REACTORS
330
B
102
}
330
B
100
AcDbPlotSettings
  1

  2
none_device
  4
ISO_A1_(841.00_x_594.00_MM)
  6

 40
7.549999999999998
 41
20.05
 42
7.549999999999998
 43
20.05
 44
841.0
 45
594.0
 46
-7.57
 47
-20.06
 48
0.0
 49
0.0
140
0.0
141
0.0
142
1.0
143
1.0
 70
   688
 72
     1
 73
     0
 74
     5
  7

 75
    16
147
1.0
 76
     0
 77
     2
 78
   300
148
0.0128164049386896
149
0.0090630292066862
100
AcDbLayout
  1
DIN A1 Title Block
 70
     1
 71
     1
 10
0.0071835950613108
 20
0.0009369707933118
 11
841.0071835950612
 21
594.0009369707931
 12
0.0
 22
0.0
 32
0.0
 14
1.000000000000000E+20
 24
1.000000000000000E+20
 34
1.000000000000000E+20
 15
-1.000000000000000E+20
 25
-1.000000000000000E+20
 35
-1.000000000000000E+20
146
0.0
 13
0.0
 23
0.0
 33
0.0
 16
1.0
 26
0.0
 36
0.0
 17
0.0
 27
1.0
 37
0.0
 76
     0
330
C
331
74
  0
LAYOUT
  5
A
102
{ACAD_REACTORS
330
B
102
}
330
B
100
AcDbPlotSettings
  1

  2
none_device
  4
ISO_A4_(297.00_x_210.00_MM)
  6

 40
7.5
 41
20.0
 42
7.5
 43
20.0
 44
297.0
 45
210.0
 46
0.0
 47
0.0
 48
969.1120635225747
 49
1410.089773188028
140
997.7071895623687
141
1431.243016253039
142
1.0
143
20.0
 70
 11952
 72
     1
 73
     0
 74
     4
  7

 75
    22
147
0.05
 76
     0
 77
     2
 78
   300
148
-969.1120635225747
149
-1410.089773188028
100
AcDbLayout
  1
Model
 70
     1
 71
     0
 10
0.0
 20
0.0
 11
12.0
 21
9.0
 12
0.0
 22
0.0
 32
0.0
 14
0.0
 24
0.0
 34
0.0
 15
0.0
 25
0.0
 35
0.0
146
0.0
 13
0.0
 23
0.0
 33
0.0
 16
1.0
 26
0.0
 36
0.0
 17
0.0
 27
1.0
 37
0.0
 76
     0
330
2
331
3158
1001
ACAD_PSEXT
1000
\U+C5C6\U+C74C
1000
\U+C5C6\U+C74C
1000
\U+C801\U+C6A9 \U+AC00\U+B2A5\U+D558\U+C9C0 \U+C54A\U+C74C
1000
\U+BC30\U+CE58\U+AC00 \U+C0C8\U+B85C\U+C6B4 \U+D50C\U+B85C\U+D130 \U+AD6C\U+C131\U+C744 \U+C120\U+D0DD\U+D560 \U+B54C\U+AE4C\U+C9C0 \U+D50C\U+B86F\U+B418\U+C9C0 \U+C54A\U+C2B5\U+B2C8\U+B2E4.
1070
     0
  0
MATERIAL
  5
315F
102
{ACAD_XDICTIONARY
360
378A
102
}
102
{ACAD_REACTORS
330
5A2
102
}
330
5A2
100
AcDbMaterial
  1
ByBlock
  0
MATERIAL
  5
315E
102
{ACAD_XDICTIONARY
360
3788
102
}
102
{ACAD_REACTORS
330
5A2
102
}
330
5A2
100
AcDbMaterial
  1
ByLayer
  0
MATERIAL
  5
3160
102
{ACAD_XDICTIONARY
360
378C
102
}
102
{ACAD_REACTORS
330
5A2
102
}
330
5A2
100
AcDbMaterial
  1
Global
  0
MLINESTYLE
  5
23
102
{ACAD_REACTORS
330
21
102
}
330
21
100
AcDbMlineStyle
  2
STANDARD
 70
     0
  3

 62
   256
 51
90.0
 52
90.0
 71
     2
 49
0.5
 62
   256
  6
BYLAYER
 49
-0.5
 62
   256
  6
BYLAYER
  0
ACDBPLACEHOLDER
  5
5
102
{ACAD_REACTORS
330
6
102
}
330
6
  0
TABLESTYLE
  5
5C4
102
{ACAD_XDICTIONARY
360
3786
102
}
102
{ACAD_REACTORS
330
5C3
102
}
330
5C3
100
AcDbTableStyle
  3
Standard
 70
     0
 71
     0
 40
1.5
 41
1.5
280
     0
281
     0
  7
Standard
140
4.5
170
     2
 62
     0
 63
     7
283
     0
274
    -2
284
     1
 64
     0
275
    -2
285
     1
 65
     0
276
    -2
286
     1
 66
     0
277
    -2
287
     1
 67
     0
278
    -2
288
     1
 68
     0
279
    -2
289
     1
 69
     0
  7
Standard
140
6.0
170
     5
 62
     0
 63
     7
283
     0
274
    -2
284
     1
 64
     0
275
    -2
285
     1
 65
     0
276
    -2
286
     1
 66
     0
277
    -2
287
     1
 67
     0
278
    -2
288
     1
 68
     0
279
    -2
289
     1
 69
     0
  7
Standard
140
4.5
170
     5
 62
     0
 63
     7
283
     0
274
    -2
284
     1
 64
     0
275
    -2
285
     1
 65
     0
276
    -2
286
     1
 66
     0
277
    -2
287
     1
 67
     0
278
    -2
288
     1
 68
     0
279
    -2
289
     1
 69
     0
  0
VISUALSTYLE
  5
3167
102
{ACAD_REACTORS
330
3161
102
}
330
3161
100
AcDbVisualStyle
  2
2dWireframe
 70
     4
 71
     0
 72
     2
 73
     0
 90
        0
 40
-0.6
 41
-30.0
 62
     5
 63
     7
421
 16777215
 74
     1
 91
        4
 64
     7
 65
   257
 75
     1
175
     1
 42
1.0
 92
        0
 66
   257
 43
1.0
 76
     1
 77
     6
 78
     2
 67
     7
 79
     5
170
     0
171
     0
290
     0
174
     0
 93
        1
 44
0.0
173
     0
291
     0
 45
0.0
1001
ACAD
1000
AcDbSavedByObjectVersion
1070
     0
  0
VISUALSTYLE
  5
3169
102
{ACAD_REACTORS
330
3161
102
}
330
3161
100
AcDbVisualStyle
  2
3D Hidden
 70
     6
 71
     1
 72
     2
 73
     2
 90
        0
 40
-0.6
 41
-30.0
 62
     5
 63
     7
421
 16777215
 74
     2
 91
        2
 64
     7
 65
   257
 75
     2
175
     1
 42
40.0
 92
        0
 66
   257
 43
1.0
 76
     1
 77
     6
 78
     2
 67
     7
 79
     3
170
     0
171
     0
290
     0
174
     0
 93
        1
 44
0.0
173
     0
291
     0
 45
0.0
1001
ACAD
1000
AcDbSavedByObjectVersion
1070
     0
  0
VISUALSTYLE
  5
3168
102
{ACAD_REACTORS
330
3161
102
}
330
3161
100
AcDbVisualStyle
  2
3dWireframe
 70
     5
 71
     0
 72
     2
 73
     0
 90
        0
 40
-0.6
 41
-30.0
 62
     5
 63
     7
421
 16777215
 74
     1
 91
        4
 64
     7
 65
   257
 75
     1
175
     1
 42
1.0
 92
        0
 66
   257
 43
1.0
 76
     1
 77
     6
 78
     2
 67
     7
 79
     5
170
     0
171
     0
290
     0
174
     0
 93
        1
 44
0.0
173
     0
291
     0
 45
0.0
1001
ACAD
1000
AcDbSavedByObjectVersion
1070
     0
  0
VISUALSTYLE
  5
3166
102
{ACAD_REACTORS
330
3161
102
}
330
3161
100
AcDbVisualStyle
  2
Basic
 70
     7
 71
     1
 72
     0
 73
     1
 90
        0
 40
-0.6
 41
-30.0
 62
     5
 63
     7
421
 16777215
 74
     0
 91
        4
 64
     7
 65
   257
 75
     1
175
     1
 42
1.0
 92
        8
 66
     7
 43
1.0
 76
     1
 77
     6
 78
     2
 67
     7
 79
     5
170
     0
171
     0
290
     0
174
     0
 93
        1
 44
0.0
173
     0
291
     1
 45
0.0
1001
ACAD
1000
AcDbSavedByObjectVersion
1070
     0
  0
VISUALSTYLE
  5
316D
102
{ACAD_REACTORS
330
3161
102
}
330
3161
100
AcDbVisualStyle
  2
Brighten
 70
    12
 71
     2
 72
     2
 73
     0
 90
        0
 40
-0.6
 41
-30.0
 62
     5
 63
     7
421
 16777215
 74
     1
 91
        4
 64
     7
 65
   257
 75
     1
175
     1
 42
1.0
 92
        8
 66
     7
 43
1.0
 76
     1
 77
     6
 78
     2
 67
     7
 79
     5
170
     0
171
     0
290
     0
174
     0
 93
        1
 44
50.0
173
     0
291
     1
 45
0.0
1001
ACAD
1000
AcDbSavedByObjectVersion
1070
     0
  0
VISUALSTYLE
  5
3171
102
{ACAD_REACTORS
330
3161
102
}
330
3161
100
AcDbVisualStyle
  2
ColorChange
 70
    16
 71
     2
 72
     2
 73
     3
 90
        0
 40
-0.6
 41
-30.0
 62
     5
 63
     8
421
  8421504
 74
     1
 91
        4
 64
     7
 65
   257
 75
     1
175
     1
 42
1.0
 92
        8
 66
     8
424
  8421504
 43
1.0
 76
     1
 77
     6
 78
     2
 67
     7
 79
     5
170
     0
171
     0
290
     0
174
     0
 93
        1
 44
0.0
173
     0
291
     1
 45
0.0
1001
ACAD
1000
AcDbSavedByObjectVersion
1070
     0
  0
VISUALSTYLE
  5
316A
102
{ACAD_REACTORS
330
3161
102
}
330
3161
100
AcDbVisualStyle
  2
Conceptual
 70
     9
 71
     3
 72
     2
 73
     0
 90
        0
 40
-0.6
 41
-30.0
 62
     5
 63
     7
421
 16777215
 74
     2
 91
        2
 64
     7
 65
   257
 75
     1
175
     1
 42
40.0
 92
        8
 66
     7
 43
1.0
 76
     1
 77
     6
 78
     2
 67
     7
 79
     3
170
     0
171
     0
290
     0
174
     0
 93
        1
 44
0.0
173
     0
291
     0
 45
0.0
1001
ACAD
1000
AcDbSavedByObjectVersion
1070
     0
  0
VISUALSTYLE
  5
316C
102
{ACAD_REACTORS
330
3161
102
}
330
3161
100
AcDbVisualStyle
  2
Dim
 70
    11
 71
     2
 72
     2
 73
     0
 90
        0
 40
-0.6
 41
-30.0
 62
     5
 63
     7
421
 16777215
 74
     1
 91
        4
 64
     7
 65
   257
 75
     1
175
     1
 42
1.0
 92
        8
 66
     7
 43
1.0
 76
     1
 77
     6
 78
     2
 67
     7
 79
     5
170
     0
171
     0
290
     0
174
     0
 93
        1
 44
-50.0
173
     0
291
     1
 45
0.0
1001
ACAD
1000
AcDbSavedByObjectVersion
1070
     0
  0
VISUALSTYLE
  5
3170
102
{ACAD_REACTORS
330
3161
102
}
330
3161
100
AcDbVisualStyle
  2
Facepattern
 70
    15
 71
     2
 72
     2
 73
     0
 90
        0
 40
-0.6
 41
-30.0
 62
     5
 63
     7
421
 16777215
 74
     1
 91
        4
 64
     7
 65
   257
 75
     1
175
     1
 42
1.0
 92
        8
 66
     7
 43
1.0
 76
     1
 77
     6
 78
     2
 67
     7
 79
     5
170
     0
171
     0
290
     0
174
     0
 93
        1
 44
0.0
173
     0
291
     1
 45
0.0
1001
ACAD
1000
AcDbSavedByObjectVersion
1070
     0
  0
VISUALSTYLE
  5
3162
102
{ACAD_REACTORS
330
3161
102
}
330
3161
100
AcDbVisualStyle
  2
Flat
 70
     0
 71
     2
 72
     1
 73
     1
 90
        2
 40
-0.6
 41
30.0
 62
     5
 63
     7
421
 16777215
 74
     0
 91
        4
 64
     7
 65
   257
 75
     1
175
     1
 42
1.0
 92
        8
 66
     7
 43
1.0
 76
     1
 77
     6
 78
     2
 67
     7
 79
     5
170
     0
171
     0
290
     0
174
     0
 93
       13
 44
0.0
173
     0
291
     1
 45
0.0
1001
ACAD
1000
AcDbSavedByObjectVersion
1070
     0
  0
VISUALSTYLE
  5
3163
102
{ACAD_REACTORS
330
3161
102
}
330
3161
100
AcDbVisualStyle
  2
FlatWithEdges
 70
     1
 71
     2
 72
     1
 73
     1
 90
        2
 40
-0.6
 41
30.0
 62
     5
 63
     7
421
 16777215
 74
     1
 91
        4
 64
     7
 65
   257
 75
     1
175
     1
 42
1.0
 92
        0
 66
   257
 43
1.0
 76
     1
 77
     6
 78
     2
 67
     7
 79
     5
170
     0
171
     0
290
     0
174
     0
 93
       13
 44
0.0
173
     0
291
     1
 45
0.0
1001
ACAD
1000
AcDbSavedByObjectVersion
1070
     0
  0
VISUALSTYLE
  5
3164
102
{ACAD_REACTORS
330
3161
102
}
330
3161
100
AcDbVisualStyle
  2
Gouraud
 70
     2
 71
     2
 72
     2
 73
     1
 90
        2
 40
-0.6
 41
30.0
 62
     5
 63
     7
421
 16777215
 74
     0
 91
        4
 64
     7
 65
   257
 75
     1
175
     1
 42
1.0
 92
        0
 66
     7
 43
1.0
 76
     1
 77
     6
 78
     2
 67
     7
 79
     5
170
     0
171
     0
290
     0
174
     0
 93
       13
 44
0.0
173
     0
291
     1
 45
0.0
1001
ACAD
1000
AcDbSavedByObjectVersion
1070
     0
  0
VISUALSTYLE
  5
3165
102
{ACAD_REACTORS
330
3161
102
}
330
3161
100
AcDbVisualStyle
  2
GouraudWithEdges
 70
     3
 71
     2
 72
     2
 73
     1
 90
        2
 40
-0.6
 41
30.0
 62
     5
 63
     7
421
 16777215
 74
     1
 91
        4
 64
     7
 65
   257
 75
     1
175
     1
 42
1.0
 92
        0
 66
   257
 43
1.0
 76
     1
 77
     6
 78
     2
 67
     7
 79
     5
170
     0
171
     0
290
     0
174
     0
 93
       13
 44
0.0
173
     0
291
     1
 45
0.0
1001
ACAD
1000
AcDbSavedByObjectVersion
1070
     0
  0
VISUALSTYLE
  5
316F
102
{ACAD_REACTORS
330
3161
102
}
330
3161
100
AcDbVisualStyle
  2
Linepattern
 70
    14
 71
     2
 72
     2
 73
     0
 90
        0
 40
-0.6
 41
-30.0
 62
     5
 63
     7
421
 16777215
 74
     1
 91
        4
 64
     7
 65
   257
 75
     7
175
     7
 42
1.0
 92
        8
 66
     7
 43
1.0
 76
     1
 77
     6
 78
     2
 67
     7
 79
     5
170
     0
171
     0
290
     0
174
     0
 93
        1
 44
0.0
173
     0
291
     1
 45
0.0
1001
ACAD
1000
AcDbSavedByObjectVersion
1070
     0
  0
VISUALSTYLE
  5
316B
102
{ACAD_REACTORS
330
3161
102
}
330
3161
100
AcDbVisualStyle
  2
Realistic
 70
     8
 71
     2
 72
     2
 73
     0
 90
        0
 40
-0.6
 41
-30.0
 62
     5
 63
     7
421
 16777215
 74
     1
 91
        0
 64
     7
 65
   257
 75
     1
175
     1
 42
1.0
 92
        8
 66
     8
424
  7895160
 43
1.0
 76
     1
 77
     6
 78
     2
 67
     7
 79
     5
170
     0
171
     0
290
     0
174
     0
 93
       13
 44
0.0
173
     0
291
     0
 45
0.0
1001
ACAD
1000
AcDbSavedByObjectVersion
1070
     0
  0
VISUALSTYLE
  5
316E
102
{ACAD_REACTORS
330
3161
102
}
330
3161
100
AcDbVisualStyle
  2
Thicken
 70
    13
 71
     2
 72
     2
 73
     0
 90
        0
 40
-0.6
 41
-30.0
 62
     5
 63
     7
421
 16777215
 74
     1
 91
        4
 64
     7
 65
   257
 75
     1
175
     1
 42
1.0
 92
       12
 66
     7
 43
1.0
 76
     1
 77
     6
 78
     2
 67
     7
 79
     5
170
     0
171
     0
290
     0
174
     0
 93
        1
 44
0.0
173
     0
291
     1
 45
0.0
1001
ACAD
1000
AcDbSavedByObjectVersion
1070
     0
  0
DICTIONARYVAR
  5
5EE
102
{ACAD_REACTORS
330
81
102
}
330
81
100
DictionaryVariables
280
     0
  1
STANDARD
  0
DICTIONARYVAR
  5
82
102
{ACAD_REACTORS
330
81
102
}
330
81
100
DictionaryVariables
280
     0
  1
1
  0
DICTIONARYVAR
  5
3784
102
{ACAD_REACTORS
330
81
102
}
330
81
100
DictionaryVariables
280
     0
  1
1.570796
  0
DICTIONARYVAR
  5
3785
102
{ACAD_REACTORS
330
81
102
}
330
81
100
DictionaryVariables
280
     0
  1
1.570796
  0
DICTIONARYVAR
  5
3137
102
{ACAD_REACTORS
330
81
102
}
330
81
100
DictionaryVariables
280
     0
  1

  0
DICTIONARY
  5
378A
330
315F
100
AcDbDictionary
280
     1
281
     1
  3
ACAD_XREC_ROUNDTRIP
360
378B
  0
DICTIONARY
  5
3788
330
315E
100
AcDbDictionary
280
     1
281
     1
  3
ACAD_XREC_ROUNDTRIP
360
3789
  0
DICTIONARY
  5
378C
330
3160
100
AcDbDictionary
280
     1
281
     1
  3
ACAD_XREC_ROUNDTRIP
360
378D
  0
DICTIONARY
  5
3786
330
5C4
100
AcDbDictionary
280
     1
281
     1
  3
ACAD_XREC_ROUNDTRIP
360
3787
  0
XRECORD
  5
378B
102
{ACAD_REACTORS
330
378A
102
}
330
378A
100
AcDbXrecord
280
     1
102
MATERIAL
148
0.0
149
0.0
149
0.0
 93
        0
 94
       63
282
     0
 72
     1
 77
     1
171
     1
175
     1
179
     1
273
     0
  0
XRECORD
  5
3789
102
{ACAD_REACTORS
330
3788
102
}
330
3788
100
AcDbXrecord
280
     1
102
MATERIAL
148
0.0
149
0.0
149
0.0
 93
        0
 94
       63
282
     0
 72
     1
 77
     1
171
     1
175
     1
179
     1
273
     0
  0
XRECORD
  5
378D
102
{ACAD_REACTORS
330
378C
102
}
330
378C
100
AcDbXrecord
280
     1
102
MATERIAL
148
0.0
149
0.0
149
0.0
 93
        0
 94
       63
282
     0
 72
     1
 77
     1
171
     1
175
     1
179
     1
273
     0
  0
XRECORD
  5
3787
102
{ACAD_REACTORS
330
3786
102
}
330
3786
100
AcDbXrecord
280
     1
102
ACAD_ROUNDTRIP_PRE2007_TABLESTYLE
 90
        4
 91
        0
  1

 92
        4
 93
        0
  2

 94
        4
 95
        0
  3

  0
ENDSEC
  0
EOF
